\m/ 80's metal \m/

Информационно-аналитический форум "80 см пыли" (In Search We Trust) "У нас никто никуда не спешит"
Me For You - http://me-4u.com
It is currently 19 Dec 2018

All times are UTC + 3 hours

Spoiler
Chat - temporary registration for foreign users (please leave your application here)





Forum rules


Уважаемые пользователи ресурса, друзья, коллеги и гости нашего форума. Данный раздел конференции создан с целью рафинации, и посвящён такому стилевому направлению в музыке, как Thrash Metal во всех его проявлениях и ипостасях, а иногда и переходящему на пограничные стили Speed, Power, Groove, Crossover, MDM и т.п.
Главное правило здесь одно: Одна группа – одна тема! Всё остальное созвучно основным нормам поведения на конференции.
Шаблон оформления тем в этом подфоруме должен быть основан на данных сайта www.metal-archives.com и выглядеть следующим образом:

Группа (Страна) - Стилевые рамки - дискография
Slayer (USA) - Thrash Metal - дискография


В теме допустимо размещение всей информации касающейся данного коллектива: анонсы любых альбомов в любых форматах, запросы любых релизов коллектива (кроме релизов текущего и прошлого годов), обсуждения, обзоры, а в остальном всё как обычно. Уважаем друг друга, не грубим, соблюдаем нормы поведения на конференции, оформляем анонсы и запросы красиво и информативно, что бы модераторы не посчитали их троллингом, и не отправили куда положено, выписав Вам предупреждение или ещё что похуже… Прежде чем что-то запросить или запостить, пользуемся поиском! Пользуемся поиском! ПОЛЬЗУЕМСЯ ПОИСКОМ!!! Так слышно меня?.. :pardon:
Интересного, конструктивного и креативного общения! ;)



Post new topic Reply to topic  [ 16 posts ] 
Author Message
 
PostPosted: 08 Jul 2017 
Генеральный thrasher
User avatar
Joined: 03 Oct 2008
Posts: 3539
Lоcаtion: Ханты-Мансийский АО
Age: 43
Name: Сергей
Image

Year:2014
Style:Thrash Metal
Country:Greece
Archive:Wav Tracks
Source:BC
Size:81Mb

Tracklist:
01. Resistant Bangers 04:16
02. Predefined Life 03:46

Resistant Bangers (EP)

Image

Year:2015
Style:Thrash Metal
Country:Greece
Archive:Flac+Cue+Log+Scans
Source:my CD
Size:314Mb
Label:Witches Brew

Tracklist:
01. Sinister Tales 01:01
02. Revel In Demise 04:29
03. Reaping Fire 05:05
04. Storming Death 04:21
05. Leather Militia 05:01
06. Trapped in a Vicious Circle 04:22
07. Blood Countess 03:46
08. Hypnos 03:41
09. Evoke Perdition 03:58
10. Lurking Evil 05:56

"Cue"
REM GENRE "Thrash Metal"
REM DATE 2015
REM DISCID 9109C30A
REM COMMENT "ExactAudioCopy v1.1"
PERFORMER "Endless Recovery"
TITLE "Revel In Demise"
FILE "Endless Recovery - Revel In Demise.flac" WAVE
TRACK 01 AUDIO
TITLE "Sinister Tales"
PERFORMER "Endless Recovery"
INDEX 01 00:00:00
TRACK 02 AUDIO
TITLE "Revel in Demise"
PERFORMER "Endless Recovery"
INDEX 01 01:01:32
TRACK 03 AUDIO
TITLE "Reaping Fire"
PERFORMER "Endless Recovery"
INDEX 01 05:30:60
TRACK 04 AUDIO
TITLE "Storming Death"
PERFORMER "Endless Recovery"
INDEX 01 10:35:46
TRACK 05 AUDIO
TITLE "Leather Militia"
PERFORMER "Endless Recovery"
INDEX 01 14:56:48
TRACK 06 AUDIO
TITLE "Trapped in a Vicious Circle"
PERFORMER "Endless Recovery"
INDEX 01 19:57:16
TRACK 07 AUDIO
TITLE "Blood Countess"
PERFORMER "Endless Recovery"
INDEX 01 24:19:18
TRACK 08 AUDIO
TITLE "Hypnos"
PERFORMER "Endless Recovery"
INDEX 01 28:05:03
TRACK 09 AUDIO
TITLE "Evoke Perdition"
PERFORMER "Endless Recovery"
INDEX 01 31:46:23
TRACK 10 AUDIO
TITLE "Lurking Evil"
PERFORMER "Endless Recovery"
INDEX 01 35:44:06

"Log"
Exact Audio Copy V1.1 from 23. June 2015

Отчёт EAC об извлечении, выполненном 8. июля 2017, 9:23

Endless Recovery / Revel In Demise

Дисковод: HL-DT-STDVDRAM GTA0N Adapter: 1 ID: 0

Режим чтения : Достоверность
Использование точного потока : Да
Отключение кэша аудио : Да
Использование указателей C2 : Нет

Коррекция смещения при чтении : 102
Способность читать области Lead-in и Lead-out : Нет
Заполнение пропущенных сэмплов тишиной : Да
Удаление блоков с тишиной в начале и конце : Нет
При вычислениях CRC использовались нулевые сэмплы : Да
Интерфейс : Встроенный Win32-интерфейс для Win NT/2000

Выходной формат : Пользовательский кодировщик
Выбранный битрейт : 768 kBit/s
Качество : Высокий
Добавление ID3-тега : Нет
Утилита сжатия : C:\Program Files (x86)\Exact Audio Copy\FLAC\FLAC.EXE
Дополнительные параметры : -V -8 -T "Date=%year%" -T "Genre=%genre%" %source%


TOC извлечённого CD

Трек | Старт | Длительность | Начальный сектор | Конечный сектор
---------------------------------------------------------------------
1 | 0:00.00 | 1:01.32 | 0 | 4606
2 | 1:01.32 | 4:29.28 | 4607 | 24809
3 | 5:30.60 | 5:04.61 | 24810 | 47670
4 | 10:35.46 | 4:21.02 | 47671 | 67247
5 | 14:56.48 | 5:00.43 | 67248 | 89790
6 | 19:57.16 | 4:22.02 | 89791 | 109442
7 | 24:19.18 | 3:45.60 | 109443 | 126377
8 | 28:05.03 | 3:41.20 | 126378 | 142972
9 | 31:46.23 | 3:57.58 | 142973 | 160805
10 | 35:44.06 | 5:55.47 | 160806 | 187477


Характеристики диапазона извлечения и сообщения об ошибках

Выбранный диапазон

Имя файла C:\Users\магазин\Music\Endless Recovery - Revel In Demise.wav

Пиковый уровень 97.7 %
Скорость извлечения 3.7 X
Качество диапазона 100.0 %
CRC теста 745BA537
CRC копии 745BA537
Копирование... OK

Ошибок не произошло


AccurateRip: сводка

Трек 1 отсутствует в базе данных
Трек 2 отсутствует в базе данных
Трек 3 отсутствует в базе данных
Трек 4 отсутствует в базе данных
Трек 5 отсутствует в базе данных
Трек 6 отсутствует в базе данных
Трек 7 отсутствует в базе данных
Трек 8 отсутствует в базе данных
Трек 9 отсутствует в базе данных
Трек 10 отсутствует в базе данных

Ни одного трека нет в базе AccurateRip

Конец отчёта

---- CUETools DB Plugin V2.1.6

[CTDB TOCID: 5Xyp8SqQyZtb5DvI1Uj.Zc_BqKw-] found
Submit result: already submitted
Track | CTDB Status
1 | (6/6) Accurately ripped
2 | (6/6) Accurately ripped
3 | (6/6) Accurately ripped
4 | (6/6) Accurately ripped
5 | (6/6) Accurately ripped
6 | (6/6) Accurately ripped
7 | (6/6) Accurately ripped
8 | (6/6) Accurately ripped
9 | (6/6) Accurately ripped
10 | (6/6) Accurately ripped


Revel In Demise


Top
 Profile  
 
 
PostPosted: 08 Jul 2017 
Хиппей (support team)
User avatar
Joined: 30 Jul 2007
Posts: 109003
Lоcаtion: Киев (Kyiv, UA)
Age: 45
Name: Andrey
thorbeorn wrote:
Resistant Bangers (EP)

:thanx:

_________________


Top
 Profile E-mail  
 
 
PostPosted: 08 Jul 2017 
Хиппей (support team)
User avatar
Joined: 30 Jul 2007
Posts: 109003
Lоcаtion: Киев (Kyiv, UA)
Age: 45
Name: Andrey
thorbeorn wrote:
Revel In Demise

:thanx:

_________________


Top
 Profile E-mail  
 
 
PostPosted: 08 Jul 2017 
Генеральный thrasher
User avatar
Joined: 03 Oct 2008
Posts: 3539
Lоcаtion: Ханты-Мансийский АО
Age: 43
Name: Сергей
Дебютник попозже будет...


Top
 Profile  
 
 
PostPosted: 08 Jul 2017 
консэрваторъ
Joined: 11 Aug 2007
Posts: 16336
Lоcаtion: Псков
Age: 44
Name: Сергей
Понеслась!.. Спасибо, Серёга!!! :true: :true: :true:

_________________
THRASH 'EM ALL


Top
 Profile E-mail  
 
 
PostPosted: 08 Jul 2017 
Прокъмитолист
User avatar
Joined: 12 Aug 2007
Posts: 6515
Lоcаtion: Санктъ-Петербуркъ
Age: 51
Name: Олекъ
спасибо, Серёг! :thanx:

_________________
прокъметол - это музыко, от которово есть прок (ы)


Top
 Profile  
 
 
PostPosted: 08 Jul 2017 
Я набрал 1000 сообщений!
Joined: 09 Jul 2008
Posts: 2492
Age: 45
Name: Сергей
спасибо, после дебютника как-то подзабыл про них и 2015 пропустил
хорошая группа


Top
 Profile  
 
 
PostPosted: 08 Jul 2017 
Генеральный thrasher
User avatar
Joined: 03 Oct 2008
Posts: 3539
Lоcаtion: Ханты-Мансийский АО
Age: 43
Name: Сергей
хорошая группа


Группа уже распалась...


Top
 Profile  
 
 
PostPosted: 13 Jul 2017 
консэрваторъ
Joined: 11 Aug 2007
Posts: 16336
Lоcаtion: Псков
Age: 44
Name: Сергей
Серёг, а Thrash Rider к тебе откуда едет?.. :oops: Посмотрим пока чего там с первой ипихой...
Качабельна на реверберации в 128... :arrov: https://www.reverbnation.com/endlessrecovery/songs
Хм... поразительно качественное звучание для 128... и спектры норм... :scratch: Аудишен не открыл сначала, разжал в вавы...
Андрюха, лося рарного хочешь?.. :benya:

Image

_________________
THRASH 'EM ALL


Top
 Profile E-mail  
 
 
PostPosted: 13 Jul 2017 
Генеральный thrasher
User avatar
Joined: 03 Oct 2008
Posts: 3539
Lоcаtion: Ханты-Мансийский АО
Age: 43
Name: Сергей
Ниоткуда не едет.Дома лежит,только не читается... :( Могу только потрэково в wav сделать


Top
 Profile  
 
 
PostPosted: 13 Jul 2017 
консэрваторъ
Joined: 11 Aug 2007
Posts: 16336
Lоcаtion: Псков
Age: 44
Name: Сергей
А давай... :oops:

_________________
THRASH 'EM ALL


Top
 Profile E-mail  
 
 
PostPosted: 15 Jul 2017 
консэрваторъ
Joined: 11 Aug 2007
Posts: 16336
Lоcаtion: Псков
Age: 44
Name: Сергей
Ещё одни умники... Бонус треки с винильного издания дебютника... :arrov: https://www.metal-archives.com/albums/E ... der/648340

Endless Recovery -Evil Invaders(Razor Cover)(Vinyl Bonus Track) | +

Endless Recovery - Faded Pictures (Darkness Cover) (Vinyl Bonus Track) | +

Quote:
Not On Label (Endless Recovery Self-released)
Limited to 150 handnumbered copies.

Вытягивается в печальном качестве, ну а винил вряд ли у кого есть...

_________________
THRASH 'EM ALL


Top
 Profile E-mail  
 
 
PostPosted: 16 Jul 2017 
консэрваторъ
Joined: 11 Aug 2007
Posts: 16336
Lоcаtion: Псков
Age: 44
Name: Сергей
Всё хорошо в альбоме 15-ого года, вот только несколько вокал смущает, а ля ранний Содом...

_________________
THRASH 'EM ALL


Top
 Profile E-mail  
 
 
PostPosted: 16 Jul 2017 
Генеральный thrasher
User avatar
Joined: 03 Oct 2008
Posts: 3539
Lоcаtion: Ханты-Мансийский АО
Age: 43
Name: Сергей
Серёг,я тебе ссыль на дебют кинул на почту.Может оформишь?


Top
 Profile  
 
 
PostPosted: 16 Jul 2017 
консэрваторъ
Joined: 11 Aug 2007
Posts: 16336
Lоcаtion: Псков
Age: 44
Name: Сергей
Ок...

Endless Recovery - Thrash Rider 2013 (EMR / CPC 002)

Image

1. Urban Crime 04:37
2. War in the Streets 03:34
3. Power of Hate 04:01
4. Corrupted Media Propaganda 03:54
5. Vision of the Youth 03:34
6. Habits' Mutation 05:00
7. Handicapped Corpse 02:39
8. Thrash Rider 02:45

FLAC...

_________________
THRASH 'EM ALL


Top
 Profile E-mail  
 
 
PostPosted: 16 Jul 2017 
Прокъмитолист
User avatar
Joined: 12 Aug 2007
Posts: 6515
Lоcаtion: Санктъ-Петербуркъ
Age: 51
Name: Олекъ
:thanx:

_________________
прокъметол - это музыко, от которово есть прок (ы)


Top
 Profile  
 
Display posts from previous:  Sort by  
Post new topic Reply to topic  [ 16 posts ] 

All times are UTC + 3 hours


Who is online

Users browsing this forum: No registered users and 4 guests


You cannot post new topics in this forum
You cannot reply to topics in this forum
You cannot edit your posts in this forum
You cannot delete your posts in this forum
You cannot post attachments in this forum

Search for:
Яндекс.Метрика
Powered by phpBB © 2000, 2002, 2005, 2007 phpBB Group