\m/ 80's metal \m/

Информационно-аналитический форум "80 см пыли" (In Search We Trust) "У нас никто никуда не спешит"
Me For You - http://me-4u.com
It is currently 12 Dec 2018

All times are UTC + 3 hours

Spoiler
Chat - temporary registration for foreign users (please leave your application here)





Forum rules


Уважаемые пользователи ресурса, друзья, коллеги и гости нашего форума. Данный раздел конференции создан с целью рафинации, и посвящён такому стилевому направлению в музыке, как Thrash Metal во всех его проявлениях и ипостасях, а иногда и переходящему на пограничные стили Speed, Power, Groove, Crossover, MDM и т.п.
Главное правило здесь одно: Одна группа – одна тема! Всё остальное созвучно основным нормам поведения на конференции.
Шаблон оформления тем в этом подфоруме должен быть основан на данных сайта www.metal-archives.com и выглядеть следующим образом:

Группа (Страна) - Стилевые рамки - дискография
Slayer (USA) - Thrash Metal - дискография


В теме допустимо размещение всей информации касающейся данного коллектива: анонсы любых альбомов в любых форматах, запросы любых релизов коллектива (кроме релизов текущего и прошлого годов), обсуждения, обзоры, а в остальном всё как обычно. Уважаем друг друга, не грубим, соблюдаем нормы поведения на конференции, оформляем анонсы и запросы красиво и информативно, что бы модераторы не посчитали их троллингом, и не отправили куда положено, выписав Вам предупреждение или ещё что похуже… Прежде чем что-то запросить или запостить, пользуемся поиском! Пользуемся поиском! ПОЛЬЗУЕМСЯ ПОИСКОМ!!! Так слышно меня?.. :pardon:
Интересного, конструктивного и креативного общения! ;)



Post new topic Reply to topic  [ 13 posts ] 
Author Message
 
PostPosted: 21 May 2017 
Генеральный thrasher
User avatar
Joined: 03 Oct 2008
Posts: 3535
Lоcаtion: Ханты-Мансийский АО
Age: 43
Name: Сергей
Неплохая бригада,играющая олдскульный трэш.

Image

Year:2012
Style:Thrash Metal
Country:U.S.A.
Archive:Flac+Cue+Log+Scans
Source:my CD
Size:309Mb
Label:Slaney Records

Tracklist:
01. Intro 01:00
02. Fire From Hell 03:01
03. Taste The Blade 03:06
04. Heavy Metal Underground 02:38
05. City Built With Skulls 02:56
06. Hammer And Nails 03:49
07. Hellhound Drifters 05:11
08. Champions Of Chaos 05:52
09. Who's There? (Slicer Intro) 01:04
10. Slicer 04:42
11. Reaper Of Death 05:00
12. Metal Meltdown 02:34
13. Outro 01:00

"Cue"
REM GENRE "Thrash Metal"
REM DATE 2012
REM DISCID 9209D00D
REM COMMENT "ExactAudioCopy v1.1"
PERFORMER "Possessor"
TITLE "City Built With Skulls"
FILE "Possessor - City Built With Skulls.flac" WAVE
TRACK 01 AUDIO
TITLE "Intro"
PERFORMER "Possessor"
FLAGS DCP
INDEX 01 00:00:00
TRACK 02 AUDIO
TITLE "Fire From Hell"
PERFORMER "Possessor"
FLAGS DCP
INDEX 01 00:59:47
TRACK 03 AUDIO
TITLE "Taste The Blade"
PERFORMER "Possessor"
FLAGS DCP
INDEX 01 04:00:36
TRACK 04 AUDIO
TITLE "Heavy Metal Underground"
PERFORMER "Possessor"
FLAGS DCP
INDEX 01 07:06:35
TRACK 05 AUDIO
TITLE "City Built With Skulls"
PERFORMER "Possessor"
FLAGS DCP
INDEX 01 09:44:13
TRACK 06 AUDIO
TITLE "Hammer and Nails"
PERFORMER "Possessor"
FLAGS DCP
INDEX 01 12:40:50
TRACK 07 AUDIO
TITLE "Hellbound Drifters"
PERFORMER "Possessor"
FLAGS DCP
INDEX 01 16:29:74
TRACK 08 AUDIO
TITLE "Champions of Chaos"
PERFORMER "Possessor"
FLAGS DCP
INDEX 01 21:40:72
TRACK 09 AUDIO
TITLE "Who's There / Slicer Intro"
PERFORMER "Possessor"
FLAGS DCP
INDEX 00 27:32:56
INDEX 01 27:32:57
TRACK 10 AUDIO
TITLE "Slicer"
PERFORMER "Possessor"
FLAGS DCP
INDEX 01 28:36:63
TRACK 11 AUDIO
TITLE "Reaper of Death"
PERFORMER "Possessor"
FLAGS DCP
INDEX 01 33:19:11
TRACK 12 AUDIO
TITLE "Metal Meltdown"
PERFORMER "Possessor"
FLAGS DCP
INDEX 01 38:18:53
TRACK 13 AUDIO
TITLE "Outro"
PERFORMER "Possessor"
FLAGS DCP
INDEX 01 40:52:21

"Log"
Exact Audio Copy V1.1 from 23. June 2015

Отчёт EAC об извлечении, выполненном 16. мая 2017, 13:33

Possessor / City Built With Skulls

Дисковод: HL-DT-STDVDRAM GTA0N Adapter: 1 ID: 0

Режим чтения : Достоверность
Использование точного потока : Да
Отключение кэша аудио : Да
Использование указателей C2 : Нет

Коррекция смещения при чтении : 102
Способность читать области Lead-in и Lead-out : Нет
Заполнение пропущенных сэмплов тишиной : Да
Удаление блоков с тишиной в начале и конце : Нет
При вычислениях CRC использовались нулевые сэмплы : Да
Интерфейс : Встроенный Win32-интерфейс для Win NT/2000

Выходной формат : Пользовательский кодировщик
Выбранный битрейт : 768 kBit/s
Качество : Высокий
Добавление ID3-тега : Нет
Утилита сжатия : C:\Program Files (x86)\Exact Audio Copy\FLAC\FLAC.EXE
Дополнительные параметры : -V -8 -T "Date=%year%" -T "Genre=%genre%" %source%


TOC извлечённого CD

Трек | Старт | Длительность | Начальный сектор | Конечный сектор
---------------------------------------------------------------------
1 | 0:00.00 | 0:59.47 | 0 | 4471
2 | 0:59.47 | 3:00.64 | 4472 | 18035
3 | 4:00.36 | 3:05.74 | 18036 | 31984
4 | 7:06.35 | 2:37.53 | 31985 | 43812
5 | 9:44.13 | 2:56.37 | 43813 | 57049
6 | 12:40.50 | 3:49.24 | 57050 | 74248
7 | 16:29.74 | 5:10.73 | 74249 | 97571
8 | 21:40.72 | 5:51.60 | 97572 | 123956
9 | 27:32.57 | 1:04.06 | 123957 | 128762
10 | 28:36.63 | 4:42.23 | 128763 | 149935
11 | 33:19.11 | 4:59.42 | 149936 | 172402
12 | 38:18.53 | 2:33.43 | 172403 | 183920
13 | 40:52.21 | 1:00.17 | 183921 | 188437


Характеристики диапазона извлечения и сообщения об ошибках

Выбранный диапазон

Имя файла C:\Users\магазин\Music\Possessor - City Built With Skulls.wav

Пиковый уровень 100.0 %
Скорость извлечения 3.8 X
Качество диапазона 100.0 %
CRC теста 813F4E92
CRC копии 813F4E92
Копирование... OK

Ошибок не произошло


AccurateRip: сводка

Трек 1 : извлечено точно (доверие 1) [19FAB729] (AR v2)
Трек 2 : извлечено точно (доверие 1) [A1C619AD] (AR v2)
Трек 3 : извлечено точно (доверие 1) [544F9E13] (AR v2)
Трек 4 : извлечено точно (доверие 1) [C2D19306] (AR v2)
Трек 5 : извлечено точно (доверие 1) [5499F9EC] (AR v2)
Трек 6 : извлечено точно (доверие 1) [D32D5F41] (AR v2)
Трек 7 : извлечено точно (доверие 1) [01C2848C] (AR v2)
Трек 8 : извлечено точно (доверие 1) [71067F1F] (AR v2)
Трек 9 : извлечено точно (доверие 1) [A24912B6] (AR v2)
Трек 10 : извлечено точно (доверие 1) [07DBE6A0] (AR v2)
Трек 11 : извлечено точно (доверие 1) [6490FCCC] (AR v2)
Трек 12 : извлечено точно (доверие 1) [2C036E1E] (AR v2)
Трек 13 : извлечено точно (доверие 1) [EA0B7645] (AR v2)

Все треки извлечены точно

Конец отчёта

---- CUETools DB Plugin V2.1.6

[CTDB TOCID: JLAnnCQ54mxxIKzBnaT3R9KrgHM-] found
Submit result: JLAnnCQ54mxxIKzBnaT3R9KrgHM- has been confirmed
Track | CTDB Status
1 | (4/4) Accurately ripped
2 | (4/4) Accurately ripped
3 | (4/4) Accurately ripped
4 | (4/4) Accurately ripped
5 | (4/4) Accurately ripped
6 | (4/4) Accurately ripped
7 | (4/4) Accurately ripped
8 | (4/4) Accurately ripped
9 | (4/4) Accurately ripped
10 | (4/4) Accurately ripped
11 | (4/4) Accurately ripped
12 | (4/4) Accurately ripped
13 | (4/4) Accurately ripped


City Built With Skulls

Image

Year:2013
Style:Thrash Metal
Country:U.S.A.
Archive:Flac+Cue+Log+Scans
Source:my CD
Size:98Mb
Label:Slaney Records

Tracklist:
01. Make Them Eat Metal 02:56
02. Battle Cry 04:44
03. Land Of The Minotaur 02:44
04. Metal Knights (Nasty Savage cover) 02:30

"Cue"
REM GENRE "Thrash Metal"
REM DATE 2013
REM DISCID 29030404
REM COMMENT "ExactAudioCopy v1.1"
PERFORMER "Possessor"
TITLE "Make Them Eat Metal"
FILE "Possessor - Make Them Eat Metal.flac" WAVE
TRACK 01 AUDIO
TITLE "Make Them Eat Metal"
PERFORMER "Possessor"
FLAGS DCP
INDEX 01 00:00:00
TRACK 02 AUDIO
TITLE "Battle Cry"
PERFORMER "Possessor"
FLAGS DCP
INDEX 00 02:53:47
INDEX 01 02:55:47
TRACK 03 AUDIO
TITLE "Land Of The Minotaur"
PERFORMER "Possessor"
FLAGS DCP
INDEX 00 07:37:24
INDEX 01 07:39:24
TRACK 04 AUDIO
TITLE "Metal Knights"
PERFORMER "Possessor"
FLAGS DCP
INDEX 00 10:21:28
INDEX 01 10:23:28

"Log"
Exact Audio Copy V1.1 from 23. June 2015

Отчёт EAC об извлечении, выполненном 16. мая 2017, 13:06

Possessor / Make Them Eat Metal

Дисковод: HL-DT-STDVDRAM GTA0N Adapter: 1 ID: 0

Режим чтения : Достоверность
Использование точного потока : Да
Отключение кэша аудио : Да
Использование указателей C2 : Нет

Коррекция смещения при чтении : 102
Способность читать области Lead-in и Lead-out : Нет
Заполнение пропущенных сэмплов тишиной : Да
Удаление блоков с тишиной в начале и конце : Нет
При вычислениях CRC использовались нулевые сэмплы : Да
Интерфейс : Встроенный Win32-интерфейс для Win NT/2000

Выходной формат : Пользовательский кодировщик
Выбранный битрейт : 768 kBit/s
Качество : Высокий
Добавление ID3-тега : Нет
Утилита сжатия : C:\Program Files (x86)\Exact Audio Copy\FLAC\FLAC.EXE
Дополнительные параметры : -V -8 -T "Date=%year%" -T "Genre=%genre%" %source%


TOC извлечённого CD

Трек | Старт | Длительность | Начальный сектор | Конечный сектор
---------------------------------------------------------------------
1 | 0:00.00 | 2:55.47 | 0 | 13171
2 | 2:55.47 | 4:43.52 | 13172 | 34448
3 | 7:39.24 | 2:44.04 | 34449 | 46752
4 | 10:23.28 | 2:29.45 | 46753 | 57972


Характеристики диапазона извлечения и сообщения об ошибках

Выбранный диапазон

Имя файла C:\Users\магазин\Music\Possessor - Make Them Eat Metal.wav

Пиковый уровень 100.0 %
Скорость извлечения 2.9 X
Качество диапазона 100.0 %
CRC теста B4108065
CRC копии B4108065
Копирование... OK

Ошибок не произошло


AccurateRip: сводка

Трек 1 : извлечено точно (доверие 1) [DDBD6F6D] (AR v2)
Трек 2 : извлечено точно (доверие 1) [EFFE6E4E] (AR v2)
Трек 3 : извлечено точно (доверие 1) [01E3F2A6] (AR v2)
Трек 4 : извлечено точно (доверие 1) [8507001E] (AR v2)

Все треки извлечены точно

Конец отчёта

---- CUETools DB Plugin V2.1.6

[CTDB TOCID: OaWOfs2V8E88G7IEHX8nHhi_lF8-] found
Submit result: OaWOfs2V8E88G7IEHX8nHhi_lF8- has been confirmed
Track | CTDB Status
1 | (6/6) Accurately ripped
2 | (6/6) Accurately ripped
3 | (6/6) Accurately ripped
4 | (6/6) Accurately ripped


Make Them Eat Metal


Top
 Profile  
 
 
PostPosted: 21 May 2017 
консэрваторъ
Joined: 11 Aug 2007
Posts: 16314
Lоcаtion: Псков
Age: 44
Name: Сергей
Полилося, спасибо!.. Разгребу послеотпускные дела, начну опять плотно вникать в новинки трасха от Серёги... :oops:

_________________
THRASH 'EM ALL


Top
 Profile E-mail  
 
 
PostPosted: 21 May 2017 
Прокъмитолист
User avatar
Joined: 12 Aug 2007
Posts: 6513
Lоcаtion: Санктъ-Петербуркъ
Age: 51
Name: Олекъ
миник утащу. спасибо, Серёг! :thanx:

_________________
прокъметол - это музыко, от которово есть прок (ы)


Top
 Profile  
 
 
PostPosted: 23 May 2017 
консэрваторъ
Joined: 11 Aug 2007
Posts: 16314
Lоcаtion: Псков
Age: 44
Name: Сергей
Ищу первую демку... :oops:

Possessor - Fire from Hell 2009 (Demo)

Image

1. Fire from Hell
2. City Built with Skulls
3. Taste the Blade
4. Heavy Metal Underground
5. Hammer and Nails
6. Necessary Evil
7. Metal Meltdown

На FB написал...

_________________
THRASH 'EM ALL


Top
 Profile E-mail  
 
 
PostPosted: 23 May 2017 
консэрваторъ
Joined: 11 Aug 2007
Posts: 16314
Lоcаtion: Псков
Age: 44
Name: Сергей
Possessor - Demo 2010 (Demo)

Image

1. Hammer and Nails 03:45
2. City Built with Skulls 03:10
3. Fire from Hell 03:03
4. Metal Meltdown 02:32

Было на спэйсе, сдохло естественно... На тубе без одной песни, вытягивабельно в 128... :arrov: https://www.youtube.com/playlist?list=P ... 31C4D578B1
От полного тоже не отказался бы... :oops:
Насколько я понял это демо полностью вошло в сплитник

Premunition / Vicious Attack / Possessor / Paralyzer - Thrash Invasion 2010 (Split)

Image
...
9. Possessor - Hammer and Nails 03:41
10. Possessor - City Built with Skulls 03:06
11. Possessor - Fire from Hell 02:59
12. Possessor - Metal Meltdown 02:32
...

Вполне подойдёт как вариант, понятно, что в любом качестве...

_________________
THRASH 'EM ALL


Top
 Profile E-mail  
 
 
PostPosted: 24 May 2017 
консэрваторъ
Joined: 11 Aug 2007
Posts: 16314
Lоcаtion: Псков
Age: 44
Name: Сергей
По поводу демок...
Possessor wrote:
Hello friend! Thank you for the kind words! Unfortunately the "fire from hell" demo is not a real release. There was a "mock" cover made that cause the confusion. We did release a demo however, and those tracks can be found on YouTube. Thanks contacting us! Cheers!

Переспросил по поводу трека 3. Fire from Hell 03:03 отсутствующего на канале...

_________________
THRASH 'EM ALL


Top
 Profile E-mail  
 
 
PostPosted: 24 May 2017 
консэрваторъ
Joined: 11 Aug 2007
Posts: 16314
Lоcаtion: Псков
Age: 44
Name: Сергей
На виниловом переиздание 13-ого года альбома City Built with Skulls есть бонус, тоже ищу... :oops:

B6 Cursed From The Gallows (Vinyl Bonus Track)

https://www.discogs.com/Possessor-City- ... se/4832546

_________________
THRASH 'EM ALL


Top
 Profile E-mail  
 
 
PostPosted: 24 May 2017 
консэрваторъ
Joined: 11 Aug 2007
Posts: 16314
Lоcаtion: Псков
Age: 44
Name: Сергей
Ипиха порвала в клочья!!! :true: :lob: :meloman:

_________________
THRASH 'EM ALL


Top
 Profile E-mail  
 
 
PostPosted: 24 May 2017 
консэрваторъ
Joined: 11 Aug 2007
Posts: 16314
Lоcаtion: Псков
Age: 44
Name: Сергей
Вообщем послат...((
Possessor wrote:
At the moment we don't have access to the fire from hell track you're looking for. Also a digital copy of cursed from the gallows is not available as it was only put on vinyl. Unless someone records the vinyl. Thank you for your interest!

_________________
THRASH 'EM ALL


Top
 Profile E-mail  
 
 
PostPosted: 25 May 2017 
Генеральный thrasher
User avatar
Joined: 03 Oct 2008
Posts: 3535
Lоcаtion: Ханты-Мансийский АО
Age: 43
Name: Сергей
Чот отзывов мало...Не понравилась банда жителям форума? :cry:


Top
 Profile  
 
 
PostPosted: 25 May 2017 
Хиппей (support team)
User avatar
Joined: 30 Jul 2007
Posts: 108844
Lоcаtion: Киев (Kyiv, UA)
Age: 45
Name: Andrey
thorbeorn wrote:
City Built With Skulls

:thanx:

mirror: Depos l Narod l M-Cloud

_________________


Top
 Profile E-mail  
 
 
PostPosted: 25 May 2017 
Хиппей (support team)
User avatar
Joined: 30 Jul 2007
Posts: 108844
Lоcаtion: Киев (Kyiv, UA)
Age: 45
Name: Andrey
thorbeorn wrote:
Make Them Eat Metal

:thanx:

mirror: Depos l Narod l M-Cloud

_________________


Top
 Profile E-mail  
 
 
PostPosted: 25 May 2017 
Хиппей (support team)
User avatar
Joined: 30 Jul 2007
Posts: 108844
Lоcаtion: Киев (Kyiv, UA)
Age: 45
Name: Andrey
Чот отзывов мало...Не понравилась банда жителям форума? :cry:

Дык, пока не все залезть даже успели на паровоз. Всего по 10 раз скачано пока альбомы. И то не факт, что участниками форума.

_________________


Top
 Profile E-mail  
 
Display posts from previous:  Sort by  
Post new topic Reply to topic  [ 13 posts ] 

All times are UTC + 3 hours


Who is online

Users browsing this forum: No registered users and 3 guests


You cannot post new topics in this forum
You cannot reply to topics in this forum
You cannot edit your posts in this forum
You cannot delete your posts in this forum
You cannot post attachments in this forum

Search for:
Яндекс.Метрика
Powered by phpBB © 2000, 2002, 2005, 2007 phpBB Group