\m/ 80's metal \m/

Информационно-аналитический форум "80 см пыли" (In Search We Trust) "У нас никто никуда не спешит"
Me For You - http://me-4u.com
It is currently 17 Dec 2018

All times are UTC + 3 hours

Spoiler
Chat - temporary registration for foreign users (please leave your application here)





Forum rules


Уважаемые пользователи ресурса, друзья, коллеги и гости нашего форума. Данный раздел конференции создан с целью рафинации, и посвящён такому стилевому направлению в музыке, как Thrash Metal во всех его проявлениях и ипостасях, а иногда и переходящему на пограничные стили Speed, Power, Groove, Crossover, MDM и т.п.
Главное правило здесь одно: Одна группа – одна тема! Всё остальное созвучно основным нормам поведения на конференции.
Шаблон оформления тем в этом подфоруме должен быть основан на данных сайта www.metal-archives.com и выглядеть следующим образом:

Группа (Страна) - Стилевые рамки - дискография
Slayer (USA) - Thrash Metal - дискография


В теме допустимо размещение всей информации касающейся данного коллектива: анонсы любых альбомов в любых форматах, запросы любых релизов коллектива (кроме релизов текущего и прошлого годов), обсуждения, обзоры, а в остальном всё как обычно. Уважаем друг друга, не грубим, соблюдаем нормы поведения на конференции, оформляем анонсы и запросы красиво и информативно, что бы модераторы не посчитали их троллингом, и не отправили куда положено, выписав Вам предупреждение или ещё что похуже… Прежде чем что-то запросить или запостить, пользуемся поиском! Пользуемся поиском! ПОЛЬЗУЕМСЯ ПОИСКОМ!!! Так слышно меня?.. :pardon:
Интересного, конструктивного и креативного общения! ;)



Post new topic Reply to topic  [ 44 posts ]  Go to page 1, 2, 3  Next
Author Message
 
PostPosted: 25 Mar 2017 
Генеральный thrasher
User avatar
Joined: 03 Oct 2008
Posts: 3537
Lоcаtion: Ханты-Мансийский АО
Age: 43
Name: Сергей
Групп с таким названием в Германии, и именно в Баварии две, поэтому в название темы указан и город...

Самая первая работа германцев.Эту демку,как и два первых альбома парни выпускали самостоятельно.Группа больше не существует.После нее осталось четыре полнометражника.

Image

Year:2002
Style:Thrash/Power Metal
Country:Germany
Archive:Flac+Cue+Log+Scans
Source:my CD
Size:162Mb
Label:Self-Release

Tracklist:
01. Overlord 04:22
02. Fractured by Fear 04:28
03. No Escape 04:06
04. Metal Massacre 02:33
05. The Sleeper 05:32

"Cue"
REM GENRE "Thrash Metal"
REM DATE 2002
REM DISCID 3704EC05
REM COMMENT "ExactAudioCopy v1.1"
PERFORMER "Hatred"
TITLE "Fractured"
FILE "Hatred - Fractured.flac" WAVE
TRACK 01 AUDIO
TITLE "Overlord"
PERFORMER "Hatred"
FLAGS DCP
INDEX 01 00:00:00
TRACK 02 AUDIO
TITLE "Fractured by Fear"
PERFORMER "Hatred"
FLAGS DCP
INDEX 00 04:20:70
INDEX 01 04:21:44
TRACK 03 AUDIO
TITLE "No Escape"
PERFORMER "Hatred"
FLAGS DCP
INDEX 00 08:47:57
INDEX 01 08:49:14
TRACK 04 AUDIO
TITLE "Metal Massacre"
PERFORMER "Hatred"
FLAGS DCP
INDEX 00 12:53:71
INDEX 01 12:55:26
TRACK 05 AUDIO
TITLE "Sleeper"
PERFORMER "Hatred"
FLAGS DCP
INDEX 00 15:27:34
INDEX 01 15:28:34

"Log"
Exact Audio Copy V1.1 from 23. June 2015

Отчёт EAC об извлечении, выполненном 24. марта 2017, 14:18

Hatred / Fractured

Дисковод: HL-DT-STDVDRAM GTA0N Adapter: 1 ID: 0

Режим чтения : Достоверность
Использование точного потока : Да
Отключение кэша аудио : Да
Использование указателей C2 : Нет

Коррекция смещения при чтении : 102
Способность читать области Lead-in и Lead-out : Нет
Заполнение пропущенных сэмплов тишиной : Да
Удаление блоков с тишиной в начале и конце : Нет
При вычислениях CRC использовались нулевые сэмплы : Да
Интерфейс : Встроенный Win32-интерфейс для Win NT/2000

Выходной формат : Пользовательский кодировщик
Выбранный битрейт : 768 kBit/s
Качество : Высокий
Добавление ID3-тега : Нет
Утилита сжатия : C:\Program Files (x86)\Exact Audio Copy\FLAC\FLAC.EXE
Дополнительные параметры : -V -8 -T "Date=%year%" -T "Genre=%genre%" %source%


TOC извлечённого CD

Трек | Старт | Длительность | Начальный сектор | Конечный сектор
---------------------------------------------------------------------
1 | 0:00.00 | 4:21.44 | 0 | 19618
2 | 4:21.44 | 4:27.45 | 19619 | 39688
3 | 8:49.14 | 4:06.12 | 39689 | 58150
4 | 12:55.26 | 2:33.08 | 58151 | 69633
5 | 15:28.34 | 5:32.10 | 69634 | 94543


Характеристики диапазона извлечения и сообщения об ошибках

Выбранный диапазон

Имя файла C:\Users\магазин\Music\Hatred - Fractured.wav

Пиковый уровень 98.1 %
Скорость извлечения 3.2 X
Качество диапазона 99.9 %
CRC теста 08CCC8BA
CRC копии 08CCC8BA
Копирование... OK

Ошибок не произошло


AccurateRip: сводка

Трек 1 отсутствует в базе данных
Трек 2 отсутствует в базе данных
Трек 3 отсутствует в базе данных
Трек 4 отсутствует в базе данных
Трек 5 отсутствует в базе данных

Ни одного трека нет в базе AccurateRip

Конец отчёта

---- CUETools DB Plugin V2.1.6

[CTDB TOCID: i87KqHGA6fuI8joMeAf9yntYIIU-] found
Submit result: i87KqHGA6fuI8joMeAf9yntYIIU- has been confirmed
Track | CTDB Status
1 | (1/1) Accurately ripped
2 | (1/1) Accurately ripped
3 | (1/1) Accurately ripped
4 | (1/1) Accurately ripped
5 | (1/1) Accurately ripped


Fractured (EP)


Top
 Profile  
 
 
PostPosted: 25 Mar 2017 
консэрваторъ
Joined: 11 Aug 2007
Posts: 16329
Lоcаtion: Псков
Age: 44
Name: Сергей
Так надо и всё остальное, Серёг, тогда... :oops: :oops:
:arrov: http://www.metal-archives.com/bands/Hatred/8992
Или всё остальное уже везде есть?..

_________________
THRASH 'EM ALL


Top
 Profile E-mail  
 
 
PostPosted: 25 Mar 2017 
Генеральный thrasher
User avatar
Joined: 03 Oct 2008
Posts: 3537
Lоcаtion: Ханты-Мансийский АО
Age: 43
Name: Сергей
У меня только последний диск есть.Хотел у них на сайте два селфрелизных диска заказать.А сайт крякнул.Ещё неделю назад работал.


Top
 Profile  
 
 
PostPosted: 25 Mar 2017 
консэрваторъ
Joined: 11 Aug 2007
Posts: 16329
Lоcаtion: Псков
Age: 44
Name: Сергей
Тогда последний, просим, просим... :oops: :oops:

_________________
THRASH 'EM ALL


Top
 Profile E-mail  
 
 
PostPosted: 25 Mar 2017 
Генеральный thrasher
User avatar
Joined: 03 Oct 2008
Posts: 3537
Lоcаtion: Ханты-Мансийский АО
Age: 43
Name: Сергей
Тогда последний, просим, просим... :oops: :oops:


Вот он то как раз самый слабый.


Top
 Profile  
 
 
PostPosted: 25 Mar 2017 
консэрваторъ
Joined: 11 Aug 2007
Posts: 16329
Lоcаtion: Псков
Age: 44
Name: Сергей
Это не беда...

_________________
THRASH 'EM ALL


Top
 Profile E-mail  
 
 
PostPosted: 25 Mar 2017 
Я набрал 1000 сообщений!
Joined: 09 Jul 2008
Posts: 2486
Age: 45
Name: Сергей
мда... у меня тоже только 2015, послушал и забыл, в основном, наверное, из-за мерзкого вокала
а, оказывается, вокалист и петь умеет, если, конечно, верить МА и это один и тот же вокалист...
надо бы остальное найти


Top
 Profile  
 
 
PostPosted: 25 Mar 2017 
консэрваторъ
Joined: 11 Aug 2007
Posts: 16329
Lоcаtion: Псков
Age: 44
Name: Сергей
:lob: соберём дискографию!.. :oops:

_________________
THRASH 'EM ALL


Top
 Profile E-mail  
 
 
PostPosted: 26 Mar 2017 
Хиппей (support team)
User avatar
Joined: 30 Jul 2007
Posts: 108950
Lоcаtion: Киев (Kyiv, UA)
Age: 45
Name: Andrey
thorbeorn wrote:
Fractured (EP)

:thanx:

mirror: Depos l Narod l M-Cloud

_________________


Top
 Profile E-mail  
 
 
PostPosted: 26 Mar 2017 
Прокъмитолист
User avatar
Joined: 12 Aug 2007
Posts: 6514
Lоcаtion: Санктъ-Петербуркъ
Age: 51
Name: Олекъ
:thanx:

_________________
прокъметол - это музыко, от которово есть прок (ы)


Top
 Profile  
 
 
PostPosted: 26 Mar 2017 
Генеральный thrasher
User avatar
Joined: 03 Oct 2008
Posts: 3537
Lоcаtion: Ханты-Мансийский АО
Age: 43
Name: Сергей
:lob: соберём дискографию!.. :oops:


Чтоб собрать,надо диски купить.И чего я раньше с ними не списался!На фейсбук им писать - мертвое дело.Там давно ничего нового.Можно купить на discogs-e.В принципе сами диски недорого стоят,около 5 евро (без пересыла конечно).


Top
 Profile  
 
 
PostPosted: 26 Mar 2017 
Генеральный thrasher
User avatar
Joined: 03 Oct 2008
Posts: 3537
Lоcаtion: Ханты-Мансийский АО
Age: 43
Name: Сергей
Image

Year:2015
Style:Thrash/Power Metal
Country:Germany
Archive:Flac+Cue+Log+Scans
Source:my CD
Size:515Mb
Label:MDD Records

Tracklist:
01. D.E.T.Y.S. 01:16
02. Fuck The Zombie 03:53
03. Watch The Genocide 05:15
04. Chaos 05:31
05. Virus 05:50
06. War Of Words 03:35
07. Enter The Halls 04:18
08. Storm 03:23
09. Rise Up 03:54
10. World Turns Black 07:28
11. Hope A Train Of Thought 13:03
Bonus Tracks:
12. Nature Of Humanity 03:44
13. No Control 03:58
14. This Is Hell 04:48

"Cue"
REM GENRE "Thrash/Power Metal"
REM DATE 2015
REM DISCID C710620E
REM COMMENT "ExactAudioCopy v1.1"
PERFORMER "Hatred"
TITLE "War Of Words"
FILE "Hatred - War Of Words.flac" WAVE
TRACK 01 AUDIO
TITLE "D.E.T.Y.S."
PERFORMER "Hatred"
INDEX 01 00:00:00
TRACK 02 AUDIO
TITLE "Fuck The Zombie"
PERFORMER "Hatred"
INDEX 01 01:15:42
TRACK 03 AUDIO
TITLE "Watch The Genocide"
PERFORMER "Hatred"
INDEX 00 05:06:18
INDEX 01 05:08:10
TRACK 04 AUDIO
TITLE "Chaos"
PERFORMER "Hatred"
INDEX 00 10:21:39
INDEX 01 10:23:30
TRACK 05 AUDIO
TITLE "Virus"
PERFORMER "Hatred"
INDEX 00 15:52:31
INDEX 01 15:54:14
TRACK 06 AUDIO
TITLE "War Of Words"
PERFORMER "Hatred"
INDEX 00 21:41:65
INDEX 01 21:43:57
TRACK 07 AUDIO
TITLE "Enter the Halls"
PERFORMER "Hatred"
INDEX 00 25:16:55
INDEX 01 25:18:48
TRACK 08 AUDIO
TITLE "Storm"
PERFORMER "Hatred"
INDEX 00 29:34:27
INDEX 01 29:36:18
TRACK 09 AUDIO
TITLE "Rise Up"
PERFORMER "Hatred"
INDEX 01 32:59:41
TRACK 10 AUDIO
TITLE "World Turns Black"
PERFORMER "Hatred"
INDEX 00 36:51:27
INDEX 01 36:53:18
TRACK 11 AUDIO
TITLE "Hope A Train Of Thought"
PERFORMER "Hatred"
INDEX 00 44:19:28
INDEX 01 44:21:19
TRACK 12 AUDIO
TITLE "Nature Of Humanity"
PERFORMER "Hatred"
INDEX 01 57:23:65
TRACK 13 AUDIO
TITLE "No Control"
PERFORMER "Hatred"
INDEX 00 61:05:63
INDEX 01 61:07:54
TRACK 14 AUDIO
TITLE "This Is Hell"
PERFORMER "Hatred"
INDEX 00 65:04:20
INDEX 01 65:06:01

"Log"
Exact Audio Copy V1.1 from 23. June 2015

Отчёт EAC об извлечении, выполненном 26. марта 2017, 9:22

Hatred / War Of Words

Дисковод: HL-DT-STDVDRAM GTA0N Adapter: 1 ID: 0

Режим чтения : Достоверность
Использование точного потока : Да
Отключение кэша аудио : Да
Использование указателей C2 : Нет

Коррекция смещения при чтении : 102
Способность читать области Lead-in и Lead-out : Нет
Заполнение пропущенных сэмплов тишиной : Да
Удаление блоков с тишиной в начале и конце : Нет
При вычислениях CRC использовались нулевые сэмплы : Да
Интерфейс : Встроенный Win32-интерфейс для Win NT/2000

Выходной формат : Пользовательский кодировщик
Выбранный битрейт : 768 kBit/s
Качество : Высокий
Добавление ID3-тега : Нет
Утилита сжатия : C:\Program Files (x86)\Exact Audio Copy\FLAC\FLAC.EXE
Дополнительные параметры : -V -8 -T "Date=%year%" -T "Genre=%genre%" %source%


TOC извлечённого CD

Трек | Старт | Длительность | Начальный сектор | Конечный сектор
---------------------------------------------------------------------
1 | 0:00.00 | 1:15.42 | 0 | 5666
2 | 1:15.42 | 3:52.43 | 5667 | 23109
3 | 5:08.10 | 5:15.20 | 23110 | 46754
4 | 10:23.30 | 5:30.59 | 46755 | 71563
5 | 15:54.14 | 5:49.43 | 71564 | 97781
6 | 21:43.57 | 3:34.66 | 97782 | 113897
7 | 25:18.48 | 4:17.45 | 113898 | 133217
8 | 29:36.18 | 3:23.23 | 133218 | 148465
9 | 32:59.41 | 3:53.52 | 148466 | 165992
10 | 36:53.18 | 7:28.01 | 165993 | 199593
11 | 44:21.19 | 13:02.46 | 199594 | 258289
12 | 57:23.65 | 3:43.64 | 258290 | 275078
13 | 61:07.54 | 3:58.22 | 275079 | 292950
14 | 65:06.01 | 4:48.30 | 292951 | 314580


Характеристики диапазона извлечения и сообщения об ошибках

Выбранный диапазон

Имя файла C:\Users\магазин\Music\Hatred - War Of Words.wav

Пиковый уровень 99.0 %
Скорость извлечения 4.3 X
Качество диапазона 100.0 %
CRC теста EB73676E
CRC копии EB73676E
Копирование... OK

Ошибок не произошло


AccurateRip: сводка

Трек 1 отсутствует в базе данных
Трек 2 отсутствует в базе данных
Трек 3 отсутствует в базе данных
Трек 4 отсутствует в базе данных
Трек 5 отсутствует в базе данных
Трек 6 отсутствует в базе данных
Трек 7 отсутствует в базе данных
Трек 8 отсутствует в базе данных
Трек 9 отсутствует в базе данных
Трек 10 отсутствует в базе данных
Трек 11 отсутствует в базе данных
Трек 12 отсутствует в базе данных
Трек 13 отсутствует в базе данных
Трек 14 отсутствует в базе данных

Ни одного трека нет в базе AccurateRip

Конец отчёта

---- CUETools DB Plugin V2.1.6

[CTDB TOCID: UGzNSkMqk18_bzDL1m2bcRZlfto-] found
Submit result: already submitted
Track | CTDB Status
1 | (3/3) Accurately ripped
2 | (3/3) Accurately ripped
3 | (3/3) Accurately ripped
4 | (3/3) Accurately ripped
5 | (3/3) Accurately ripped
6 | (3/3) Accurately ripped
7 | (3/3) Accurately ripped
8 | (3/3) Accurately ripped
9 | (3/3) Accurately ripped
10 | (3/3) Accurately ripped
11 | (3/3) Accurately ripped
12 | (3/3) Accurately ripped
13 | (3/3) Accurately ripped
14 | (3/3) Accurately ripped


War Of Words


Top
 Profile  
 
 
PostPosted: 26 Mar 2017 
Генеральный thrasher
User avatar
Joined: 03 Oct 2008
Posts: 3537
Lоcаtion: Ханты-Мансийский АО
Age: 43
Name: Сергей
Как бы нам тему обозвать?Пока всё не собрано... :vic:


Top
 Profile  
 
 
PostPosted: 26 Mar 2017 
консэрваторъ
Joined: 11 Aug 2007
Posts: 16329
Lоcаtion: Псков
Age: 44
Name: Сергей
Так пойдёт?.. Город пришлось прописать, т.к. в Баварии числится 2 Хатреда... :vic:

_________________
THRASH 'EM ALL


Top
 Profile E-mail  
 
 
PostPosted: 26 Mar 2017 
Генеральный thrasher
User avatar
Joined: 03 Oct 2008
Posts: 3537
Lоcаtion: Ханты-Мансийский АО
Age: 43
Name: Сергей
Да пойдёт...


Top
 Profile  
 
 
PostPosted: 26 Mar 2017 
Прокъмитолист
User avatar
Joined: 12 Aug 2007
Posts: 6514
Lоcаtion: Санктъ-Петербуркъ
Age: 51
Name: Олекъ
и ещё раз спасибо :thanx:

_________________
прокъметол - это музыко, от которово есть прок (ы)


Top
 Profile  
 
 
PostPosted: 28 Mar 2017 
консэрваторъ
Joined: 11 Aug 2007
Posts: 16329
Lоcаtion: Псков
Age: 44
Name: Сергей
2008 VBR V0 :arrov: http://dark-world.ru/albums/Hatred-Deu- ... honies.php
2010 320 :arrov: http://dark-world.ru/albums/Hatred-Deu- ... Manual.php

Чего-то не наблюдаю 2004 Soulless... Может есть у кого мп3 хоть какой?.. :oops:
Я конечно попросил всех на арее перелить, но похоже, что только куплять... :oops:
https://www.discogs.com/sell/release/4309256?ev=rb

_________________
THRASH 'EM ALL


Top
 Profile E-mail  
 
 
PostPosted: 28 Mar 2017 
Прокъмитолист
User avatar
Joined: 12 Aug 2007
Posts: 6514
Lоcаtion: Санктъ-Петербуркъ
Age: 51
Name: Олекъ
и 2004, и 2008, и 2010 есть в лосиках (нипомню откель :vic: ). заливаю пока 4-й, пишите кому-чего-куда :oops:

_________________
прокъметол - это музыко, от которово есть прок (ы)


Top
 Profile  
 
 
PostPosted: 28 Mar 2017 
консэрваторъ
Joined: 11 Aug 2007
Posts: 16329
Lоcаtion: Псков
Age: 44
Name: Сергей
Ура!!! :lob: Как жешь чертовски хороша музыка!.. Именно то, чего счас хотелось... 8-ой фортиссимо!.. :lob:

_________________
THRASH 'EM ALL


Top
 Profile E-mail  
 
 
PostPosted: 28 Mar 2017 
Прокъмитолист
User avatar
Joined: 12 Aug 2007
Posts: 6514
Lоcаtion: Санктъ-Петербуркъ
Age: 51
Name: Олекъ
Hatred [2004] Soulless
судя по логу, рип Дениса den@k/dukem - ему и спасибы :thanx:

_________________
прокъметол - это музыко, от которово есть прок (ы)


Top
 Profile  
 
Display posts from previous:  Sort by  
Post new topic Reply to topic  [ 44 posts ]  Go to page 1, 2, 3  Next

All times are UTC + 3 hours


Who is online

Users browsing this forum: No registered users and 4 guests


You cannot post new topics in this forum
You cannot reply to topics in this forum
You cannot edit your posts in this forum
You cannot delete your posts in this forum
You cannot post attachments in this forum

Search for:
Яндекс.Метрика
Powered by phpBB © 2000, 2002, 2005, 2007 phpBB Group