\m/ 80's metal \m/

Информационно-аналитический форум "80 см пыли" (In Search We Trust) "У нас никто никуда не спешит"
Me For You - http://me-4u.com
It is currently 17 Dec 2018

All times are UTC + 3 hours

Spoiler
Chat - temporary registration for foreign users (please leave your application here)





Forum rules


Уважаемые пользователи ресурса, друзья, коллеги и гости нашего форума. Данный раздел конференции создан с целью рафинации, и посвящён такому стилевому направлению в музыке, как Thrash Metal во всех его проявлениях и ипостасях, а иногда и переходящему на пограничные стили Speed, Power, Groove, Crossover, MDM и т.п.
Главное правило здесь одно: Одна группа – одна тема! Всё остальное созвучно основным нормам поведения на конференции.
Шаблон оформления тем в этом подфоруме должен быть основан на данных сайта www.metal-archives.com и выглядеть следующим образом:

Группа (Страна) - Стилевые рамки - дискография
Slayer (USA) - Thrash Metal - дискография


В теме допустимо размещение всей информации касающейся данного коллектива: анонсы любых альбомов в любых форматах, запросы любых релизов коллектива (кроме релизов текущего и прошлого годов), обсуждения, обзоры, а в остальном всё как обычно. Уважаем друг друга, не грубим, соблюдаем нормы поведения на конференции, оформляем анонсы и запросы красиво и информативно, что бы модераторы не посчитали их троллингом, и не отправили куда положено, выписав Вам предупреждение или ещё что похуже… Прежде чем что-то запросить или запостить, пользуемся поиском! Пользуемся поиском! ПОЛЬЗУЕМСЯ ПОИСКОМ!!! Так слышно меня?.. :pardon:
Интересного, конструктивного и креативного общения! ;)



Post new topic Reply to topic  [ 11 posts ] 
Author Message
 
PostPosted: 13 Mar 2017 
Генеральный thrasher
User avatar
Joined: 03 Oct 2008
Posts: 3537
Lоcаtion: Ханты-Мансийский АО
Age: 43
Name: Сергей
Решил развить тему греческого трэша.Раз уж Nightbreed здесь,то стоит оформить дискографию не менее интересной группы.

Image

Year:2013
Style:Thrash Metal
Country:Greece
Archive:Flac Tracks
Source:Bandcamp
Size:229Mb

Tracklist:
01. War Machine 04:16
02. The Martyr 02:25
03. Total Decay 03:16
04. Remnants of Faith 03:40
05. Legions from Hell 02:46
06. Invisible Hate 04:01
07. L.T.A.T. 03:35
08. Laws of Devastation 05:18

Laws of Devastation

Image

Year:2016
Style:Thrash Metal
Country:Greece
Archive:Wav+Cue+Log+Scans
Source:OLDSCHOOLTHRASHER
Size:327Mb
Label:Eat Metal Records

Tracklist:
01. The Calling 01:10
02. Ritual 02:48
03. Endless Agony 03:45
04. Altar of Greed 03:09
05. Faceless 02:50
06. Condemned 04:27
07. Pestilence 03:22
08. Sanity Fades 03:07
09. Death from Above 03:30
10. Under Pressure 03:22

"Cue"
REM DISCID 7507620A
REM COMMENT "ExactAudioCopy v1.0b3"
PERFORMER "Riffobia"
TITLE "Death from Above"
FILE "Riffobia - Death from Above.wav" WAVE
TRACK 01 AUDIO
TITLE "The Calling"
PERFORMER "Riffobia"
INDEX 01 00:00:00
TRACK 02 AUDIO
TITLE "Ritual"
PERFORMER "Riffobia"
INDEX 01 01:10:30
TRACK 03 AUDIO
TITLE "Endless Agony"
PERFORMER "Riffobia"
INDEX 01 03:58:53
TRACK 04 AUDIO
TITLE " Altar of Greed"
PERFORMER "Riffobia"
INDEX 01 07:43:59
TRACK 05 AUDIO
TITLE "Faceless"
PERFORMER "Riffobia"
INDEX 01 10:53:07
TRACK 06 AUDIO
TITLE "Condemned"
PERFORMER "Riffobia"
INDEX 01 13:42:59
TRACK 07 AUDIO
TITLE "Pestilence"
PERFORMER "Riffobia"
INDEX 01 18:09:59
TRACK 08 AUDIO
TITLE "Sanity Fades"
PERFORMER "Riffobia"
INDEX 01 21:31:69
TRACK 09 AUDIO
TITLE "Death from Above"
PERFORMER "Riffobia"
INDEX 01 24:38:45
TRACK 10 AUDIO
TITLE "Under Pressure"
PERFORMER "Riffobia"
INDEX 01 28:08:46

"Log"
Exact Audio Copy V1.0 beta 3 from 29. August 2011

Отчёт EAC об извлечении, выполненном 13. ноября 2016, 18:43

Riffobia / Death from Above

Дисковод: TSSTcorpCDDVDW SN-208FB Adapter: 0 ID: 1

Режим чтения : Скоростной

Коррекция смещения при чтении : 6
Способность читать области Lead-in и Lead-out : Нет
Заполнение пропущенных сэмплов тишиной : Да
Удаление блоков с тишиной в начале и конце : Нет
При вычислениях CRC использовались нулевые сэмплы : Да
Интерфейс : Встроенный Win32-интерфейс для Win NT/2000

Выходной формат : Внутренние WAV-операции
Формат сэмплов : 44.100 Гц; 16 бит; стерео


TOC извлечённого CD

Трек | Старт | Длительность | Начальный сектор | Конечный сектор
---------------------------------------------------------------------
1 | 0:00.00 | 1:10.30 | 0 | 5279
2 | 1:10.30 | 2:48.23 | 5280 | 17902
3 | 3:58.53 | 3:45.06 | 17903 | 34783
4 | 7:43.59 | 3:09.23 | 34784 | 48981
5 | 10:53.07 | 2:49.52 | 48982 | 61708
6 | 13:42.59 | 4:27.00 | 61709 | 81733
7 | 18:09.59 | 3:22.10 | 81734 | 96893
8 | 21:31.69 | 3:06.51 | 96894 | 110894
9 | 24:38.45 | 3:30.01 | 110895 | 126645
10 | 28:08.46 | 3:21.59 | 126646 | 141779


Характеристики диапазона извлечения и сообщения об ошибках

Выбранный диапазон

Имя файла C:\Users\Валера\Documents\Riffobia - Death from Above.wav



Пиковый уровень 97.7 %
Скорость извлечения 5.7 X
CRC теста BFE25EFD
CRC копии BFE25EFD
Копирование завершено

Ошибок не произошло


AccurateRip: сводка

Трек 1 отсутствует в базе данных
Трек 2 отсутствует в базе данных
Трек 3 отсутствует в базе данных
Трек 4 отсутствует в базе данных
Трек 5 отсутствует в базе данных
Трек 6 отсутствует в базе данных
Трек 7 отсутствует в базе данных
Трек 8 отсутствует в базе данных
Трек 9 отсутствует в базе данных
Трек 10 отсутствует в базе данных

Ни одного трека нет в базе AccurateRip

Конец отчёта

---- CUETools DB Plugin V2.1.3

[CTDB TOCID: BWsXddGqMTmERAo5PRqYc_PhDW0-] disk not present in database, Submit result: BWsXddGqMTmERAo5PRqYc_PhDW0- has been uploaded


Death from Above


Top
 Profile  
 
 
PostPosted: 13 Mar 2017 
дядя Миша
User avatar
Joined: 17 Oct 2008
Posts: 3079
Lоcаtion: USSR
Age: 56
Name: Khy
:true: Качаю с торрента ,прослушиваю по возможности и настроению ожидая чуда,которого пока нет.


Top
 Profile  
 
 
PostPosted: 13 Mar 2017 
Прокъмитолист
User avatar
Joined: 12 Aug 2007
Posts: 6514
Lоcаtion: Санктъ-Петербуркъ
Age: 51
Name: Олекъ
:thanx:

_________________
прокъметол - это музыко, от которово есть прок (ы)


Top
 Profile  
 
 
PostPosted: 13 Mar 2017 
Генеральный thrasher
User avatar
Joined: 03 Oct 2008
Posts: 3537
Lоcаtion: Ханты-Мансийский АО
Age: 43
Name: Сергей
Ну и демка (правда в низком битрейте)

Image

Year:2005
Style:Thrash Metal
Country:Greece
Archive:mp3 128kbps
Size:29Mb

Tracklist:
01. Intro & Invisible Hate 05:51
02. The Forest of Death 02:26
03. Horror Thoughts 03:49
04. Day by Day 04:10
05. No Future 03:44
06. L.T.A.T. 03:37
07. Fate 08:07

Demo 2005


Top
 Profile  
 
 
PostPosted: 13 Mar 2017 
консэрваторъ
Joined: 11 Aug 2007
Posts: 16333
Lоcаtion: Псков
Age: 44
Name: Сергей
Пока только такой текст: " :true: " :oops: не успеваю...

_________________
THRASH 'EM ALL


Top
 Profile E-mail  
 
 
PostPosted: 14 Mar 2017 
консэрваторъ
Joined: 11 Aug 2007
Posts: 16333
Lоcаtion: Псков
Age: 44
Name: Сергей
Между демкой и дебютником 8 лет... :shok: Мы бы в своё время уже 5 раз распались и 8 раз спились... Рубят замечательно, нравится строй соло гитары на дебютнике, да и вообще звучание довольно-таки рафинированное, самое то для трасха олдскулистого!.. Шедевр ниже!.. :true: Представляю, какой хэдбэндинг случается под эту песнь на концертах!..

Riffobia - L.T.A.T. | +

Серёга, спасибо за дискографию!.. В таком формате лучше трасх и вылаживать, чего сходу нет, подтянем ведь... :lob:
Альбом 16-ого года как-то не особо зашёл...

_________________
THRASH 'EM ALL


Top
 Profile E-mail  
 
 
PostPosted: 15 Mar 2017 
Хиппей (support team)
User avatar
Joined: 30 Jul 2007
Posts: 108957
Lоcаtion: Киев (Kyiv, UA)
Age: 45
Name: Andrey
thorbeorn wrote:
Laws of Devastation

:thanx:

mirror: Depos l Narod l M-Cloud

_________________


Top
 Profile E-mail  
 
 
PostPosted: 15 Mar 2017 
Хиппей (support team)
User avatar
Joined: 30 Jul 2007
Posts: 108957
Lоcаtion: Киев (Kyiv, UA)
Age: 45
Name: Andrey
thorbeorn wrote:
Death from Above

:thanx:

mirror: Depos l Narod l M-Cloud

_________________


Top
 Profile E-mail  
 
 
PostPosted: 15 Mar 2017 
Хиппей (support team)
User avatar
Joined: 30 Jul 2007
Posts: 108957
Lоcаtion: Киев (Kyiv, UA)
Age: 45
Name: Andrey
thorbeorn wrote:
Demo 2005

:thanx:

mirror: Depos l Narod l M-Cloud

_________________


Top
 Profile E-mail  
 
 
PostPosted: 15 Mar 2017 
Хиппей (support team)
User avatar
Joined: 30 Jul 2007
Posts: 108957
Lоcаtion: Киев (Kyiv, UA)
Age: 45
Name: Andrey
thorbeorn wrote:
Death from Above

Какой утробный сессионный саунд :pechkin: :sp: :pechkin:

_________________


Top
 Profile E-mail  
 
 
PostPosted: 15 Mar 2017 
Хиппей (support team)
User avatar
Joined: 30 Jul 2007
Posts: 108957
Lоcаtion: Киев (Kyiv, UA)
Age: 45
Name: Andrey
Жуть, все демки и альбомы у группы звучат подвально :fingal:

_________________


Top
 Profile E-mail  
 
Display posts from previous:  Sort by  
Post new topic Reply to topic  [ 11 posts ] 

All times are UTC + 3 hours


Who is online

Users browsing this forum: No registered users and 5 guests


You cannot post new topics in this forum
You cannot reply to topics in this forum
You cannot edit your posts in this forum
You cannot delete your posts in this forum
You cannot post attachments in this forum

Search for:
Яндекс.Метрика
Powered by phpBB © 2000, 2002, 2005, 2007 phpBB Group