\m/ 80's metal \m/

Информационно-аналитический форум "80 см пыли" (In Search We Trust) "У нас никто никуда не спешит"
Me For You - http://me-4u.com
It is currently 14 Dec 2018

All times are UTC + 3 hours

Spoiler
Chat - temporary registration for foreign users (please leave your application here)





Forum rules


Уважаемые пользователи ресурса, друзья, коллеги и гости нашего форума. Данный раздел конференции создан с целью рафинации, и посвящён такому стилевому направлению в музыке, как Thrash Metal во всех его проявлениях и ипостасях, а иногда и переходящему на пограничные стили Speed, Power, Groove, Crossover, MDM и т.п.
Главное правило здесь одно: Одна группа – одна тема! Всё остальное созвучно основным нормам поведения на конференции.
Шаблон оформления тем в этом подфоруме должен быть основан на данных сайта www.metal-archives.com и выглядеть следующим образом:

Группа (Страна) - Стилевые рамки - дискография
Slayer (USA) - Thrash Metal - дискография


В теме допустимо размещение всей информации касающейся данного коллектива: анонсы любых альбомов в любых форматах, запросы любых релизов коллектива (кроме релизов текущего и прошлого годов), обсуждения, обзоры, а в остальном всё как обычно. Уважаем друг друга, не грубим, соблюдаем нормы поведения на конференции, оформляем анонсы и запросы красиво и информативно, что бы модераторы не посчитали их троллингом, и не отправили куда положено, выписав Вам предупреждение или ещё что похуже… Прежде чем что-то запросить или запостить, пользуемся поиском! Пользуемся поиском! ПОЛЬЗУЕМСЯ ПОИСКОМ!!! Так слышно меня?.. :pardon:
Интересного, конструктивного и креативного общения! ;)



Post new topic Reply to topic  [ 20 posts ] 
Author Message
 
PostPosted: 13 Jan 2017 
Генеральный thrasher
User avatar
Joined: 03 Oct 2008
Posts: 3535
Lоcаtion: Ханты-Мансийский АО
Age: 43
Name: Сергей
Image

Year:2014
Style:Thrash Metal
Country:Poland
Archive:Flac+Cue+Log+Scans
Source:my CD
Size:264Mb
Label:Defense Records

Tracklist:
01. Hypnotic Walk 01:15
02. End Point Blank 03:09
03. Stone 04:11
04. Rise of the Machines 03:39
05. Success of a Pill 05:26
06. This Emptiness 03:42
07. Considering an End 02:51
08. Death Came with a Milkmaid 04:33
09. Landscape of Dust 03:15

"Cue"
REM GENRE "Thrash Metal"
REM DATE 2014
REM DISCID 71078109
REM COMMENT "ExactAudioCopy v1.1"
PERFORMER "Rotengeist"
TITLE "Start To Exterminate"
FILE "Rotengeist - Start To Exterminate.flac" WAVE
TRACK 01 AUDIO
TITLE "Hypnotic Walk"
PERFORMER "Rotengeist"
INDEX 01 00:00:00
TRACK 02 AUDIO
TITLE "End Point Blank"
PERFORMER "Rotengeist"
INDEX 01 01:15:17
TRACK 03 AUDIO
TITLE "Stone"
PERFORMER "Rotengeist"
INDEX 01 04:23:74
TRACK 04 AUDIO
TITLE "Rise of the Machines"
PERFORMER "Rotengeist"
INDEX 01 08:34:44
TRACK 05 AUDIO
TITLE "Success of a Pill"
PERFORMER "Rotengeist"
INDEX 01 12:14:00
TRACK 06 AUDIO
TITLE "This Emptiness"
PERFORMER "Rotengeist"
INDEX 01 17:40:03
TRACK 07 AUDIO
TITLE "Considering an End"
PERFORMER "Rotengeist"
INDEX 01 21:21:61
TRACK 08 AUDIO
TITLE "Death Came with a Milkmaid"
PERFORMER "Rotengeist"
INDEX 01 24:13:10
TRACK 09 AUDIO
TITLE "Landscape of Dust"
PERFORMER "Rotengeist"
INDEX 01 28:46:32

"Log"
Exact Audio Copy V1.1 from 23. June 2015

Отчёт EAC об извлечении, выполненном 12. января 2017, 17:04

Rotengeist / Start To Exterminate

Дисковод: HL-DT-STDVDRAM GTA0N Adapter: 1 ID: 0

Режим чтения : Достоверность
Использование точного потока : Да
Отключение кэша аудио : Да
Использование указателей C2 : Нет

Коррекция смещения при чтении : 102
Способность читать области Lead-in и Lead-out : Нет
Заполнение пропущенных сэмплов тишиной : Да
Удаление блоков с тишиной в начале и конце : Нет
При вычислениях CRC использовались нулевые сэмплы : Да
Интерфейс : Встроенный Win32-интерфейс для Win NT/2000

Выходной формат : Пользовательский кодировщик
Выбранный битрейт : 768 kBit/s
Качество : Высокий
Добавление ID3-тега : Нет
Утилита сжатия : C:\Program Files (x86)\Exact Audio Copy\FLAC\FLAC.EXE
Дополнительные параметры : -6 -V -T "ARTIST=%artist%" -T "TITLE=%title%" -T "ALBUM=%albumtitle%" -T "DATE=%year%" -T "TRACKNUMBER=%tracknr%" -T "GENRE=%genre%" -T "COMMENT=%comment%" -T "BAND=%albuminterpret%" -T "ALBUMARTIST=%albuminterpret%" -T "COMPOSER=%composer%" %haslyrics%--tag-from-file=LYRICS="%lyricsfile%"%haslyrics% -T "DISCNUMBER=%cdnumber%" -T "TOTALDISCS=%totalcds%" -T "TOTALTRACKS=%numtracks%" %hascover%--picture="%coverfile%"%hascover% %source% -o %dest%


TOC извлечённого CD

Трек | Старт | Длительность | Начальный сектор | Конечный сектор
---------------------------------------------------------------------
1 | 0:00.00 | 1:15.17 | 0 | 5641
2 | 1:15.17 | 3:08.57 | 5642 | 19798
3 | 4:23.74 | 4:10.45 | 19799 | 38593
4 | 8:34.44 | 3:39.31 | 38594 | 55049
5 | 12:14.00 | 5:26.03 | 55050 | 79502
6 | 17:40.03 | 3:41.58 | 79503 | 96135
7 | 21:21.61 | 2:51.24 | 96136 | 108984
8 | 24:13.10 | 4:33.22 | 108985 | 129481
9 | 28:46.32 | 3:14.74 | 129482 | 144105


Характеристики диапазона извлечения и сообщения об ошибках

Выбранный диапазон

Имя файла C:\Users\магазин\Music\Rotengeist - Start To Exterminate.wav

Пиковый уровень 100.0 %
Скорость извлечения 3.6 X
Качество диапазона 100.0 %
CRC копии 6D6A85C4
Копирование... OK

Ошибок не произошло


AccurateRip: сводка

Трек 1 : извлечено точно (доверие 2) [DF62BC2C] (AR v2)
Трек 2 : извлечено точно (доверие 2) [1A8141D3] (AR v2)
Трек 3 : извлечено точно (доверие 2) [CDF1C37D] (AR v2)
Трек 4 : извлечено точно (доверие 2) [B9997762] (AR v2)
Трек 5 : извлечено точно (доверие 2) [49076D6E] (AR v2)
Трек 6 : извлечено точно (доверие 2) [421F76B4] (AR v2)
Трек 7 : извлечено точно (доверие 2) [B7DFAF53] (AR v2)
Трек 8 : извлечено точно (доверие 2) [D33EBFCD] (AR v2)
Трек 9 : извлечено точно (доверие 2) [6CAA5EBB] (AR v2)

Все треки извлечены точно

Конец отчёта

---- CUETools DB Plugin V2.1.6

[CTDB TOCID: n18v4UKt0FhsUpMVcJhNzGTJhiY-] disk not present in database
Submit result: n18v4UKt0FhsUpMVcJhNzGTJhiY- has been uploaded


Start To Exterminate


Top
 Profile  
 
 
PostPosted: 13 Jan 2017 
Хиппей (support team)
User avatar
Joined: 30 Jul 2007
Posts: 108901
Lоcаtion: Киев (Kyiv, UA)
Age: 45
Name: Andrey
:thanx:

mirror: Depos l Narod l M-Cloud

_________________


Top
 Profile E-mail  
 
 
PostPosted: 13 Jan 2017 
Прокъмитолист
User avatar
Joined: 12 Aug 2007
Posts: 6514
Lоcаtion: Санктъ-Петербуркъ
Age: 51
Name: Олекъ
:thanx:

_________________
прокъметол - это музыко, от которово есть прок (ы)


Top
 Profile  
 
 
PostPosted: 14 Jan 2017 
консэрваторъ
Joined: 11 Aug 2007
Posts: 16319
Lоcаtion: Псков
Age: 44
Name: Сергей
Опять поляки?.. На англ поют?..

Не дурно вродь... :scratch: :arrov: http://www.metal-archives.com/bands/Rotengeist/106939

Rotengeist - Spiritual Collapse (Official Video HD) | +

Пока забрал, спасибо... :thanx: :thanx:
Серёг, а 9-ый есть?.. :oops:

_________________
THRASH 'EM ALL


Top
 Profile E-mail  
 
 
PostPosted: 14 Jan 2017 
Генеральный thrasher
User avatar
Joined: 03 Oct 2008
Posts: 3535
Lоcаtion: Ханты-Мансийский АО
Age: 43
Name: Сергей
Опять поляки...

Поют на английском...

9-го нет :pardon: ,но хотелось бы купить...


Top
 Profile  
 
 
PostPosted: 14 Jan 2017 
консэрваторъ
Joined: 11 Aug 2007
Posts: 16319
Lоcаtion: Псков
Age: 44
Name: Сергей
А продаётся где?.. :oops:

_________________
THRASH 'EM ALL


Top
 Profile E-mail  
 
 
PostPosted: 16 Jan 2017 
Генеральный thrasher
User avatar
Joined: 03 Oct 2008
Posts: 3535
Lоcаtion: Ханты-Мансийский АО
Age: 43
Name: Сергей
https://www.discogs.com/sell/item/358771684


Top
 Profile  
 
 
PostPosted: 16 Jan 2017 
консэрваторъ
Joined: 11 Aug 2007
Posts: 16319
Lоcаtion: Псков
Age: 44
Name: Сергей
Пока значит будем довольствоваться эмпэтреями... :vic:

_________________
THRASH 'EM ALL


Top
 Profile E-mail  
 
 
PostPosted: 12 Feb 2017 
консэрваторъ
Joined: 11 Aug 2007
Posts: 16319
Lоcаtion: Псков
Age: 44
Name: Сергей
У них новый альбом на февраль/март намечен... и по-моему скатываются они в пронговщину... :(

Rotengeist - The Test That Divides Us All (Official Audio) | +

_________________
THRASH 'EM ALL


Top
 Profile E-mail  
 
 
PostPosted: 12 Feb 2017 
консэрваторъ
Joined: 11 Aug 2007
Posts: 16319
Lоcаtion: Псков
Age: 44
Name: Сергей
Rotengeist - Promo 2007

Image

Было на арее опятьжешь... :arrov: https://metalarea.org/forum/index.php?showtopic=55791 нонче некачабельно... :dash:
Если у кого осталось, выложите пожалуйста... Туда в тему даже гитарист Пётр заходил, спрашивал, где у нас концерты давать... Явно на Брянщину его звать надо было...
Пока придётся довольствоваться офсайтом и двумя доступными треками... :arrov: http://www.rotengeist.pl/download_en.html
Удивительно, но эта промка до сих пор в продаже, и всего за 4 евро... :shok: :arrov: http://www.rotengeist.pl/shop_en.html
Quote:
shipping cost included

:shok: :shok:

_________________
THRASH 'EM ALL


Top
 Profile E-mail  
 
 
PostPosted: 12 Feb 2017 
консэрваторъ
Joined: 11 Aug 2007
Posts: 16319
Lоcаtion: Псков
Age: 44
Name: Сергей
Спасибо, Серёга, за знакомство с бэндом!.. :thanx: Увы, немного не моё, хоть и мощно довольно играют, но вокал... :nea:

_________________
THRASH 'EM ALL


Top
 Profile E-mail  
 
 
PostPosted: 13 Feb 2017 
консэрваторъ
Joined: 11 Aug 2007
Posts: 16319
Lоcаtion: Псков
Age: 44
Name: Сергей
Демку на Арее оперативно перезалили... Все благодарности уходят к камараду Язве!.. :thanx: :true:

_________________
THRASH 'EM ALL


Top
 Profile E-mail  
 
 
PostPosted: 17 Mar 2017 
Хиппей (support team)
User avatar
Joined: 30 Jul 2007
Posts: 108901
Lоcаtion: Киев (Kyiv, UA)
Age: 45
Name: Andrey
splatty wrote:
Не дурно вродь...

Отличноый трэшак! :lob: :lob: :lob:
Дуболомный, вокал чисто трэшовый - орёт себе и орёт, не визжит и не поёт. зато моща то какая :meloman: :true: :true: :true:
4 часа цепляло и никак не опускает :kro: :kro: :kro:

6+/10

_________________


Top
 Profile E-mail  
 
 
PostPosted: 17 Mar 2017 
Хиппей (support team)
User avatar
Joined: 30 Jul 2007
Posts: 108901
Lоcаtion: Киев (Kyiv, UA)
Age: 45
Name: Andrey
Демку на Арее оперативно перезалили... Все благодарности уходят к камараду Язве!.. :thanx: :true:

:thanx:

mirror: Depos l Narod l M-Cloud



Ща тоже заценю...

_________________


Top
 Profile E-mail  
 
 
PostPosted: 08 May 2017 
Генеральный thrasher
User avatar
Joined: 03 Oct 2008
Posts: 3535
Lоcаtion: Ханты-Мансийский АО
Age: 43
Name: Сергей
Выложил дебютник на трэкере.Кому надо забирайте.


Top
 Profile  
 
 
PostPosted: 08 May 2017 
Partisanen - nicht kapitulieren!!
User avatar
Joined: 25 Dec 2011
Posts: 6762
Lоcаtion: партизанские леса
Age: 46
Name: Владимир
У них новый альбом на февраль/март намечен... и по-моему скатываются они в пронговщину... :(

Rotengeist - The Test That Divides Us All (Official Audio) | +

есть на Бэндкампе - https://rotengeist.bandcamp.com/album/t ... des-us-all

_________________
One more beer and Heavy Metal and I'm just fine!
старовер, куле... слово "блин" - до сих пор через Ъ говорю


Top
 Profile E-mail  
 
 
PostPosted: 08 May 2017 
консэрваторъ
Joined: 11 Aug 2007
Posts: 16319
Lоcаtion: Псков
Age: 44
Name: Сергей
Ктоб ещё поназакуплял... :oops:
thorbeorn wrote:
Выложил дебютник на трэкере

Не забыть заменить... :thanx: :thanx:

_________________
THRASH 'EM ALL


Top
 Profile E-mail  
 
 
PostPosted: 08 May 2017 
Хиппей (support team)
User avatar
Joined: 30 Jul 2007
Posts: 108901
Lоcаtion: Киев (Kyiv, UA)
Age: 45
Name: Andrey
Выложил дебютник на трэкере.Кому надо забирайте.

:thanx:

Rotengeist - 2009 - Fear Is The Key [flac]

Image Image Image

mirror: Depos l Narod l M-Cloud

Image Image Image

Image Image Image

log
Exact Audio Copy V1.1 from 23. June 2015

Отчёт EAC об извлечении, выполненном 8. мая 2017, 10:56

Rotengeist / Fear Is The Key

Дисковод: HL-DT-STDVDRAM GTA0N Adapter: 1 ID: 0

Режим чтения : Достоверность
Использование точного потока : Да
Отключение кэша аудио : Да
Использование указателей C2 : Нет

Коррекция смещения при чтении : 102
Способность читать области Lead-in и Lead-out : Нет
Заполнение пропущенных сэмплов тишиной : Да
Удаление блоков с тишиной в начале и конце : Нет
При вычислениях CRC использовались нулевые сэмплы : Да
Интерфейс : Встроенный Win32-интерфейс для Win NT/2000

Выходной формат : Пользовательский кодировщик
Выбранный битрейт : 768 kBit/s
Качество : Высокий
Добавление ID3-тега : Нет
Утилита сжатия : C:\Program Files (x86)\Exact Audio Copy\FLAC\FLAC.EXE
Дополнительные параметры : -V -8 -T "Date=%year%" -T "Genre=%genre%" %source%


TOC извлечённого CD

Трек | Старт | Длительность | Начальный сектор | Конечный сектор
---------------------------------------------------------------------
1 | 0:00.00 | 0:28.71 | 0 | 2170
2 | 0:28.71 | 4:10.27 | 2171 | 20947
3 | 4:39.23 | 4:17.24 | 20948 | 40246
4 | 8:56.47 | 3:26.73 | 40247 | 55769
5 | 12:23.45 | 4:29.58 | 55770 | 76002
6 | 16:53.28 | 3:23.48 | 76003 | 91275
7 | 20:17.01 | 2:56.59 | 91276 | 104534
8 | 23:13.60 | 4:31.69 | 104535 | 124928
9 | 27:45.54 | 3:08.57 | 124929 | 139085
10 | 30:54.36 | 3:22.17 | 139086 | 154252


Характеристики диапазона извлечения и сообщения об ошибках

Выбранный диапазон

Имя файла C:\Users\магазин\Music\Rotengeist - Fear Is The Key.wav

Пиковый уровень 97.6 %
Скорость извлечения 3.6 X
Качество диапазона 100.0 %
CRC теста F3F1D641
CRC копии F3F1D641
Копирование... OK

Ошибок не произошло


AccurateRip: сводка

Трек 1 : извлечено точно (доверие 1) [32C20FD8] (AR v2)
Трек 2 : извлечено точно (доверие 1) [4C716233] (AR v2)
Трек 3 : извлечено точно (доверие 1) [55326CFB] (AR v2)
Трек 4 : извлечено точно (доверие 1) [9E77A615] (AR v2)
Трек 5 : извлечено точно (доверие 1) [AC0F82EE] (AR v2)
Трек 6 : извлечено точно (доверие 1) [8E3B056A] (AR v2)
Трек 7 : извлечено точно (доверие 1) [75EF553B] (AR v2)
Трек 8 : извлечено точно (доверие 1) [FFC79D27] (AR v2)
Трек 9 : извлечено точно (доверие 1) [4487D388] (AR v2)
Трек 10 : извлечено точно (доверие 1) [E5FC0028] (AR v2)

Все треки извлечены точно

Конец отчёта

---- CUETools DB Plugin V2.1.6

[CTDB TOCID: pKV23vOiXSg8wHgoDjYDWYo1R_E-] disk not present in database
Submit result: pKV23vOiXSg8wHgoDjYDWYo1R_E- has been uploaded

cue
REM GENRE "Thrash Metal"
REM DATE 2009
REM DISCID 7E08080A
REM COMMENT "ExactAudioCopy v1.1"
PERFORMER "Rotengeist"
TITLE "Fear Is The Key"
FILE "Rotengeist - Fear Is The Key.flac" WAVE
TRACK 01 AUDIO
TITLE "Devil's Mask"
PERFORMER "Rotengeist"
FLAGS DCP
INDEX 01 00:00:00
TRACK 02 AUDIO
TITLE "Spiritual Collapse"
PERFORMER "Rotengeist"
FLAGS DCP
INDEX 01 00:28:71
TRACK 03 AUDIO
TITLE "Slaves Of The False Freedom"
PERFORMER "Rotengeist"
FLAGS DCP
INDEX 01 04:39:23
TRACK 04 AUDIO
TITLE "Erase"
PERFORMER "Rotengeist"
FLAGS DCP
INDEX 01 08:56:47
TRACK 05 AUDIO
TITLE "Choice And Duty"
PERFORMER "Rotengeist"
FLAGS DCP
INDEX 01 12:23:45
TRACK 06 AUDIO
TITLE "Organized Murderer"
PERFORMER "Rotengeist"
FLAGS DCP
INDEX 01 16:53:28
TRACK 07 AUDIO
TITLE "Eradicate Evil"
PERFORMER "Rotengeist"
FLAGS DCP
INDEX 01 20:17:01
TRACK 08 AUDIO
TITLE "Preacher Of Hate"
PERFORMER "Rotengeist"
FLAGS DCP
INDEX 01 23:13:60
TRACK 09 AUDIO
TITLE "Strange"
PERFORMER "Rotengeist"
FLAGS DCP
INDEX 01 27:45:54
TRACK 10 AUDIO
TITLE "Fear Is the Key (Dormo Five)"
PERFORMER "Rotengeist"
FLAGS DCP
INDEX 01 30:54:36

_________________


Top
 Profile E-mail  
 
 
PostPosted: 08 May 2017 
Хиппей (support team)
User avatar
Joined: 30 Jul 2007
Posts: 108901
Lоcаtion: Киев (Kyiv, UA)
Age: 45
Name: Andrey
Хм, и альбом 9 года оказался хороший и техничным трэшем сродни чуть облегчённным... Entombed :shok:
Во всяком лучае, звукан у альбома именно такой - тяжеленный грузящий бас и отдалённая, загробная барабанная установка. Ну и вокал соответствующий :meloman:
Лишь иногда ритм-гитара выдаёт то, что ребята всё же играют трэш :kro:

6+/10

_________________


Top
 Profile E-mail  
 
 
PostPosted: 09 May 2017 
Прокъмитолист
User avatar
Joined: 12 Aug 2007
Posts: 6514
Lоcаtion: Санктъ-Петербуркъ
Age: 51
Name: Олекъ
thorbeorn wrote:
Кому надо забирайте

спасибо, Серёг! :thanx: и Андрюхе за зеркальца :thanx:

_________________
прокъметол - это музыко, от которово есть прок (ы)


Top
 Profile  
 
Display posts from previous:  Sort by  
Post new topic Reply to topic  [ 20 posts ] 

All times are UTC + 3 hours


Who is online

Users browsing this forum: No registered users and 5 guests


You cannot post new topics in this forum
You cannot reply to topics in this forum
You cannot edit your posts in this forum
You cannot delete your posts in this forum
You cannot post attachments in this forum

Search for:
Яндекс.Метрика
Powered by phpBB © 2000, 2002, 2005, 2007 phpBB Group