\m/ 80's metal \m/

Информационно-аналитический форум "80 см пыли" (In Search We Trust) "У нас никто никуда не спешит"
Me For You - http://me-4u.com
It is currently 17 Dec 2018

All times are UTC + 3 hours

Spoiler
Chat - temporary registration for foreign users (please leave your application here)





Forum rules


Уважаемые пользователи ресурса, друзья, коллеги и гости нашего форума. Данный раздел конференции создан с целью рафинации, и посвящён такому стилевому направлению в музыке, как Thrash Metal во всех его проявлениях и ипостасях, а иногда и переходящему на пограничные стили Speed, Power, Groove, Crossover, MDM и т.п.
Главное правило здесь одно: Одна группа – одна тема! Всё остальное созвучно основным нормам поведения на конференции.
Шаблон оформления тем в этом подфоруме должен быть основан на данных сайта www.metal-archives.com и выглядеть следующим образом:

Группа (Страна) - Стилевые рамки - дискография
Slayer (USA) - Thrash Metal - дискография


В теме допустимо размещение всей информации касающейся данного коллектива: анонсы любых альбомов в любых форматах, запросы любых релизов коллектива (кроме релизов текущего и прошлого годов), обсуждения, обзоры, а в остальном всё как обычно. Уважаем друг друга, не грубим, соблюдаем нормы поведения на конференции, оформляем анонсы и запросы красиво и информативно, что бы модераторы не посчитали их троллингом, и не отправили куда положено, выписав Вам предупреждение или ещё что похуже… Прежде чем что-то запросить или запостить, пользуемся поиском! Пользуемся поиском! ПОЛЬЗУЕМСЯ ПОИСКОМ!!! Так слышно меня?.. :pardon:
Интересного, конструктивного и креативного общения! ;)



Post new topic Reply to topic  [ 46 posts ]  Go to page 1, 2, 3  Next
Author Message
 
PostPosted: 05 Nov 2016 
Генеральный thrasher
User avatar
Joined: 03 Oct 2008
Posts: 3537
Lоcаtion: Ханты-Мансийский АО
Age: 43
Name: Сергей
Ещё одна группа вокалиста The Outer Limits.Может кому придётся по душе.Но явно не Серёге splatty.

Image

Year:2013
Style:Power/Thrash Metal
Country:Bulgaria
Archive:Flac+Cue+Log+Scans
Source:my CD
Size:323Mb
Label:EBM Records

Tracklist:
01. Celestial Cry / Pray To Me 07:24
02. Blood Of The Tyrant 05:03
03. Crucify 04:46
04. In Dollar We Trust 04:12
05. The Serpent 06:06
06. I Stand In Fire 03:07
07. Wicked Messiah 04:04
08. Dark Angel 04:59
09. Posers Genocide 03:48

"Cue"
REM GENRE "Power/Thrash Metal"
REM DATE 2013
REM DISCID 7A0A3109
REM COMMENT "ExactAudioCopy v1.1"
PERFORMER "Mosh-Pit Justice"
TITLE "Mosh-Pit Justice"
FILE "Mosh-Pit Justice - Mosh-Pit Justice.flac" WAVE
TRACK 01 AUDIO
TITLE "Celestial Cry / Pray To Me "
PERFORMER "Mosh-Pit Justice"
FLAGS DCP
INDEX 01 00:00:00
TRACK 02 AUDIO
TITLE "Blood Of The Tyrant"
PERFORMER "Mosh-Pit Justice"
FLAGS DCP
INDEX 01 07:23:48
TRACK 03 AUDIO
TITLE "Crucify"
PERFORMER "Mosh-Pit Justice"
FLAGS DCP
INDEX 01 12:26:63
TRACK 04 AUDIO
TITLE "In Dollar We Trust"
PERFORMER "Mosh-Pit Justice"
FLAGS DCP
INDEX 01 17:12:72
TRACK 05 AUDIO
TITLE "The Serpent"
PERFORMER "Mosh-Pit Justice"
FLAGS DCP
INDEX 01 21:24:68
TRACK 06 AUDIO
TITLE "I Stand In Fire"
PERFORMER "Mosh-Pit Justice"
FLAGS DCP
INDEX 01 27:30:52
TRACK 07 AUDIO
TITLE "Wicked Messiah"
PERFORMER "Mosh-Pit Justice"
FLAGS DCP
INDEX 01 30:37:15
TRACK 08 AUDIO
TITLE "Dark Angel"
PERFORMER "Mosh-Pit Justice"
FLAGS DCP
INDEX 01 34:41:37
TRACK 09 AUDIO
TITLE "Posers Genocide"
PERFORMER "Mosh-Pit Justice"
FLAGS DCP
INDEX 01 39:40:56

"Log"
Exact Audio Copy V1.1 from 23. June 2015

Отчёт EAC об извлечении, выполненном 3. ноября 2016, 13:16

Mosh-Pit Justice / Mosh-Pit Justice

Дисковод: HL-DT-STDVDRAM GTA0N Adapter: 1 ID: 0

Режим чтения : Достоверность
Использование точного потока : Да
Отключение кэша аудио : Да
Использование указателей C2 : Нет

Коррекция смещения при чтении : 102
Способность читать области Lead-in и Lead-out : Нет
Заполнение пропущенных сэмплов тишиной : Да
Удаление блоков с тишиной в начале и конце : Нет
При вычислениях CRC использовались нулевые сэмплы : Да
Интерфейс : Встроенный Win32-интерфейс для Win NT/2000

Выходной формат : Пользовательский кодировщик
Выбранный битрейт : 768 kBit/s
Качество : Высокий
Добавление ID3-тега : Нет
Утилита сжатия : C:\Program Files (x86)\Exact Audio Copy\FLAC\FLAC.EXE
Дополнительные параметры : -6 -V -T "ARTIST=%artist%" -T "TITLE=%title%" -T "ALBUM=%albumtitle%" -T "DATE=%year%" -T "TRACKNUMBER=%tracknr%" -T "GENRE=%genre%" -T "COMMENT=%comment%" -T "BAND=%albuminterpret%" -T "ALBUMARTIST=%albuminterpret%" -T "COMPOSER=%composer%" %haslyrics%--tag-from-file=LYRICS="%lyricsfile%"%haslyrics% -T "DISCNUMBER=%cdnumber%" -T "TOTALDISCS=%totalcds%" -T "TOTALTRACKS=%numtracks%" %hascover%--picture="%coverfile%"%hascover% %source% -o %dest%


TOC извлечённого CD

Трек | Старт | Длительность | Начальный сектор | Конечный сектор
---------------------------------------------------------------------
1 | 0:00.00 | 7:23.48 | 0 | 33272
2 | 7:23.48 | 5:03.15 | 33273 | 56012
3 | 12:26.63 | 4:46.09 | 56013 | 77471
4 | 17:12.72 | 4:11.71 | 77472 | 96367
5 | 21:24.68 | 6:05.59 | 96368 | 123801
6 | 27:30.52 | 3:06.38 | 123802 | 137789
7 | 30:37.15 | 4:04.22 | 137790 | 156111
8 | 34:41.37 | 4:59.19 | 156112 | 178555
9 | 39:40.56 | 3:48.28 | 178556 | 195683


Характеристики диапазона извлечения и сообщения об ошибках

Выбранный диапазон

Имя файла C:\Users\магазин\Music\Mosh-Pit Justice - Mosh-Pit Justice.wav

Пиковый уровень 100.0 %
Скорость извлечения 3.9 X
Качество диапазона 100.0 %
CRC копии 461F5A3E
Копирование... OK

Ошибок не произошло


AccurateRip: сводка

Трек 1 : извлечено точно (доверие 1) [766C8DB7] (AR v2)
Трек 2 : извлечено точно (доверие 1) [322E5E00] (AR v2)
Трек 3 : извлечено точно (доверие 1) [5CB0F66B] (AR v2)
Трек 4 : извлечено точно (доверие 1) [7C2B66A9] (AR v2)
Трек 5 : извлечено точно (доверие 1) [6B81ABA5] (AR v2)
Трек 6 : извлечено точно (доверие 1) [93982065] (AR v2)
Трек 7 : извлечено точно (доверие 1) [EA23AD08] (AR v2)
Трек 8 : извлечено точно (доверие 1) [E29EADBF] (AR v2)
Трек 9 : извлечено точно (доверие 1) [ACED39B5] (AR v2)

Все треки извлечены точно

Конец отчёта

---- CUETools DB Plugin V2.1.6

[CTDB TOCID: kQwvCnjp6Zmvp.W3t4F5Xg1mWgA-] found
Submit result: kQwvCnjp6Zmvp.W3t4F5Xg1mWgA- has been confirmed
Track | CTDB Status
1 | (2/2) Accurately ripped
2 | (2/2) Accurately ripped
3 | (2/2) Accurately ripped
4 | (2/2) Accurately ripped
5 | (2/2) Accurately ripped
6 | (2/2) Accurately ripped
7 | (2/2) Accurately ripped
8 | (2/2) Accurately ripped
9 | (2/2) Accurately ripped


Mosh-Pit Justice


Top
 Profile  
 
 
PostPosted: 05 Nov 2016 
консэрваторъ
Joined: 11 Aug 2007
Posts: 16333
Lоcаtion: Псков
Age: 44
Name: Сергей
Ага, я её послухал уже... в смысле проект, а в частности ньюальбум 16-ого... :arrov: viewtopic.php?p=280714#p280714

_________________
THRASH 'EM ALL


Top
 Profile E-mail  
 
 
PostPosted: 05 Nov 2016 
Генеральный thrasher
User avatar
Joined: 03 Oct 2008
Posts: 3537
Lоcаtion: Ханты-Мансийский АО
Age: 43
Name: Сергей
Первые два альбома гораздо лучше последнего.


Top
 Profile  
 
 
PostPosted: 05 Nov 2016 
Хиппей (support team)
User avatar
Joined: 30 Jul 2007
Posts: 108957
Lоcаtion: Киев (Kyiv, UA)
Age: 45
Name: Andrey
:thanx:

mirror: iFolder l Narod l M-Cloud

_________________


Top
 Profile E-mail  
 
 
PostPosted: 06 Nov 2016 
Прокъмитолист
User avatar
Joined: 12 Aug 2007
Posts: 6514
Lоcаtion: Санктъ-Петербуркъ
Age: 51
Name: Олекъ
:thanx:

_________________
прокъметол - это музыко, от которово есть прок (ы)


Top
 Profile  
 
 
PostPosted: 06 Nov 2016 
Хиппей (support team)
User avatar
Joined: 30 Jul 2007
Posts: 108957
Lоcаtion: Киев (Kyiv, UA)
Age: 45
Name: Andrey
Местами техничный павер-трэш, временами вокалист хочет быть КингДаймондом (или хотя бы Рёнсдорфом и Алексом Брихта), но всё же поёт неплохо.
Играют все остальные тоже хорошо. Попадаются на альбоме и откровенные хиты.
В общем, позитивненький музон выдали :meloman:

5+/10

_________________


Top
 Profile E-mail  
 
 
PostPosted: 06 Nov 2016 
Хиппей (support team)
User avatar
Joined: 30 Jul 2007
Posts: 108957
Lоcаtion: Киев (Kyiv, UA)
Age: 45
Name: Andrey
Ой, это вокалист, как оказалось, голосил и на втором альбоме шведского проекта Сида - Blazon Stone :oops:

_________________


Top
 Profile E-mail  
 
 
PostPosted: 06 Nov 2016 
Хиппей (support team)
User avatar
Joined: 30 Jul 2007
Posts: 108957
Lоcаtion: Киев (Kyiv, UA)
Age: 45
Name: Andrey
thorbeorn, Серёг, а у тебя ж оба последующих альбома есть? Залей, при случае :dance:

_________________


Top
 Profile E-mail  
 
 
PostPosted: 06 Nov 2016 
Генеральный thrasher
User avatar
Joined: 03 Oct 2008
Posts: 3537
Lоcаtion: Ханты-Мансийский АО
Age: 43
Name: Сергей
У меня только 2014 ещё,Андрей.Завтра оформлю.


Top
 Profile  
 
 
PostPosted: 06 Nov 2016 
Хиппей (support team)
User avatar
Joined: 30 Jul 2007
Posts: 108957
Lоcаtion: Киев (Kyiv, UA)
Age: 45
Name: Andrey
Заранее уря :kro:

_________________


Top
 Profile E-mail  
 
 
PostPosted: 06 Nov 2016 
Генеральный thrasher
User avatar
Joined: 03 Oct 2008
Posts: 3537
Lоcаtion: Ханты-Мансийский АО
Age: 43
Name: Сергей
Мне интересно,а Серёга послушал сей опус?


Top
 Profile  
 
 
PostPosted: 07 Nov 2016 
Генеральный thrasher
User avatar
Joined: 03 Oct 2008
Posts: 3537
Lоcаtion: Ханты-Мансийский АО
Age: 43
Name: Сергей
Раз Андрюха затребовал,пришлось извлечь из закромов этот давно сделанный рип...Хотя вряд ли много охотников до данного опуса найдётся.

Image

Year:2014
Style:Power/Thrash Metal
Country:Bulgaria
Archive:Flac+Cue+Log+Scans
Source:my CD
Size:308Mb
Label:Stormspell Records

01. A Free World Will Be Born 04:48
02. Locked Away 03:47
03. The Ripper 05:39
04. Streets on Fire 04:26
05. Find a Reason 07:28
06. I Laugh in Your Face 04:48
07. Chaovinist Control 04:59
08. Cut My Restraints 05:26

"Cue"
REM GENRE "Thrash Metal"
REM DATE 2014
REM DISCID 6B09B308
REM COMMENT "ExactAudioCopy v1.1"
PERFORMER "Mosh-Pit Justice"
TITLE "Justice Is Served"
FILE "Mosh-Pit Justice - Justice Is Served.flac" WAVE
TRACK 01 AUDIO
TITLE "A Free World Will Be Born"
PERFORMER "Mosh-Pit Justice"
FLAGS DCP
INDEX 01 00:00:00
TRACK 02 AUDIO
TITLE "Locked Away"
PERFORMER "Mosh-Pit Justice"
FLAGS DCP
INDEX 01 04:48:35
TRACK 03 AUDIO
TITLE "The Ripper"
PERFORMER "Mosh-Pit Justice"
FLAGS DCP
INDEX 01 08:35:59
TRACK 04 AUDIO
TITLE "Streets on Fire"
PERFORMER "Mosh-Pit Justice"
FLAGS DCP
INDEX 01 14:15:09
TRACK 05 AUDIO
TITLE "Find a Reason"
PERFORMER "Mosh-Pit Justice"
FLAGS DCP
INDEX 01 18:41:30
TRACK 06 AUDIO
TITLE "I Laugh in Your Face"
PERFORMER "Mosh-Pit Justice"
FLAGS DCP
INDEX 01 26:09:37
TRACK 07 AUDIO
TITLE "Chaovinist Control"
PERFORMER "Mosh-Pit Justice"
FLAGS DCP
INDEX 01 30:57:69
TRACK 08 AUDIO
TITLE "Cut My Restraints"
PERFORMER "Mosh-Pit Justice"
FLAGS DCP
INDEX 01 35:57:04

"Log"
Exact Audio Copy V1.1 from 23. June 2015

Отчёт EAC об извлечении, выполненном 3. декабря 2015, 16:47

Mosh-Pit Justice / Justice Is Served

Дисковод: HL-DT-STDVDRAM GTA0N Adapter: 1 ID: 0

Режим чтения : Достоверность
Использование точного потока : Да
Отключение кэша аудио : Да
Использование указателей C2 : Нет

Коррекция смещения при чтении : 102
Способность читать области Lead-in и Lead-out : Нет
Заполнение пропущенных сэмплов тишиной : Да
Удаление блоков с тишиной в начале и конце : Нет
При вычислениях CRC использовались нулевые сэмплы : Да
Интерфейс : Встроенный Win32-интерфейс для Win NT/2000

Выходной формат : Пользовательский кодировщик
Выбранный битрейт : 768 kBit/s
Качество : Высокий
Добавление ID3-тега : Нет
Утилита сжатия : C:\Program Files (x86)\Exact Audio Copy\FLAC\FLAC.EXE
Дополнительные параметры : -6 -V -T "ARTIST=%artist%" -T "TITLE=%title%" -T "ALBUM=%albumtitle%" -T "DATE=%year%" -T "TRACKNUMBER=%tracknr%" -T "GENRE=%genre%" -T "COMMENT=%comment%" -T "BAND=%albuminterpret%" -T "ALBUMARTIST=%albuminterpret%" -T "COMPOSER=%composer%" %haslyrics%--tag-from-file=LYRICS="%lyricsfile%"%haslyrics% -T "DISCNUMBER=%cdnumber%" -T "TOTALDISCS=%totalcds%" -T "TOTALTRACKS=%numtracks%" %hascover%--picture="%coverfile%"%hascover% %source% -o %dest%


TOC извлечённого CD

Трек | Старт | Длительность | Начальный сектор | Конечный сектор
---------------------------------------------------------------------
1 | 0:00.00 | 4:48.35 | 0 | 21634
2 | 4:48.35 | 3:47.24 | 21635 | 38683
3 | 8:35.59 | 5:39.25 | 38684 | 64133
4 | 14:15.09 | 4:26.21 | 64134 | 84104
5 | 18:41.30 | 7:28.07 | 84105 | 117711
6 | 26:09.37 | 4:48.32 | 117712 | 139343
7 | 30:57.69 | 4:59.10 | 139344 | 161778
8 | 35:57.04 | 5:25.72 | 161779 | 186225


Характеристики диапазона извлечения и сообщения об ошибках

Выбранный диапазон

Имя файла C:\Users\магазин\Music\Mosh-Pit Justice - Justice Is Served.wav

Пиковый уровень 99.9 %
Скорость извлечения 3.8 X
Качество диапазона 99.9 %
CRC копии 72AABBCD
Копирование... OK

Ошибок не произошло


AccurateRip: сводка

Трек 1 отсутствует в базе данных
Трек 2 отсутствует в базе данных
Трек 3 отсутствует в базе данных
Трек 4 отсутствует в базе данных
Трек 5 отсутствует в базе данных
Трек 6 отсутствует в базе данных
Трек 7 отсутствует в базе данных
Трек 8 отсутствует в базе данных

Ни одного трека нет в базе AccurateRip

Конец отчёта

---- CUETools DB Plugin V2.1.6

[CTDB TOCID: Bg7kSa3cIDjVuq8oZQN44Elgvsc-] found
Submit result: Bg7kSa3cIDjVuq8oZQN44Elgvsc- has been confirmed
Track | CTDB Status
1 | (2/2) Accurately ripped
2 | (2/2) Accurately ripped
3 | (2/2) Accurately ripped
4 | (2/2) Accurately ripped
5 | (2/2) Accurately ripped
6 | (2/2) Accurately ripped
7 | (2/2) Accurately ripped
8 | (2/2) Accurately ripped


Justice Is Served


Top
 Profile  
 
 
PostPosted: 07 Nov 2016 
консэрваторъ
Joined: 11 Aug 2007
Posts: 16333
Lоcаtion: Псков
Age: 44
Name: Сергей
Поперёк, если честно... Но я же заранее необъективен, у меня ж предосудительность к бжишкам... особенно, когда воют... Ну, может быть, кога-нибудь... :vic:
Надо наверное повнимательнее к этому опусу отнестись...

_________________
THRASH 'EM ALL


Top
 Profile E-mail  
 
 
PostPosted: 07 Nov 2016 
Генеральный thrasher
User avatar
Joined: 03 Oct 2008
Posts: 3537
Lоcаtion: Ханты-Мансийский АО
Age: 43
Name: Сергей
Ну я знаю твои вкусы,Серёг...Потому собственно и не постил здесь их альбомы.Не думал,что они Андрюхе по душе придутся.Хотя он может через пару прослушиваний и переменить своё мнение. :benya:


Top
 Profile  
 
 
PostPosted: 07 Nov 2016 
Хиппей (support team)
User avatar
Joined: 30 Jul 2007
Posts: 108957
Lоcаtion: Киев (Kyiv, UA)
Age: 45
Name: Andrey
:thanx:

mirror: iFolder l Narod l M-Cloud

Не-не, не затребовал, а был бы не против =)
Серёг, спасибо :kro:

_________________


Top
 Profile E-mail  
 
 
PostPosted: 07 Nov 2016 
Хиппей (support team)
User avatar
Joined: 30 Jul 2007
Posts: 108957
Lоcаtion: Киев (Kyiv, UA)
Age: 45
Name: Andrey
thorbeorn wrote:
Хотя он может через пару прослушиваний и переменить своё мнение.

Могу. Но только в лучшую сторону =)

_________________


Top
 Profile E-mail  
 
 
PostPosted: 07 Nov 2016 
Прокъмитолист
User avatar
Joined: 12 Aug 2007
Posts: 6514
Lоcаtion: Санктъ-Петербуркъ
Age: 51
Name: Олекъ
и я утащу. спасибо, Серёг :thanx:

_________________
прокъметол - это музыко, от которово есть прок (ы)


Top
 Profile  
 
 
PostPosted: 07 Nov 2016 
консэрваторъ
Joined: 11 Aug 2007
Posts: 16333
Lоcаtion: Псков
Age: 44
Name: Сергей
Решил я всё собрать и внимательно переслушать... Благодарствую за релизы!..

_________________
THRASH 'EM ALL


Top
 Profile E-mail  
 
 
PostPosted: 07 Nov 2016 
консэрваторъ
Joined: 11 Aug 2007
Posts: 16333
Lоcаtion: Псков
Age: 44
Name: Сергей
И я забираю, раз пошла такая пьянка... :thanx: :thanx:

_________________
THRASH 'EM ALL


Top
 Profile E-mail  
 
 
PostPosted: 07 Nov 2016 
консэрваторъ
Joined: 11 Aug 2007
Posts: 16333
Lоcаtion: Псков
Age: 44
Name: Сергей
На самом деле очень хороши гитары!.. Ну не тянул бы Жора так сипло-надрывно... всё б замечательно было б... эх... Но музыка весьма разнопланова, интересна!.. Начинает нравится... :oops: :oops:
Чего-то я не понял... почему преордер?.. https://mosh-pitjustice.bandcamp.com/al ... eving-lies
Quote:
digital album releases October 31, 2016

04. In Dollar We Trust 04:12 - Хит!.. :true:
05. The Serpent 06:06 - жестоко-лупящий крупнокалиберный пулемёт!.. :lob:

_________________
THRASH 'EM ALL


Top
 Profile E-mail  
 
Display posts from previous:  Sort by  
Post new topic Reply to topic  [ 46 posts ]  Go to page 1, 2, 3  Next

All times are UTC + 3 hours


Who is online

Users browsing this forum: No registered users and 4 guests


You cannot post new topics in this forum
You cannot reply to topics in this forum
You cannot edit your posts in this forum
You cannot delete your posts in this forum
You cannot post attachments in this forum

Search for:
Яндекс.Метрика
Powered by phpBB © 2000, 2002, 2005, 2007 phpBB Group