\m/ 80's metal \m/

Информационно-аналитический форум "80 см пыли" (In Search We Trust) "У нас никто никуда не спешит"
Me For You - http://me-4u.com
It is currently 19 Dec 2018

All times are UTC + 3 hours

Spoiler
Chat - temporary registration for foreign users (please leave your application here)





Forum rules


Уважаемые пользователи ресурса, друзья, коллеги и гости нашего форума. Данный раздел конференции создан с целью рафинации, и посвящён такому стилевому направлению в музыке, как Thrash Metal во всех его проявлениях и ипостасях, а иногда и переходящему на пограничные стили Speed, Power, Groove, Crossover, MDM и т.п.
Главное правило здесь одно: Одна группа – одна тема! Всё остальное созвучно основным нормам поведения на конференции.
Шаблон оформления тем в этом подфоруме должен быть основан на данных сайта www.metal-archives.com и выглядеть следующим образом:

Группа (Страна) - Стилевые рамки - дискография
Slayer (USA) - Thrash Metal - дискография


В теме допустимо размещение всей информации касающейся данного коллектива: анонсы любых альбомов в любых форматах, запросы любых релизов коллектива (кроме релизов текущего и прошлого годов), обсуждения, обзоры, а в остальном всё как обычно. Уважаем друг друга, не грубим, соблюдаем нормы поведения на конференции, оформляем анонсы и запросы красиво и информативно, что бы модераторы не посчитали их троллингом, и не отправили куда положено, выписав Вам предупреждение или ещё что похуже… Прежде чем что-то запросить или запостить, пользуемся поиском! Пользуемся поиском! ПОЛЬЗУЕМСЯ ПОИСКОМ!!! Так слышно меня?.. :pardon:
Интересного, конструктивного и креативного общения! ;)



Post new topic Reply to topic  [ 15 posts ] 
Author Message
 
PostPosted: 15 Sep 2016 
Генеральный thrasher
User avatar
Joined: 03 Oct 2008
Posts: 3542
Lоcаtion: Ханты-Мансийский АО
Age: 43
Name: Сергей
Неплохая на мой взгляд греческая трэш-команда.Первый полнометражник...

Image

Year:2014
Style:Thrash Metal
Country:Greece
Archive:Flac+Cue+Log+Scans
Size:289Mb
Source:my CD
Label:Athens Thrash Attack

Tracklist:
01. Evoke the Pain 06:37
02. The Crusher 04:01
03. Damnation Enslaved 03:53
04. Senseless Reality 03:54
05. Tyranny (”Respect Your Life or Die”) 04:38
06. Savage Violence 03:23
07. Morbid Terror 04:03
08. Atonement 04:31
09. Under Snow and Blood 04:15

"Cue"
REM GENRE "Thrash Metal"
REM DATE 2014
REM DISCID 80092E09
REM COMMENT "ExactAudioCopy v1.1"
PERFORMER "Demon Prayers"
TITLE "Evoke The Pain"
FILE "Demon Prayers - Evoke The Pain.flac" WAVE
TRACK 01 AUDIO
TITLE "Evoke the Pain"
PERFORMER "Demon Prayers"
INDEX 01 00:00:00
TRACK 02 AUDIO
TITLE "The Crusher"
PERFORMER "Demon Prayers"
INDEX 01 06:36:45
TRACK 03 AUDIO
TITLE "Damnation Enslaved"
PERFORMER "Demon Prayers"
INDEX 01 10:36:66
TRACK 04 AUDIO
TITLE "Senseless Reality"
PERFORMER "Demon Prayers"
INDEX 01 14:29:01
TRACK 05 AUDIO
TITLE "Tyranny (”Respect Your Life or Die”)"
PERFORMER "Demon Prayers"
INDEX 01 18:22:03
TRACK 06 AUDIO
TITLE "Savage Violence"
PERFORMER "Demon Prayers"
INDEX 01 23:00:03
TRACK 07 AUDIO
TITLE "Morbid Terror"
PERFORMER "Demon Prayers"
INDEX 01 26:22:43
TRACK 08 AUDIO
TITLE "Atonement"
PERFORMER "Demon Prayers"
INDEX 01 30:24:69
TRACK 09 AUDIO
TITLE "Under Snow and Blood"
PERFORMER "Demon Prayers"
INDEX 01 34:55:61

"Log"
Exact Audio Copy V1.1 from 23. June 2015

Отчёт EAC об извлечении, выполненном 8. сентября 2016, 19:56

Demon Prayers / Evoke The Pain

Дисковод: HL-DT-STDVDRAM GTA0N Adapter: 1 ID: 0

Режим чтения : Достоверность
Использование точного потока : Да
Отключение кэша аудио : Да
Использование указателей C2 : Нет

Коррекция смещения при чтении : 102
Способность читать области Lead-in и Lead-out : Нет
Заполнение пропущенных сэмплов тишиной : Да
Удаление блоков с тишиной в начале и конце : Нет
При вычислениях CRC использовались нулевые сэмплы : Да
Интерфейс : Встроенный Win32-интерфейс для Win NT/2000

Выходной формат : Пользовательский кодировщик
Выбранный битрейт : 768 kBit/s
Качество : Высокий
Добавление ID3-тега : Нет
Утилита сжатия : C:\Program Files (x86)\Exact Audio Copy\FLAC\FLAC.EXE
Дополнительные параметры : -6 -V -T "ARTIST=%artist%" -T "TITLE=%title%" -T "ALBUM=%albumtitle%" -T "DATE=%year%" -T "TRACKNUMBER=%tracknr%" -T "GENRE=%genre%" -T "COMMENT=%comment%" -T "BAND=%albuminterpret%" -T "ALBUMARTIST=%albuminterpret%" -T "COMPOSER=%composer%" %haslyrics%--tag-from-file=LYRICS="%lyricsfile%"%haslyrics% -T "DISCNUMBER=%cdnumber%" -T "TOTALDISCS=%totalcds%" -T "TOTALTRACKS=%numtracks%" %hascover%--picture="%coverfile%"%hascover% %source% -o %dest%


TOC извлечённого CD

Трек | Старт | Длительность | Начальный сектор | Конечный сектор
---------------------------------------------------------------------
1 | 0:00.00 | 6:36.45 | 0 | 29744
2 | 6:36.45 | 4:00.21 | 29745 | 47765
3 | 10:36.66 | 3:52.10 | 47766 | 65175
4 | 14:29.01 | 3:53.02 | 65176 | 82652
5 | 18:22.03 | 4:38.00 | 82653 | 103502
6 | 23:00.03 | 3:22.40 | 103503 | 118692
7 | 26:22.43 | 4:02.26 | 118693 | 136868
8 | 30:24.69 | 4:30.67 | 136869 | 157185
9 | 34:55.61 | 4:14.22 | 157186 | 176257


Характеристики диапазона извлечения и сообщения об ошибках

Выбранный диапазон

Имя файла C:\Users\магазин\Music\Demon Prayers - Evoke The Pain.wav

Пиковый уровень 100.0 %
Скорость извлечения 3.8 X
Качество диапазона 100.0 %
CRC копии 12291FFB
Копирование... OK

Ошибок не произошло


AccurateRip: сводка

Трек 1 отсутствует в базе данных
Трек 2 отсутствует в базе данных
Трек 3 отсутствует в базе данных
Трек 4 отсутствует в базе данных
Трек 5 отсутствует в базе данных
Трек 6 отсутствует в базе данных
Трек 7 отсутствует в базе данных
Трек 8 отсутствует в базе данных
Трек 9 отсутствует в базе данных

Ни одного трека нет в базе AccurateRip

Конец отчёта

---- CUETools DB Plugin V2.1.6

[CTDB TOCID: lsq2MbGfCijCYKDXSiUK25hZcvo-] found
Submit result: lsq2MbGfCijCYKDXSiUK25hZcvo- has been confirmed
Track | CTDB Status
1 | (2/2) Accurately ripped
2 | (2/2) Accurately ripped
3 | (2/2) Accurately ripped
4 | (2/2) Accurately ripped
5 | (2/2) Accurately ripped
6 | (2/2) Accurately ripped
7 | (2/2) Accurately ripped
8 | (2/2) Accurately ripped
9 | (2/2) Accurately ripped


Evoke the Pain


Top
 Profile  
 
 
PostPosted: 15 Sep 2016 
консэрваторъ
Joined: 11 Aug 2007
Posts: 16341
Lоcаtion: Псков
Age: 44
Name: Сергей
Берём не глядя, как обычно... :thanx: :thanx:

_________________
THRASH 'EM ALL


Top
 Profile E-mail  
 
 
PostPosted: 15 Sep 2016 
Генеральный thrasher
User avatar
Joined: 03 Oct 2008
Posts: 3542
Lоcаtion: Ханты-Мансийский АО
Age: 43
Name: Сергей
Берём не глядя, как обычно


Думаю,что тебе понравится.


Top
 Profile  
 
 
PostPosted: 15 Sep 2016 
Хиппей (support team)
User avatar
Joined: 30 Jul 2007
Posts: 109025
Lоcаtion: Киев (Kyiv, UA)
Age: 45
Name: Andrey
:thanx:

mirror: iFolder l Narod l M-Cloud

_________________


Top
 Profile E-mail  
 
 
PostPosted: 15 Sep 2016 
Рарник и трушник
User avatar
Joined: 25 Dec 2009
Posts: 8488
Lоcаtion: Москва
Age: 53
Name: Виталий
Стена звука присутствует? :benya:
Спасибо, Сергей, тоже заценю. :lob:


Top
 Profile  
 
 
PostPosted: 15 Sep 2016 
Прокъмитолист
User avatar
Joined: 12 Aug 2007
Posts: 6515
Lоcаtion: Санктъ-Петербуркъ
Age: 51
Name: Олекъ
splatty wrote:
Берём не глядя, как обычно...

а то ж. спасибо, Серёг :thanx:

_________________
прокъметол - это музыко, от которово есть прок (ы)


Top
 Profile  
 
 
PostPosted: 18 Sep 2016 
Хиппей (support team)
User avatar
Joined: 30 Jul 2007
Posts: 109025
Lоcаtion: Киев (Kyiv, UA)
Age: 45
Name: Andrey
Vitaly65 wrote:
Стена звука присутствует? :benya:

Да. Причём неплохого качества.
Альбом хорош - скоростной, 39 минуты всего звучит (не успевает вынести весь моск и надоесть), радуют неимоверно частое использование бэк-вокала. Но... вот основной вокал меня немного, скажет так, не доудовлетворил.
Нет в этом голосе чего-то особенного, твоего.
Да, прекрасно понимаю, что это обычный почти дуболомный, хоть и довольно техничный трэшак скоростной, но в таком деле чуть бы пооригинальнее вокал (ну хоть бы где повизжал или проречитативил, а?) и альбом вышел бы вообще замечательным.
А так, чуть выше среднего.

6+/10

Но, надеюсь на удачное продолжение проекта :kro:

_________________


Top
 Profile E-mail  
 
 
PostPosted: 18 Sep 2016 
Я набрал 1000 сообщений!
Joined: 09 Jul 2008
Posts: 2493
Age: 45
Name: Сергей
хороший альбом и, по идее, многообещающая группа


Top
 Profile  
 
 
PostPosted: 18 Sep 2016 
консэрваторъ
Joined: 11 Aug 2007
Posts: 16341
Lоcаtion: Псков
Age: 44
Name: Сергей
Хороша группа!.. Серёг, а ипиха у тебя есть ихняя?.. :arrov: http://www.metal-archives.com/albums/De ... ror/368609 а то чего-то только в 128 понавылаживан... а там басян зубодробительный!..
Демка искабельна в 192 если что...

_________________
THRASH 'EM ALL


Top
 Profile E-mail  
 
 
PostPosted: 18 Sep 2016 
Доктор энтомологии
User avatar
Joined: 22 Jan 2009
Posts: 9500
Lоcаtion: Даугавпилс
Age: 43
Name: Алексей
Клевая группа :thanx:
Из новенького от греков понравились еще Riffobia
| +
http://riffobia1.bandcamp.com/album/death-from-above


Top
 Profile  
 
 
PostPosted: 18 Sep 2016 
консэрваторъ
Joined: 11 Aug 2007
Posts: 16341
Lоcаtion: Псков
Age: 44
Name: Сергей
Гитара конечно у ребят просто перепиливает кости по сухому!.. Замечательная пилорамная примочка!..
Лёш, ты тоже в стиле Серёги (боджума) стал напощать?.. Почему не в слушать подано видео тырчешь не тематического ансамбля, или в обоз?..

_________________
THRASH 'EM ALL


Top
 Profile E-mail  
 
 
PostPosted: 18 Sep 2016 
Доктор энтомологии
User avatar
Joined: 22 Jan 2009
Posts: 9500
Lоcаtion: Даугавпилс
Age: 43
Name: Алексей
В обоз не хочу. Один фиг трэш, греки, близнецы-братья и т.п., все перетекает друг в дружку. Больше не буду сорить :fingal:


Top
 Profile  
 
 
PostPosted: 18 Sep 2016 
Генеральный thrasher
User avatar
Joined: 03 Oct 2008
Posts: 3542
Lоcаtion: Ханты-Мансийский АО
Age: 43
Name: Сергей
Cерёг, а ипиха у тебя есть ихняя?


Нет ипихи.Сорри!


Top
 Profile  
 
 
PostPosted: 18 Sep 2016 
консэрваторъ
Joined: 11 Aug 2007
Posts: 16341
Lоcаtion: Псков
Age: 44
Name: Сергей
Ладно, выдрал её с туба из мп4 в 192, пойдёт для ознакомления пока...

_________________
THRASH 'EM ALL


Top
 Profile E-mail  
 
 
PostPosted: 22 Sep 2016 
Alive Again
User avatar
Joined: 17 Dec 2008
Posts: 4744
Lоcаtion: Курск Воронеж Оскол
Age: 44
Name: Дмитрий
:thanx:


Top
 Profile E-mail  
 
Display posts from previous:  Sort by  
Post new topic Reply to topic  [ 15 posts ] 

All times are UTC + 3 hours


Who is online

Users browsing this forum: No registered users and 4 guests


You cannot post new topics in this forum
You cannot reply to topics in this forum
You cannot edit your posts in this forum
You cannot delete your posts in this forum
You cannot post attachments in this forum

Search for:
Яндекс.Метрика
Powered by phpBB © 2000, 2002, 2005, 2007 phpBB Group