\m/ 80's metal \m/

Информационно-аналитический форум "80 см пыли" (In Search We Trust) "У нас никто никуда не спешит"
Me For You - http://me-4u.com
It is currently 19 Dec 2018

All times are UTC + 3 hours

Spoiler
Chat - temporary registration for foreign users (please leave your application here)





Forum rules


Уважаемые пользователи ресурса, друзья, коллеги и гости нашего форума. Данный раздел конференции создан с целью рафинации, и посвящён такому стилевому направлению в музыке, как Thrash Metal во всех его проявлениях и ипостасях, а иногда и переходящему на пограничные стили Speed, Power, Groove, Crossover, MDM и т.п.
Главное правило здесь одно: Одна группа – одна тема! Всё остальное созвучно основным нормам поведения на конференции.
Шаблон оформления тем в этом подфоруме должен быть основан на данных сайта www.metal-archives.com и выглядеть следующим образом:

Группа (Страна) - Стилевые рамки - дискография
Slayer (USA) - Thrash Metal - дискография


В теме допустимо размещение всей информации касающейся данного коллектива: анонсы любых альбомов в любых форматах, запросы любых релизов коллектива (кроме релизов текущего и прошлого годов), обсуждения, обзоры, а в остальном всё как обычно. Уважаем друг друга, не грубим, соблюдаем нормы поведения на конференции, оформляем анонсы и запросы красиво и информативно, что бы модераторы не посчитали их троллингом, и не отправили куда положено, выписав Вам предупреждение или ещё что похуже… Прежде чем что-то запросить или запостить, пользуемся поиском! Пользуемся поиском! ПОЛЬЗУЕМСЯ ПОИСКОМ!!! Так слышно меня?.. :pardon:
Интересного, конструктивного и креативного общения! ;)



Post new topic Reply to topic  [ 54 posts ]  Go to page 1, 2, 3  Next
Author Message
 
PostPosted: 11 Sep 2016 
Генеральный thrasher
User avatar
Joined: 03 Oct 2008
Posts: 3539
Lоcаtion: Ханты-Мансийский АО
Age: 43
Name: Сергей
Британские трэшеры,имеющие в активе два полнометражника.

Image

Year:2012 (2013 Re-Issue)
Style:Thrash Metal
Country:U.K.
Archive:Flac+Cue+Log+Scans
Size:399Mb
Source:my CD
Label:Divebomb Records

Tracklist:
01. Dystopia 01:0
02. Skeletal Steel 03:41
03. Hell's Sentinels 05:38
04. Dark Legions 05:46
05. Across the Sea of Black 03:51
06. Overthrow 05:10
07. The Compound 04:52
08. World of Compulsion 04:04
09. Judgement Before the Throne 08:20
10. Odysseus 05:50
11. Utopia 01:13
12. Cold Sweat (Thin Lizzy cover) 03:10

"Cue"
REM GENRE "Thrash Metal"
REM DATE 2013
REM DISCID B20C4C0C
REM COMMENT "ExactAudioCopy v1.1"
PERFORMER "Eradikator"
TITLE "Dystopia"
FILE "Eradikator - Dystopia.flac" WAVE
TRACK 01 AUDIO
TITLE "Dystopia"
PERFORMER "Eradikator"
INDEX 01 00:00:00
TRACK 02 AUDIO
TITLE "Skeletal Steel"
PERFORMER "Eradikator"
INDEX 01 00:59:43
TRACK 03 AUDIO
TITLE "Hell's Sentinels"
PERFORMER "Eradikator"
INDEX 01 04:40:00
TRACK 04 AUDIO
TITLE "Dark Legions"
PERFORMER "Eradikator"
INDEX 01 10:17:63
TRACK 05 AUDIO
TITLE "Across the Sea of Black"
PERFORMER "Eradikator"
INDEX 01 16:03:07
TRACK 06 AUDIO
TITLE "Overthrow"
PERFORMER "Eradikator"
INDEX 01 19:54:05
TRACK 07 AUDIO
TITLE "The Compound"
PERFORMER "Eradikator"
INDEX 01 25:03:39
TRACK 08 AUDIO
TITLE "World of Compulsion"
PERFORMER "Eradikator"
INDEX 01 29:55:00
TRACK 09 AUDIO
TITLE "Judgement Before the Throne"
PERFORMER "Eradikator"
INDEX 01 33:58:25
TRACK 10 AUDIO
TITLE "Odysseus"
PERFORMER "Eradikator"
INDEX 01 42:17:32
TRACK 11 AUDIO
TITLE "Utopia"
PERFORMER "Eradikator"
INDEX 01 48:06:63
TRACK 12 AUDIO
TITLE "Cold Sweat (Thin Lizzy cover)"
PERFORMER "Eradikator"
INDEX 01 49:19:32

"Log"
Exact Audio Copy V1.1 from 23. June 2015

Отчёт EAC об извлечении, выполненном 8. сентября 2016, 11:08

Eradikator / Dystopia

Дисковод: HL-DT-STDVDRAM GTA0N Adapter: 1 ID: 0

Режим чтения : Достоверность
Использование точного потока : Да
Отключение кэша аудио : Да
Использование указателей C2 : Нет

Коррекция смещения при чтении : 102
Способность читать области Lead-in и Lead-out : Нет
Заполнение пропущенных сэмплов тишиной : Да
Удаление блоков с тишиной в начале и конце : Нет
При вычислениях CRC использовались нулевые сэмплы : Да
Интерфейс : Встроенный Win32-интерфейс для Win NT/2000

Выходной формат : Пользовательский кодировщик
Выбранный битрейт : 768 kBit/s
Качество : Высокий
Добавление ID3-тега : Нет
Утилита сжатия : C:\Program Files (x86)\Exact Audio Copy\FLAC\FLAC.EXE
Дополнительные параметры : -6 -V -T "ARTIST=%artist%" -T "TITLE=%title%" -T "ALBUM=%albumtitle%" -T "DATE=%year%" -T "TRACKNUMBER=%tracknr%" -T "GENRE=%genre%" -T "COMMENT=%comment%" -T "BAND=%albuminterpret%" -T "ALBUMARTIST=%albuminterpret%" -T "COMPOSER=%composer%" %haslyrics%--tag-from-file=LYRICS="%lyricsfile%"%haslyrics% -T "DISCNUMBER=%cdnumber%" -T "TOTALDISCS=%totalcds%" -T "TOTALTRACKS=%numtracks%" %hascover%--picture="%coverfile%"%hascover% %source% -o %dest%


TOC извлечённого CD

Трек | Старт | Длительность | Начальный сектор | Конечный сектор
---------------------------------------------------------------------
1 | 0:00.00 | 0:59.43 | 0 | 4467
2 | 0:59.43 | 3:40.32 | 4468 | 20999
3 | 4:40.00 | 5:37.63 | 21000 | 46337
4 | 10:17.63 | 5:45.19 | 46338 | 72231
5 | 16:03.07 | 3:50.73 | 72232 | 89554
6 | 19:54.05 | 5:09.34 | 89555 | 112763
7 | 25:03.39 | 4:51.36 | 112764 | 134624
8 | 29:55.00 | 4:03.25 | 134625 | 152874
9 | 33:58.25 | 8:19.07 | 152875 | 190306
10 | 42:17.32 | 5:49.31 | 190307 | 216512
11 | 48:06.63 | 1:12.44 | 216513 | 221956
12 | 49:19.32 | 3:09.15 | 221957 | 236146


Характеристики диапазона извлечения и сообщения об ошибках

Выбранный диапазон

Имя файла C:\Users\магазин\Music\Eradikator - Dystopia.wav

Пиковый уровень 98.8 %
Скорость извлечения 4.0 X
Качество диапазона 100.0 %
CRC копии 2A2EF25A
Копирование... OK

Ошибок не произошло


AccurateRip: сводка

Трек 1 : извлечено точно (доверие 2) [6C342728] (AR v2)
Трек 2 : извлечено точно (доверие 2) [228C238C] (AR v2)
Трек 3 : извлечено точно (доверие 2) [CC3ABDD5] (AR v2)
Трек 4 : извлечено точно (доверие 2) [13FA2D8E] (AR v2)
Трек 5 : извлечено точно (доверие 2) [98C04E1F] (AR v2)
Трек 6 : извлечено точно (доверие 2) [C9A23063] (AR v2)
Трек 7 : извлечено точно (доверие 2) [E7788ABD] (AR v2)
Трек 8 : извлечено точно (доверие 2) [20BAD798] (AR v2)
Трек 9 : извлечено точно (доверие 2) [C12E6A14] (AR v2)
Трек 10 : извлечено точно (доверие 2) [7CB6BFDF] (AR v2)
Трек 11 : извлечено точно (доверие 2) [0621FDCD] (AR v2)
Трек 12 : извлечено точно (доверие 2) [4988F5E6] (AR v2)

Все треки извлечены точно

Конец отчёта

---- CUETools DB Plugin V2.1.6

[CTDB TOCID: iakEX1bZm0MFo0P0sk7sf8acfbE-] found
Submit result: iakEX1bZm0MFo0P0sk7sf8acfbE- has been confirmed
Track | CTDB Status
1 | (4/4) Accurately ripped
2 | (4/4) Accurately ripped
3 | (4/4) Accurately ripped
4 | (4/4) Accurately ripped
5 | (4/4) Accurately ripped
6 | (4/4) Accurately ripped
7 | (4/4) Accurately ripped
8 | (4/4) Accurately ripped
9 | (4/4) Accurately ripped
10 | (4/4) Accurately ripped
11 | (4/4) Accurately ripped
12 | (4/4) Accurately ripped


Dystopia


Top
 Profile  
 
 
PostPosted: 11 Sep 2016 
Хиппей (support team)
User avatar
Joined: 30 Jul 2007
Posts: 109005
Lоcаtion: Киев (Kyiv, UA)
Age: 45
Name: Andrey
:thanx:

mirror: iFolder l Narod l M-Cloud

_________________


Top
 Profile E-mail  
 
 
PostPosted: 11 Sep 2016 
Рарник и трушник
User avatar
Joined: 25 Dec 2009
Posts: 8488
Lоcаtion: Москва
Age: 53
Name: Виталий
Спасибо, Сергей! :thanx:
Британцы, это должно быть интересно. :pardon:


Top
 Profile  
 
 
PostPosted: 11 Sep 2016 
Прокъмитолист
User avatar
Joined: 12 Aug 2007
Posts: 6515
Lоcаtion: Санктъ-Петербуркъ
Age: 51
Name: Олекъ
:thanx:

_________________
прокъметол - это музыко, от которово есть прок (ы)


Top
 Profile  
 
 
PostPosted: 11 Sep 2016 
Alive Again
User avatar
Joined: 17 Dec 2008
Posts: 4744
Lоcаtion: Курск Воронеж Оскол
Age: 44
Name: Дмитрий
:thanx:


Top
 Profile E-mail  
 
 
PostPosted: 12 Sep 2016 
Metal Collector
User avatar
Joined: 16 Nov 2008
Posts: 1230
Lоcаtion: Химки
Age: 35
Name: Андрей
Скажу и тут спасибо! Послушал вчера - не так интересен, как второй альбом, но тоже хороший трешак, заберу в коллекцию.


Top
 Profile E-mail  
 
 
PostPosted: 12 Sep 2016 
консэрваторъ
Joined: 11 Aug 2007
Posts: 16336
Lоcаtion: Псков
Age: 44
Name: Сергей
Это там где клон Хэтфилда на вокале?.. Не забыть скачать после отпуска... Спасибо...

_________________
THRASH 'EM ALL


Top
 Profile E-mail  
 
 
PostPosted: 12 Sep 2016 
Я набрал 1000 сообщений!
Joined: 09 Jul 2008
Posts: 2492
Age: 45
Name: Сергей
вначале Eradikator перепутал с Eradicator
порадовался за выбор
слегка смутило
Vitaly65 wrote:
Британцы, это должно быть интересно. :pardon:

проверил - действительно британцы, а я лох
проблема в том, что британский трэш обычно не как правило, а вопреки... а это ни разу не тот случай


Top
 Profile  
 
 
PostPosted: 12 Sep 2016 
консэрваторъ
Joined: 11 Aug 2007
Posts: 16336
Lоcаtion: Псков
Age: 44
Name: Сергей
Тот эратический дикатор с "Ц", тоже грят хорош до нельзя?.. :arrov: viewtopic.php?f=136&t=5008

_________________
THRASH 'EM ALL


Top
 Profile E-mail  
 
 
PostPosted: 12 Sep 2016 
Я набрал 1000 сообщений!
Joined: 09 Jul 2008
Posts: 2492
Age: 45
Name: Сергей
не звезды с небес, но лучше сабжа
"эратический" оставляю на твоей совести :benya:


Top
 Profile  
 
 
PostPosted: 13 Sep 2016 
Хиппей (support team)
User avatar
Joined: 30 Jul 2007
Posts: 109005
Lоcаtion: Киев (Kyiv, UA)
Age: 45
Name: Andrey
thorbeorn wrote:
Eradikator - Dystopia 2012 (2013 Re-Issue)

Слишком правильный и шаблонный трэш.
10 стандартных композиций, плюс стандартный кавер и стандартная инструменталка.
Британцы так не играю трэш.
Это неправильные англичане :nea: Добавьте впереди букву H.

5/10

За старание. И всё. Всё. Старательно сыграть без капли своего - это не есть творчество :vic:

_________________


Top
 Profile E-mail  
 
 
PostPosted: 13 Sep 2016 
Хиппей (support team)
User avatar
Joined: 30 Jul 2007
Posts: 109005
Lоcаtion: Киев (Kyiv, UA)
Age: 45
Name: Andrey
boojum wrote:
проблема в том, что британский трэш обычно не как правило, а вопреки... а это ни разу не тот случай

Вот-вот :fri:

_________________


Top
 Profile E-mail  
 
 
PostPosted: 13 Sep 2016 
Хиппей (support team)
User avatar
Joined: 30 Jul 2007
Posts: 109005
Lоcаtion: Киев (Kyiv, UA)
Age: 45
Name: Andrey
Дошло, как назвать этот альбом. Чтоб было понятно и не так обидно музыкантам.


- Пока Карабасу расчёсывали бороду, папа Карло выстругал ещё одного Буратину :slo:

_________________


Top
 Profile E-mail  
 
 
PostPosted: 19 Sep 2016 
Генеральный thrasher
User avatar
Joined: 03 Oct 2008
Posts: 3539
Lоcаtion: Ханты-Мансийский АО
Age: 43
Name: Сергей
Ладно!Вашу точку зрения я понял.То есть следующий альбом не нужен?


Top
 Profile  
 
 
PostPosted: 20 Sep 2016 
консэрваторъ
Joined: 11 Aug 2007
Posts: 16336
Lоcаtion: Псков
Age: 44
Name: Сергей
Нужен конечно!..

_________________
THRASH 'EM ALL


Top
 Profile E-mail  
 
 
PostPosted: 20 Sep 2016 
Генеральный thrasher
User avatar
Joined: 03 Oct 2008
Posts: 3539
Lоcаtion: Ханты-Мансийский АО
Age: 43
Name: Сергей
Второй альбом британцев мне очень нравится.Для Серёги splatty,если никому больше не нужен...

Image

Year:2015
Style:Thrash Metal
Country:U.K.
Archive:Flac+Cue+Log+Scans
Size:342Mb
Source:my CD
Label:Divebomb Records

Tracklist:
01. Mesmerised 04:50
02. Man Behind The Mask 04:38
03. Edge Of Humanity 04:59
04. Astral Body 04:34
05. Seasons Of Rage 05:19
06. Fortress Unknown 06:21
07. The Great Deception 04:33
08. Dead Hands Of The Past 03:53
09. Kairos Passing 06:17

"Cue"
REM GENRE "Thrash Metal"
REM DATE 2015
REM DISCID 770AA009
REM COMMENT "ExactAudioCopy v1.1"
PERFORMER "Eradikator"
TITLE "Edge Of Humanity"
FILE "Eradikator - Edge Of Humanity.flac" WAVE
TRACK 01 AUDIO
TITLE "Mesmerised"
PERFORMER "Eradikator"
FLAGS DCP
INDEX 01 00:00:00
TRACK 02 AUDIO
TITLE "Man Behind the Mask"
PERFORMER "Eradikator"
FLAGS DCP
INDEX 00 04:47:09
INDEX 01 04:49:09
TRACK 03 AUDIO
TITLE "Edge of Humanity"
PERFORMER "Eradikator"
FLAGS DCP
INDEX 00 09:24:23
INDEX 01 09:26:23
TRACK 04 AUDIO
TITLE "Astral Body"
PERFORMER "Eradikator"
FLAGS DCP
INDEX 01 14:24:52
TRACK 05 AUDIO
TITLE "Seasons of Rage"
PERFORMER "Eradikator"
FLAGS DCP
INDEX 01 18:58:23
TRACK 06 AUDIO
TITLE "Fortress Unknown"
PERFORMER "Eradikator"
FLAGS DCP
INDEX 01 24:17:08
TRACK 07 AUDIO
TITLE "The Great Deception"
PERFORMER "Eradikator"
FLAGS DCP
INDEX 01 30:37:42
TRACK 08 AUDIO
TITLE "Dead Hands of the Past"
PERFORMER "Eradikator"
FLAGS DCP
INDEX 01 35:10:25
TRACK 09 AUDIO
TITLE "Kairos Passing"
PERFORMER "Eradikator"
FLAGS DCP
INDEX 01 39:03:20

"Log"
Exact Audio Copy V1.1 from 23. June 2015

Отчёт EAC об извлечении, выполненном 7. сентября 2016, 13:10

Eradikator / Edge Of Humanity

Дисковод: HL-DT-STDVDRAM GTA0N Adapter: 1 ID: 0

Режим чтения : Достоверность
Использование точного потока : Да
Отключение кэша аудио : Да
Использование указателей C2 : Нет

Коррекция смещения при чтении : 102
Способность читать области Lead-in и Lead-out : Нет
Заполнение пропущенных сэмплов тишиной : Да
Удаление блоков с тишиной в начале и конце : Нет
При вычислениях CRC использовались нулевые сэмплы : Да
Интерфейс : Встроенный Win32-интерфейс для Win NT/2000

Выходной формат : Пользовательский кодировщик
Выбранный битрейт : 768 kBit/s
Качество : Высокий
Добавление ID3-тега : Нет
Утилита сжатия : C:\Program Files (x86)\Exact Audio Copy\FLAC\FLAC.EXE
Дополнительные параметры : -6 -V -T "ARTIST=%artist%" -T "TITLE=%title%" -T "ALBUM=%albumtitle%" -T "DATE=%year%" -T "TRACKNUMBER=%tracknr%" -T "GENRE=%genre%" -T "COMMENT=%comment%" -T "BAND=%albuminterpret%" -T "ALBUMARTIST=%albuminterpret%" -T "COMPOSER=%composer%" %haslyrics%--tag-from-file=LYRICS="%lyricsfile%"%haslyrics% -T "DISCNUMBER=%cdnumber%" -T "TOTALDISCS=%totalcds%" -T "TOTALTRACKS=%numtracks%" %hascover%--picture="%coverfile%"%hascover% %source% -o %dest%


TOC извлечённого CD

Трек | Старт | Длительность | Начальный сектор | Конечный сектор
---------------------------------------------------------------------
1 | 0:00.00 | 4:49.09 | 0 | 21683
2 | 4:49.09 | 4:37.14 | 21684 | 42472
3 | 9:26.23 | 4:58.29 | 42473 | 64851
4 | 14:24.52 | 4:33.46 | 64852 | 85372
5 | 18:58.23 | 5:18.60 | 85373 | 109282
6 | 24:17.08 | 6:20.34 | 109283 | 137816
7 | 30:37.42 | 4:32.58 | 137817 | 158274
8 | 35:10.25 | 3:52.70 | 158275 | 175744
9 | 39:03.20 | 6:17.00 | 175745 | 204019


Характеристики диапазона извлечения и сообщения об ошибках

Выбранный диапазон

Имя файла C:\Users\магазин\Music\Eradikator - Edge Of Humanity.wav

Пиковый уровень 99.1 %
Скорость извлечения 3.9 X
Качество диапазона 100.0 %
CRC копии D00D230C
Копирование... OK

Ошибок не произошло


AccurateRip: сводка

Трек 1 : извлечено точно (доверие 1) [70E6C7E6] (AR v2)
Трек 2 : извлечено точно (доверие 1) [DB5933EA] (AR v2)
Трек 3 : извлечено точно (доверие 1) [829E1E83] (AR v2)
Трек 4 : извлечено точно (доверие 1) [66DDB987] (AR v2)
Трек 5 : извлечено точно (доверие 1) [FA5828F1] (AR v2)
Трек 6 : извлечено точно (доверие 1) [D83B1FEA] (AR v2)
Трек 7 : извлечено точно (доверие 1) [5997A8E0] (AR v2)
Трек 8 : извлечено точно (доверие 1) [15F5A894] (AR v2)
Трек 9 : извлечено точно (доверие 1) [70113F9D] (AR v2)

Все треки извлечены точно

Конец отчёта

---- CUETools DB Plugin V2.1.6

[CTDB TOCID: SolF6zr7KNbZJROM0T_mV79r_Vc-] found
Submit result: SolF6zr7KNbZJROM0T_mV79r_Vc- has been confirmed
Track | CTDB Status
1 | (3/3) Accurately ripped
2 | (3/3) Accurately ripped
3 | (3/3) Accurately ripped
4 | (3/3) Accurately ripped
5 | (3/3) Accurately ripped
6 | (3/3) Accurately ripped
7 | (3/3) Accurately ripped
8 | (3/3) Accurately ripped
9 | (3/3) Accurately ripped


Edge Of Humanity


Top
 Profile  
 
 
PostPosted: 20 Sep 2016 
Metal Collector
User avatar
Joined: 16 Nov 2008
Posts: 1230
Lоcаtion: Химки
Age: 35
Name: Андрей
Превосходный альбом. Спасибо за лося!


Top
 Profile E-mail  
 
 
PostPosted: 20 Sep 2016 
Рарник и трушник
User avatar
Joined: 25 Dec 2009
Posts: 8488
Lоcаtion: Москва
Age: 53
Name: Виталий
Спасибо, Сергей! :thanx: Я качкану обязательно. А то всё Серёге и Серёге, я ж тожаж хаачу ж. :benya:


Top
 Profile  
 
 
PostPosted: 20 Sep 2016 
Генеральный thrasher
User avatar
Joined: 03 Oct 2008
Posts: 3539
Lоcаtion: Ханты-Мансийский АО
Age: 43
Name: Сергей
Виталий,просто я так понимаю,что трэш не совсем твой профиль... :benya: А так приятного прослушивания!


Top
 Profile  
 
 
PostPosted: 20 Sep 2016 
Рарник и трушник
User avatar
Joined: 25 Dec 2009
Posts: 8488
Lоcаtion: Москва
Age: 53
Name: Виталий
thorbeorn wrote:
Виталий,просто я так понимаю,что трэш не совсем твой профиль...

Ну в общем-то да, но вить в 80-х вся классика треша мимо меня не проходила, так что ещё что-то осталось.
Да и стену звука никто не отменял, иногда очень хочется такого, типа: "...Боже, храни, в нас, нашу злость..." :lob: :thanx:


Top
 Profile  
 
Display posts from previous:  Sort by  
Post new topic Reply to topic  [ 54 posts ]  Go to page 1, 2, 3  Next

All times are UTC + 3 hours


Who is online

Users browsing this forum: No registered users and 2 guests


You cannot post new topics in this forum
You cannot reply to topics in this forum
You cannot edit your posts in this forum
You cannot delete your posts in this forum
You cannot post attachments in this forum

Search for:
Яндекс.Метрика
Powered by phpBB © 2000, 2002, 2005, 2007 phpBB Group