\m/ 80's metal \m/

Информационно-аналитический форум "80 см пыли" (In Search We Trust) "У нас никто никуда не спешит"
Me For You - http://me-4u.com
It is currently 13 Dec 2018

All times are UTC + 3 hours

Spoiler
Chat - temporary registration for foreign users (please leave your application here)





Forum rules


Уважаемые пользователи ресурса, друзья, коллеги и гости нашего форума. Данный раздел конференции создан с целью рафинации, и посвящён такому стилевому направлению в музыке, как Thrash Metal во всех его проявлениях и ипостасях, а иногда и переходящему на пограничные стили Speed, Power, Groove, Crossover, MDM и т.п.
Главное правило здесь одно: Одна группа – одна тема! Всё остальное созвучно основным нормам поведения на конференции.
Шаблон оформления тем в этом подфоруме должен быть основан на данных сайта www.metal-archives.com и выглядеть следующим образом:

Группа (Страна) - Стилевые рамки - дискография
Slayer (USA) - Thrash Metal - дискография


В теме допустимо размещение всей информации касающейся данного коллектива: анонсы любых альбомов в любых форматах, запросы любых релизов коллектива (кроме релизов текущего и прошлого годов), обсуждения, обзоры, а в остальном всё как обычно. Уважаем друг друга, не грубим, соблюдаем нормы поведения на конференции, оформляем анонсы и запросы красиво и информативно, что бы модераторы не посчитали их троллингом, и не отправили куда положено, выписав Вам предупреждение или ещё что похуже… Прежде чем что-то запросить или запостить, пользуемся поиском! Пользуемся поиском! ПОЛЬЗУЕМСЯ ПОИСКОМ!!! Так слышно меня?.. :pardon:
Интересного, конструктивного и креативного общения! ;)



Post new topic Reply to topic  [ 53 posts ]  Go to page 1, 2, 3  Next
Author Message
 
PostPosted: 21 Aug 2016 
Генеральный thrasher
User avatar
Joined: 03 Oct 2008
Posts: 3535
Lоcаtion: Ханты-Мансийский АО
Age: 43
Name: Сергей
Image

Year:2015
Style:Thrash Metal/Crossover
Country:Poland
Archive:Flac+Cue+Log+Scans
Size:239Mb
Source:my CD
Label:Defense Records

Tracklist:
01. Machete Justice 03:02
02. Crocodile 01:37
03. Give Me Back My Money 03:15
04. Nocturnal Emission 01:53
05. Terror Thrash Killing Machine 02:17
06. Human Wreckage 01:48
07. Favourite Sport: Mosh 02:49
08. Italian Stallion 02:32
09. Back to the ‘80s 03:38
10. Evil Monk 03:46
11. Welcome to the Bangbus 04:35

'Cue"
REM GENRE "Thrash Metal/Crossover"
REM DATE 2015
REM DISCID 80074B0B
REM COMMENT "ExactAudioCopy v1.1"
PERFORMER "Terrordome "
TITLE "Machete Justice"
FILE "Terrordome - Machete Justice.flac" WAVE
TRACK 01 AUDIO
TITLE "Machete Justice"
PERFORMER "Terrordome "
FLAGS DCP
INDEX 01 00:00:00
TRACK 02 AUDIO
TITLE "Crocodile"
PERFORMER "Terrordome "
FLAGS DCP
INDEX 01 03:01:51
TRACK 03 AUDIO
TITLE "Give Me Back My Money"
PERFORMER "Terrordome "
FLAGS DCP
INDEX 01 04:38:35
TRACK 04 AUDIO
TITLE "Nocturnal Emission"
PERFORMER "Terrordome "
FLAGS DCP
INDEX 01 07:53:31
TRACK 05 AUDIO
TITLE "Terror Thrash Killing Machine"
PERFORMER "Terrordome "
FLAGS DCP
INDEX 01 09:45:72
TRACK 06 AUDIO
TITLE "Human Wreckage"
PERFORMER "Terrordome "
FLAGS DCP
INDEX 01 12:02:70
TRACK 07 AUDIO
TITLE "Favourite Sport: Mosh"
PERFORMER "Terrordome "
FLAGS DCP
INDEX 01 13:50:43
TRACK 08 AUDIO
TITLE "Italian Stallion"
PERFORMER "Terrordome "
FLAGS DCP
INDEX 01 16:39:26
TRACK 09 AUDIO
TITLE "Back to the ‘80s"
PERFORMER "Terrordome "
FLAGS DCP
INDEX 01 19:10:42
TRACK 10 AUDIO
TITLE "Evil Monk"
PERFORMER "Terrordome "
FLAGS DCP
INDEX 01 22:48:25
TRACK 11 AUDIO
TITLE "Welcome to the Bangbus"
PERFORMER "Terrordome "
FLAGS DCP
INDEX 01 26:33:56

"Log"
Exact Audio Copy V1.1 from 23. June 2015

Отчёт EAC об извлечении, выполненном 1. июля 2016, 9:11

Terrordome / Machete Justice

Дисковод: HL-DT-STDVDRAM GTA0N Adapter: 1 ID: 0

Режим чтения : Достоверность
Использование точного потока : Да
Отключение кэша аудио : Да
Использование указателей C2 : Нет

Коррекция смещения при чтении : 102
Способность читать области Lead-in и Lead-out : Нет
Заполнение пропущенных сэмплов тишиной : Да
Удаление блоков с тишиной в начале и конце : Нет
При вычислениях CRC использовались нулевые сэмплы : Да
Интерфейс : Встроенный Win32-интерфейс для Win NT/2000

Выходной формат : Пользовательский кодировщик
Выбранный битрейт : 768 kBit/s
Качество : Высокий
Добавление ID3-тега : Нет
Утилита сжатия : C:\Program Files (x86)\Exact Audio Copy\FLAC\FLAC.EXE
Дополнительные параметры : -6 -V -T "ARTIST=%artist%" -T "TITLE=%title%" -T "ALBUM=%albumtitle%" -T "DATE=%year%" -T "TRACKNUMBER=%tracknr%" -T "GENRE=%genre%" -T "COMMENT=%comment%" -T "BAND=%albuminterpret%" -T "ALBUMARTIST=%albuminterpret%" -T "COMPOSER=%composer%" %haslyrics%--tag-from-file=LYRICS="%lyricsfile%"%haslyrics% -T "DISCNUMBER=%cdnumber%" -T "TOTALDISCS=%totalcds%" -T "TOTALTRACKS=%numtracks%" %hascover%--picture="%coverfile%"%hascover% %source% -o %dest%


TOC извлечённого CD

Трек | Старт | Длительность | Начальный сектор | Конечный сектор
---------------------------------------------------------------------
1 | 0:00.00 | 3:01.51 | 0 | 13625
2 | 3:01.51 | 1:36.59 | 13626 | 20884
3 | 4:38.35 | 3:14.71 | 20885 | 35505
4 | 7:53.31 | 1:52.41 | 35506 | 43946
5 | 9:45.72 | 2:16.73 | 43947 | 54219
6 | 12:02.70 | 1:47.48 | 54220 | 62292
7 | 13:50.43 | 2:48.58 | 62293 | 74950
8 | 16:39.26 | 2:31.16 | 74951 | 86291
9 | 19:10.42 | 3:37.58 | 86292 | 102624
10 | 22:48.25 | 3:45.31 | 102625 | 119530
11 | 26:33.56 | 4:34.05 | 119531 | 140085


Характеристики диапазона извлечения и сообщения об ошибках

Выбранный диапазон

Имя файла C:\Users\магазин\Music\Terrordome - Machete Justice.wav

Пиковый уровень 99.9 %
Скорость извлечения 3.5 X
Качество диапазона 99.9 %
CRC копии 6A8165D3
Копирование... OK

Ошибок не произошло


AccurateRip: сводка

Трек 1 отсутствует в базе данных
Трек 2 отсутствует в базе данных
Трек 3 отсутствует в базе данных
Трек 4 отсутствует в базе данных
Трек 5 отсутствует в базе данных
Трек 6 отсутствует в базе данных
Трек 7 отсутствует в базе данных
Трек 8 отсутствует в базе данных
Трек 9 отсутствует в базе данных
Трек 10 отсутствует в базе данных
Трек 11 отсутствует в базе данных

Ни одного трека нет в базе AccurateRip

Конец отчёта

---- CUETools DB Plugin V2.1.6

[CTDB TOCID: V._Stlvn7OLTd8DOzZfP._dA0LQ-] found
Submit result: V._Stlvn7OLTd8DOzZfP._dA0LQ- has been confirmed
Track | CTDB Status
1 | (2/2) Accurately ripped
2 | (2/2) Accurately ripped
3 | (2/2) Accurately ripped
4 | (2/2) Accurately ripped
5 | (2/2) Accurately ripped
6 | (2/2) Accurately ripped
7 | (2/2) Accurately ripped
8 | (2/2) Accurately ripped
9 | (2/2) Accurately ripped
10 | (2/2) Accurately ripped
11 | (2/2) Accurately ripped


Machete Justice


Last edited by thorbeorn on 06 Mar 2017, edited 1 time in total.

Top
 Profile  
 
 
PostPosted: 21 Aug 2016 
Хиппей (support team)
User avatar
Joined: 30 Jul 2007
Posts: 108891
Lоcаtion: Киев (Kyiv, UA)
Age: 45
Name: Andrey
:thanx:

mirror: Depos l Narod l M-Cloud

_________________


Top
 Profile E-mail  
 
 
PostPosted: 08 Sep 2016 
Alive Again
User avatar
Joined: 17 Dec 2008
Posts: 4744
Lоcаtion: Курск Воронеж Оскол
Age: 44
Name: Дмитрий
:thanx:


Top
 Profile E-mail  
 
 
PostPosted: 08 Sep 2016 
Хиппей (support team)
User avatar
Joined: 30 Jul 2007
Posts: 108891
Lоcаtion: Киев (Kyiv, UA)
Age: 45
Name: Andrey
thorbeorn wrote:
Machete Justice (2015)

Сок махито?

Хорошо :thanx: :kro: :kro: :kro:

_________________


Top
 Profile E-mail  
 
 
PostPosted: 08 Sep 2016 
Генеральный thrasher
User avatar
Joined: 03 Oct 2008
Posts: 3535
Lоcаtion: Ханты-Мансийский АО
Age: 43
Name: Сергей
Что хорошо,Андрей?


Top
 Profile  
 
 
PostPosted: 08 Sep 2016 
Хиппей (support team)
User avatar
Joined: 30 Jul 2007
Posts: 108891
Lоcаtion: Киев (Kyiv, UA)
Age: 45
Name: Andrey
Всё хорошо, Серёг :ok:

_________________


Top
 Profile E-mail  
 
 
PostPosted: 08 Sep 2016 
Хиппей (support team)
User avatar
Joined: 30 Jul 2007
Posts: 108891
Lоcаtion: Киев (Kyiv, UA)
Age: 45
Name: Andrey
https://elanaspantry.com/mojito-green-juice/ :crazy:

_________________


Top
 Profile E-mail  
 
 
PostPosted: 06 Mar 2017 
Генеральный thrasher
User avatar
Joined: 03 Oct 2008
Posts: 3535
Lоcаtion: Ханты-Мансийский АО
Age: 43
Name: Сергей
Image

Year:2014
Style:Thrash Metal/Crossover
Country:Poland
Archive:Flac+Cue+Log+Scans
Source:my CD
Size:395Mb
Label:Defense Records

Tracklist:
01. Advancing Constantly: Prelude To Terror 00:34
02. Sickness Among Us 01:39
03. Boiling Dogsblood 02:07
04. Fuckbody 00:26
05. Worry Yourself To Death 02:14
06. Madcap Terror 02:43
07. Occupation: Son 01:28
08. Goddamn Asskicking Well 02:58
09. Raw Skit #1 – Vodka & Pizza 00:45
10. Revolving Ignorance 02:07
11. Dickhead Stronger 02:05
12. Pathological 02:15
13. Pinche Pendejos 01:03
14. Speak English Or Gay 02:22
15. Raw Skit #2 – TxGx Is In The House 00:45
16. Brutal Punishment 01:54
17. The Final Regret 01:37
18. Arthur The Catamite 00:22
19. Cross Over Cracow 02:13
20. Friends From The Gym 02:17
21. Hang The Cop 00:43
22. Artur Katamita 00:22
Live In Warsaw (Bootleg 2013)
23. Silence (While The Violence Is On) 02:22
24. Thrash Till Deaf 02:23
25. Cross Over Warsaw 02:50
26. Embodimental 02:16
27. Madcap Terror 02:43
28. The Whole Audience Goes Full Blast 02:25

"Cue"
REM GENRE "Thrash Metal/Crossover"
REM DATE 2014
REM DISCID 850BB61C
REM COMMENT "ExactAudioCopy v1.1"
PERFORMER "Terrordome"
TITLE "We'll Show You Bosch, Mitch!"
FILE "Terrordome - We'll Show You Bosch, Mitch!.flac" WAVE
TRACK 01 AUDIO
TITLE "Advancing Constantly: Prelude to Terror"
PERFORMER "Terrordome"
INDEX 01 00:00:00
TRACK 02 AUDIO
TITLE "Sickness Among Us"
PERFORMER "Terrordome"
INDEX 01 00:34:25
TRACK 03 AUDIO
TITLE "Boiling Dogsblood"
PERFORMER "Terrordome"
INDEX 01 02:12:64
TRACK 04 AUDIO
TITLE "Fuckbody"
PERFORMER "Terrordome"
INDEX 01 04:19:68
TRACK 05 AUDIO
TITLE "Worry Yourself To Death"
PERFORMER "Terrordome"
INDEX 01 04:45:56
TRACK 06 AUDIO
TITLE "Madcap Terror"
PERFORMER "Terrordome"
INDEX 01 07:00:16
TRACK 07 AUDIO
TITLE "Occupation: Son"
PERFORMER "Terrordome"
INDEX 01 09:43:30
TRACK 08 AUDIO
TITLE "Goddamn Asskicking Well"
PERFORMER "Terrordome"
INDEX 01 11:11:08
TRACK 09 AUDIO
TITLE "Raw Skit #1 - Vodka & Pizza"
PERFORMER "Terrordome"
INDEX 01 14:09:11
TRACK 10 AUDIO
TITLE "Revolving Ignorance"
PERFORMER "Terrordome"
INDEX 01 14:54:12
TRACK 11 AUDIO
TITLE "Dickhead Stronger"
PERFORMER "Terrordome"
INDEX 01 17:01:11
TRACK 12 AUDIO
TITLE "Pathological"
PERFORMER "Terrordome"
INDEX 01 19:06:32
TRACK 13 AUDIO
TITLE "Pinche Pendejos"
PERFORMER "Terrordome"
INDEX 01 21:21:46
TRACK 14 AUDIO
TITLE "Speak English Or Gay"
PERFORMER "Terrordome"
INDEX 01 22:24:68
TRACK 15 AUDIO
TITLE "Raw Skit #2 - TxGx Is In The House"
PERFORMER "Terrordome"
INDEX 01 24:46:50
TRACK 16 AUDIO
TITLE "Brutal Punishment"
PERFORMER "Terrordome"
INDEX 01 25:31:69
TRACK 17 AUDIO
TITLE "The Final Regret"
PERFORMER "Terrordome"
INDEX 01 27:26:31
TRACK 18 AUDIO
TITLE "Arthur The Catamite"
PERFORMER "Terrordome"
INDEX 01 29:03:22
TRACK 19 AUDIO
TITLE "Cross Over Cracow"
PERFORMER "Terrordome"
INDEX 01 29:25:32
TRACK 20 AUDIO
TITLE "Friends From The Gym"
PERFORMER "Terrordome"
INDEX 01 31:38:67
TRACK 21 AUDIO
TITLE "Hang The Cop"
PERFORMER "Terrordome"
INDEX 01 33:55:49
TRACK 22 AUDIO
TITLE "Artur Katamita"
PERFORMER "Terrordome"
INDEX 01 34:38:24
TRACK 23 AUDIO
TITLE "Silence (While The Violence Is On)"
PERFORMER "Terrordome"
INDEX 01 35:00:34
TRACK 24 AUDIO
TITLE "Thrash Till Deaf"
PERFORMER "Terrordome"
INDEX 01 37:22:16
TRACK 25 AUDIO
TITLE "Cross Over Warsaw"
PERFORMER "Terrordome"
INDEX 01 39:45:46
TRACK 26 AUDIO
TITLE "Embodimental"
PERFORMER "Terrordome"
INDEX 01 42:34:40
TRACK 27 AUDIO
TITLE "Madcap Terror"
PERFORMER "Terrordome"
INDEX 01 44:50:07
TRACK 28 AUDIO
TITLE "The Whole Audience Goes Full Blast"
PERFORMER "Terrordome"
INDEX 01 47:33:40

"Log"
Exact Audio Copy V1.1 from 23. June 2015

Отчёт EAC об извлечении, выполненном 9. января 2017, 19:20

Terrordome / We'll Show You Bosch, Mitch!

Дисковод: HL-DT-STDVDRAM GTA0N Adapter: 1 ID: 0

Режим чтения : Достоверность
Использование точного потока : Да
Отключение кэша аудио : Да
Использование указателей C2 : Нет

Коррекция смещения при чтении : 102
Способность читать области Lead-in и Lead-out : Нет
Заполнение пропущенных сэмплов тишиной : Да
Удаление блоков с тишиной в начале и конце : Нет
При вычислениях CRC использовались нулевые сэмплы : Да
Интерфейс : Встроенный Win32-интерфейс для Win NT/2000

Выходной формат : Пользовательский кодировщик
Выбранный битрейт : 768 kBit/s
Качество : Высокий
Добавление ID3-тега : Нет
Утилита сжатия : C:\Program Files (x86)\Exact Audio Copy\FLAC\FLAC.EXE
Дополнительные параметры : -6 -V -T "ARTIST=%artist%" -T "TITLE=%title%" -T "ALBUM=%albumtitle%" -T "DATE=%year%" -T "TRACKNUMBER=%tracknr%" -T "GENRE=%genre%" -T "COMMENT=%comment%" -T "BAND=%albuminterpret%" -T "ALBUMARTIST=%albuminterpret%" -T "COMPOSER=%composer%" %haslyrics%--tag-from-file=LYRICS="%lyricsfile%"%haslyrics% -T "DISCNUMBER=%cdnumber%" -T "TOTALDISCS=%totalcds%" -T "TOTALTRACKS=%numtracks%" %hascover%--picture="%coverfile%"%hascover% %source% -o %dest%


TOC извлечённого CD

Трек | Старт | Длительность | Начальный сектор | Конечный сектор
---------------------------------------------------------------------
1 | 0:00.00 | 0:34.25 | 0 | 2574
2 | 0:34.25 | 1:38.39 | 2575 | 9963
3 | 2:12.64 | 2:07.04 | 9964 | 19492
4 | 4:19.68 | 0:25.63 | 19493 | 21430
5 | 4:45.56 | 2:14.35 | 21431 | 31515
6 | 7:00.16 | 2:43.14 | 31516 | 43754
7 | 9:43.30 | 1:27.53 | 43755 | 50332
8 | 11:11.08 | 2:58.03 | 50333 | 63685
9 | 14:09.11 | 0:45.01 | 63686 | 67061
10 | 14:54.12 | 2:06.74 | 67062 | 76585
11 | 17:01.11 | 2:05.21 | 76586 | 85981
12 | 19:06.32 | 2:15.14 | 85982 | 96120
13 | 21:21.46 | 1:03.22 | 96121 | 100867
14 | 22:24.68 | 2:21.57 | 100868 | 111499
15 | 24:46.50 | 0:45.19 | 111500 | 114893
16 | 25:31.69 | 1:54.37 | 114894 | 123480
17 | 27:26.31 | 1:36.66 | 123481 | 130746
18 | 29:03.22 | 0:22.10 | 130747 | 132406
19 | 29:25.32 | 2:13.35 | 132407 | 142416
20 | 31:38.67 | 2:16.57 | 142417 | 152673
21 | 33:55.49 | 0:42.50 | 152674 | 155873
22 | 34:38.24 | 0:22.10 | 155874 | 157533
23 | 35:00.34 | 2:21.57 | 157534 | 168165
24 | 37:22.16 | 2:23.30 | 168166 | 178920
25 | 39:45.46 | 2:48.69 | 178921 | 191589
26 | 42:34.40 | 2:15.42 | 191590 | 201756
27 | 44:50.07 | 2:43.33 | 201757 | 214014
28 | 47:33.40 | 2:24.57 | 214015 | 224871


Характеристики диапазона извлечения и сообщения об ошибках

Выбранный диапазон

Имя файла C:\Users\магазин\Music\Terrordome - We'll Show You Bosch, Mitch!.wav

Пиковый уровень 100.0 %
Скорость извлечения 4.0 X
Качество диапазона 99.9 %
CRC копии A336707E
Копирование... OK

Ошибок не произошло


AccurateRip: сводка

Трек 1 : извлечено точно (доверие 2) [D6C93F2D] (AR v2)
Трек 2 : извлечено точно (доверие 2) [27EDD8F8] (AR v2)
Трек 3 : извлечено точно (доверие 2) [F8B82365] (AR v2)
Трек 4 : извлечено точно (доверие 2) [FD071235] (AR v2)
Трек 5 : извлечено точно (доверие 2) [C54555A0] (AR v2)
Трек 6 : извлечено точно (доверие 2) [32279B73] (AR v2)
Трек 7 : извлечено точно (доверие 2) [7780CF8B] (AR v2)
Трек 8 : извлечено точно (доверие 2) [F3A05877] (AR v2)
Трек 9 : извлечено точно (доверие 2) [1072A544] (AR v2)
Трек 10 : извлечено точно (доверие 2) [791D73D0] (AR v2)
Трек 11 : извлечено точно (доверие 2) [E2EB3FD2] (AR v2)
Трек 12 : извлечено точно (доверие 2) [5D0DED5E] (AR v2)
Трек 13 : извлечено точно (доверие 2) [E4412113] (AR v2)
Трек 14 : извлечено точно (доверие 2) [72A05911] (AR v2)
Трек 15 : извлечено точно (доверие 2) [5F7DA8CC] (AR v2)
Трек 16 : извлечено точно (доверие 2) [E7CAF307] (AR v2)
Трек 17 : извлечено точно (доверие 2) [4318E8C7] (AR v2)
Трек 18 : извлечено точно (доверие 2) [8F0408AF] (AR v2)
Трек 19 : извлечено точно (доверие 2) [87712DF3] (AR v2)
Трек 20 : извлечено точно (доверие 2) [94DF35FA] (AR v2)
Трек 21 : извлечено точно (доверие 2) [7D75250D] (AR v2)
Трек 22 : извлечено точно (доверие 2) [2C1BE0F1] (AR v2)
Трек 23 : извлечено точно (доверие 2) [9D1A47D0] (AR v2)
Трек 24 : извлечено точно (доверие 2) [F0FD118A] (AR v2)
Трек 25 : извлечено точно (доверие 2) [78628866] (AR v2)
Трек 26 : извлечено точно (доверие 2) [9BFBCE1B] (AR v2)
Трек 27 : извлечено точно (доверие 2) [FEE7A445] (AR v2)
Трек 28 : извлечено точно (доверие 2) [EDC40427] (AR v2)

Все треки извлечены точно

Конец отчёта

---- CUETools DB Plugin V2.1.6

[CTDB TOCID: spDBi0LZFfbMK4kXznZmQaWevVY-] found
Submit result: spDBi0LZFfbMK4kXznZmQaWevVY- has been confirmed
Track | CTDB Status
1 | (3/3) Accurately ripped
2 | (3/3) Accurately ripped
3 | (3/3) Accurately ripped
4 | (3/3) Accurately ripped
5 | (3/3) Accurately ripped
6 | (3/3) Accurately ripped
7 | (3/3) Accurately ripped
8 | (3/3) Accurately ripped
9 | (3/3) Accurately ripped
10 | (3/3) Accurately ripped
11 | (3/3) Accurately ripped
12 | (3/3) Accurately ripped
13 | (3/3) Accurately ripped
14 | (3/3) Accurately ripped
15 | (3/3) Accurately ripped
16 | (3/3) Accurately ripped
17 | (3/3) Accurately ripped
18 | (3/3) Accurately ripped
19 | (3/3) Accurately ripped
20 | (3/3) Accurately ripped
21 | (3/3) Accurately ripped
22 | (3/3) Accurately ripped
23 | (3/3) Accurately ripped
24 | (3/3) Accurately ripped
25 | (3/3) Accurately ripped
26 | (3/3) Accurately ripped
27 | (3/3) Accurately ripped
28 | (3/3) Accurately ripped


We'll Show You Bosch, Mitch!


Top
 Profile  
 
 
PostPosted: 06 Mar 2017 
Генеральный thrasher
User avatar
Joined: 03 Oct 2008
Posts: 3535
Lоcаtion: Ханты-Мансийский АО
Age: 43
Name: Сергей
Сплит с бразилами Chaos Synopsis...

Image

Year:2016
Style:Thrash Metal/Crossover
Country:Poland/Brazil
Archive:Flac+Cue+Log+Scans
Source:my CD
Size:177Mb
Label:Defense Records

Tracklist:
01. Terrordome - Reflux 00:39
02. Terrordome - Polidicks 02:00
03. Terrordome - Nothing Else Fuckers 02:00
04. Terrordome - The 'Hood (Evildead cover) 03:18
05. Terrordome - Beerbong Party 02:42
06. Chaos Synopsis - Serpent of the Nile 04:10
07. Chaos Synopsis - Fire on Babylon 03:31
08. Chaos Synopsis - Damage Inc. (Metallica cover) 03:53

"Cue"
REM GENRE "Thrash Metal"
REM DATE 2016
REM DISCID 49053408
REM COMMENT "ExactAudioCopy v1.1"
PERFORMER "Terrordome/Chaos Synopsis"
TITLE "Intoxicunts"
FILE "Terrordome,Chaos Synopsis - Intoxicunts.flac" WAVE
TRACK 01 AUDIO
TITLE "Reflux"
PERFORMER "Terrordome"
INDEX 01 00:00:00
TRACK 02 AUDIO
TITLE "Polidicks"
PERFORMER "Terrordome"
INDEX 01 00:38:40
TRACK 03 AUDIO
TITLE "Nothing Else Fuckers"
PERFORMER "Terrordome"
INDEX 01 02:38:03
TRACK 04 AUDIO
TITLE "The 'Hood (Evildead cover)"
PERFORMER "Terrordome"
INDEX 01 04:38:15
TRACK 05 AUDIO
TITLE "Beerbong Party"
PERFORMER "Terrordome"
INDEX 01 07:56:36
TRACK 06 AUDIO
TITLE "Serpent of the Nile"
PERFORMER "Chaos Synopsis"
INDEX 01 10:38:59
TRACK 07 AUDIO
TITLE "Fire on Babylon"
PERFORMER "Chaos Synopsis"
INDEX 01 14:49:02
TRACK 08 AUDIO
TITLE "Damage Inc. (Metallica cover)"
PERFORMER "Chaos Synopsis"
INDEX 01 18:19:61

"Log"
Exact Audio Copy V1.1 from 23. June 2015

Отчёт EAC об извлечении, выполненном 1. июля 2016, 10:44

Terrordome/Chaos Synopsis / Intoxicunts

Дисковод: HL-DT-STDVDRAM GTA0N Adapter: 1 ID: 0

Режим чтения : Достоверность
Использование точного потока : Да
Отключение кэша аудио : Да
Использование указателей C2 : Нет

Коррекция смещения при чтении : 102
Способность читать области Lead-in и Lead-out : Нет
Заполнение пропущенных сэмплов тишиной : Да
Удаление блоков с тишиной в начале и конце : Нет
При вычислениях CRC использовались нулевые сэмплы : Да
Интерфейс : Встроенный Win32-интерфейс для Win NT/2000

Выходной формат : Пользовательский кодировщик
Выбранный битрейт : 768 kBit/s
Качество : Высокий
Добавление ID3-тега : Нет
Утилита сжатия : C:\Program Files (x86)\Exact Audio Copy\FLAC\FLAC.EXE
Дополнительные параметры : -6 -V -T "ARTIST=%artist%" -T "TITLE=%title%" -T "ALBUM=%albumtitle%" -T "DATE=%year%" -T "TRACKNUMBER=%tracknr%" -T "GENRE=%genre%" -T "COMMENT=%comment%" -T "BAND=%albuminterpret%" -T "ALBUMARTIST=%albuminterpret%" -T "COMPOSER=%composer%" %haslyrics%--tag-from-file=LYRICS="%lyricsfile%"%haslyrics% -T "DISCNUMBER=%cdnumber%" -T "TOTALDISCS=%totalcds%" -T "TOTALTRACKS=%numtracks%" %hascover%--picture="%coverfile%"%hascover% %source% -o %dest%


TOC извлечённого CD

Трек | Старт | Длительность | Начальный сектор | Конечный сектор
---------------------------------------------------------------------
1 | 0:00.00 | 0:38.40 | 0 | 2889
2 | 0:38.40 | 1:59.38 | 2890 | 11852
3 | 2:38.03 | 2:00.12 | 11853 | 20864
4 | 4:38.15 | 3:18.21 | 20865 | 35735
5 | 7:56.36 | 2:42.23 | 35736 | 47908
6 | 10:38.59 | 4:10.18 | 47909 | 66676
7 | 14:49.02 | 3:30.59 | 66677 | 82485
8 | 18:19.61 | 3:53.13 | 82486 | 99973


Характеристики диапазона извлечения и сообщения об ошибках

Выбранный диапазон

Имя файла C:\Users\магазин\Music\Terrordome,Chaos Synopsis - Intoxicunts.wav

Пиковый уровень 100.0 %
Скорость извлечения 3.2 X
Качество диапазона 99.9 %
CRC копии 09A6A2CB
Копирование... OK

Ошибок не произошло


AccurateRip: сводка

Трек 1 отсутствует в базе данных
Трек 2 отсутствует в базе данных
Трек 3 отсутствует в базе данных
Трек 4 отсутствует в базе данных
Трек 5 отсутствует в базе данных
Трек 6 отсутствует в базе данных
Трек 7 отсутствует в базе данных
Трек 8 отсутствует в базе данных

Ни одного трека нет в базе AccurateRip

Конец отчёта

---- CUETools DB Plugin V2.1.6

[CTDB TOCID: FVK5SLckTQqxuiyCKPDBjO4MAyA-] disk not present in database
Submit result: FVK5SLckTQqxuiyCKPDBjO4MAyA- has been uploaded


Intoxicunts


Top
 Profile  
 
 
PostPosted: 06 Mar 2017 
Генеральный thrasher
User avatar
Joined: 03 Oct 2008
Posts: 3535
Lоcаtion: Ханты-Мансийский АО
Age: 43
Name: Сергей
Пусть всё будет в одном месте.Где-то ещё дебютник у меня есть.Надо поискать.


Top
 Profile  
 
 
PostPosted: 06 Mar 2017 
консэрваторъ
Joined: 11 Aug 2007
Posts: 16317
Lоcаtion: Псков
Age: 44
Name: Сергей
Чего-то тема у меня подпропущен... надо поставить на заметку... :oops:
Quote:
The band describe their style as "Brutal Crossover Thrash".

Угу... интересно это... :arrov: http://www.metal-archives.com/bands/Terrordome/117064

_________________
THRASH 'EM ALL


Top
 Profile E-mail  
 
 
PostPosted: 29 Mar 2017 
Хиппей (support team)
User avatar
Joined: 30 Jul 2007
Posts: 108891
Lоcаtion: Киев (Kyiv, UA)
Age: 45
Name: Andrey
thorbeorn wrote:
Machete Justice

С первых же песен был как младенец порват первой скоростной и приятной диаррей :meloman: :lob: :lob: :lob:
Музыканты не особо вылезая из рамок стиля, запердолили мега-активный трэшо-кроссоверно-хардкоровый альбом, который слушается так же приятно и быстро, как два первый релиза, например, группы D.R.I. :dance:
Вокалист "речитативит" ну очень умело, аж кепка слетает :true: :true: :true:

8/10

Явно заберу в топы...

_________________


Top
 Profile E-mail  
 
 
PostPosted: 29 Mar 2017 
Хиппей (support team)
User avatar
Joined: 30 Jul 2007
Posts: 108891
Lоcаtion: Киев (Kyiv, UA)
Age: 45
Name: Andrey
thorbeorn wrote:
We'll Show You Bosch, Mitch!

:thanx:

mirror: Depos l Narod l M-Cloud

_________________


Top
 Profile E-mail  
 
 
PostPosted: 29 Mar 2017 
Хиппей (support team)
User avatar
Joined: 30 Jul 2007
Posts: 108891
Lоcаtion: Киев (Kyiv, UA)
Age: 45
Name: Andrey
thorbeorn wrote:
Intoxicunts

:thanx:

mirror: Depos l Narod l M-Cloud

_________________


Top
 Profile E-mail  
 
 
PostPosted: 29 Mar 2017 
консэрваторъ
Joined: 11 Aug 2007
Posts: 16317
Lоcаtion: Псков
Age: 44
Name: Сергей
Scatterbrain wrote:
Явно заберу в топы

Ты жешь вроде вчера блевал от трэшу?.. :beee:

_________________
THRASH 'EM ALL


Top
 Profile E-mail  
 
 
PostPosted: 29 Mar 2017 
Генеральный thrasher
User avatar
Joined: 03 Oct 2008
Posts: 3535
Lоcаtion: Ханты-Мансийский АО
Age: 43
Name: Сергей
Может слишком много трэша просто стало у нас.Хотя...у меня были ещё планы и сделаны рипы. :vic:


Top
 Profile  
 
 
PostPosted: 29 Mar 2017 
Хиппей (support team)
User avatar
Joined: 30 Jul 2007
Posts: 108891
Lоcаtion: Киев (Kyiv, UA)
Age: 45
Name: Andrey
Scatterbrain wrote:
Явно заберу в топы

Ты жешь вроде вчера блевал от трэшу?.. :beee:

В субботу аж. От передоза егойного.
Потому и разбавил несколькими альбомами вне стиля и попсой. А это не трэш, а скорее хардкор кроссоверный :meloman:

_________________


Top
 Profile E-mail  
 
 
PostPosted: 29 Mar 2017 
консэрваторъ
Joined: 11 Aug 2007
Posts: 16317
Lоcаtion: Псков
Age: 44
Name: Сергей
Серёг, я лично всегда рад твои трэшовым рипам...

_________________
THRASH 'EM ALL


Top
 Profile E-mail  
 
 
PostPosted: 29 Mar 2017 
Хиппей (support team)
User avatar
Joined: 30 Jul 2007
Posts: 108891
Lоcаtion: Киев (Kyiv, UA)
Age: 45
Name: Andrey
Может слишком много трэша просто стало у нас.Хотя...у меня были ещё планы и сделаны рипы. :vic:

Слишком много не бывает музыки :pardon: :thanx:
Бывает просто люди жрут часто одно и тоже и пресыщение наступает.

_________________


Top
 Profile E-mail  
 
 
PostPosted: 29 Mar 2017 
Хиппей (support team)
User avatar
Joined: 30 Jul 2007
Posts: 108891
Lоcаtion: Киев (Kyiv, UA)
Age: 45
Name: Andrey
thorbeorn wrote:
11. Welcome to the Bangbus 04:35

Да-да-да, я ждал хидден трэка :crazy: :lob: :lob: :lob:

_________________


Top
 Profile E-mail  
 
Display posts from previous:  Sort by  
Post new topic Reply to topic  [ 53 posts ]  Go to page 1, 2, 3  Next

All times are UTC + 3 hours


Who is online

Users browsing this forum: church and 3 guests


You cannot post new topics in this forum
You cannot reply to topics in this forum
You cannot edit your posts in this forum
You cannot delete your posts in this forum
You cannot post attachments in this forum

Search for:
Яндекс.Метрика
Powered by phpBB © 2000, 2002, 2005, 2007 phpBB Group