\m/ 80's metal \m/

Информационно-аналитический форум "80 см пыли" (In Search We Trust) "У нас никто никуда не спешит"
Me For You - http://me-4u.com
It is currently 12 Dec 2018

All times are UTC + 3 hours

Spoiler
Chat - temporary registration for foreign users (please leave your application here)





Forum rules


Уважаемые пользователи ресурса, друзья, коллеги и гости нашего форума. Данный раздел конференции создан с целью рафинации, и посвящён такому стилевому направлению в музыке, как Thrash Metal во всех его проявлениях и ипостасях, а иногда и переходящему на пограничные стили Speed, Power, Groove, Crossover, MDM и т.п.
Главное правило здесь одно: Одна группа – одна тема! Всё остальное созвучно основным нормам поведения на конференции.
Шаблон оформления тем в этом подфоруме должен быть основан на данных сайта www.metal-archives.com и выглядеть следующим образом:

Группа (Страна) - Стилевые рамки - дискография
Slayer (USA) - Thrash Metal - дискография


В теме допустимо размещение всей информации касающейся данного коллектива: анонсы любых альбомов в любых форматах, запросы любых релизов коллектива (кроме релизов текущего и прошлого годов), обсуждения, обзоры, а в остальном всё как обычно. Уважаем друг друга, не грубим, соблюдаем нормы поведения на конференции, оформляем анонсы и запросы красиво и информативно, что бы модераторы не посчитали их троллингом, и не отправили куда положено, выписав Вам предупреждение или ещё что похуже… Прежде чем что-то запросить или запостить, пользуемся поиском! Пользуемся поиском! ПОЛЬЗУЕМСЯ ПОИСКОМ!!! Так слышно меня?.. :pardon:
Интересного, конструктивного и креативного общения! ;)



Post new topic Reply to topic  [ 70 posts ]  Go to page 1, 2, 3, 4  Next
Author Message
 
PostPosted: 04 Aug 2016 
Генеральный thrasher
User avatar
Joined: 03 Oct 2008
Posts: 3535
Lоcаtion: Ханты-Мансийский АО
Age: 43
Name: Сергей
Достойная на мой взгляд бригада.Серёге splatty советую заслушать.

Image

Year:2015
Style:Thrash Metal
Country:U.S.A.
Archive:Flac+Cue+Log+Scans
Size:307Mb
Source:my CD
Label:Stormspell Records

Line-Up:
Brendan O'Hare - Vocals, Guitars
Cristiano Azevedo - Bass
Dan Hammer - Drums

Tracklist:
01. Prophetic Visions (Intro) 01:07
02. Disassociated 04:08
03. Black Mass 05:44
04. Behold The Horror 03:57
05. Soul Reaper 04:19
06. East Coast Thrash 04:44
07. Victims Of The Disease 05:51
08. Prepare For War 04:33
09. Witch 05:15

"Cue"
REM GENRE "Thrash Metal"
REM DATE 2015
REM DISCID 6F094E09
REM COMMENT "ExactAudioCopy v1.1"
PERFORMER "Black Mass"
TITLE "Ancient Scriptures"
FILE "Black Mass - Ancient Scriptures.flac" WAVE
TRACK 01 AUDIO
TITLE "Prophetic Visions (Intro)"
PERFORMER "Black Mass"
INDEX 01 00:00:00
TRACK 02 AUDIO
TITLE "Disassociated"
PERFORMER "Black Mass"
INDEX 01 01:08:14
TRACK 03 AUDIO
TITLE "Black Mass"
PERFORMER "Black Mass"
INDEX 01 05:16:08
TRACK 04 AUDIO
TITLE "Behold The Horror"
PERFORMER "Black Mass"
INDEX 01 11:00:44
TRACK 05 AUDIO
TITLE "Soul Reaper"
PERFORMER "Black Mass"
INDEX 01 14:58:13
TRACK 06 AUDIO
TITLE "East Coast Thrash"
PERFORMER "Black Mass"
INDEX 01 19:17:70
TRACK 07 AUDIO
TITLE "Victims Of The Disease"
PERFORMER "Black Mass"
INDEX 01 24:02:33
TRACK 08 AUDIO
TITLE "Prepare For War"
PERFORMER "Black Mass"
INDEX 01 29:53:40
TRACK 09 AUDIO
TITLE "Witch"
PERFORMER "Black Mass"
INDEX 01 34:26:50

"Log"
Exact Audio Copy V1.1 from 23. June 2015

Отчёт EAC об извлечении, выполненном 11. февраля 2016, 17:18

Black Mass / Ancient Scriptures

Дисковод: HL-DT-STDVDRAM GTA0N Adapter: 1 ID: 0

Режим чтения : Достоверность
Использование точного потока : Да
Отключение кэша аудио : Да
Использование указателей C2 : Нет

Коррекция смещения при чтении : 102
Способность читать области Lead-in и Lead-out : Нет
Заполнение пропущенных сэмплов тишиной : Да
Удаление блоков с тишиной в начале и конце : Нет
При вычислениях CRC использовались нулевые сэмплы : Да
Интерфейс : Встроенный Win32-интерфейс для Win NT/2000

Выходной формат : Пользовательский кодировщик
Выбранный битрейт : 768 kBit/s
Качество : Высокий
Добавление ID3-тега : Нет
Утилита сжатия : C:\Program Files (x86)\Exact Audio Copy\FLAC\FLAC.EXE
Дополнительные параметры : -6 -V -T "ARTIST=%artist%" -T "TITLE=%title%" -T "ALBUM=%albumtitle%" -T "DATE=%year%" -T "TRACKNUMBER=%tracknr%" -T "GENRE=%genre%" -T "COMMENT=%comment%" -T "BAND=%albuminterpret%" -T "ALBUMARTIST=%albuminterpret%" -T "COMPOSER=%composer%" %haslyrics%--tag-from-file=LYRICS="%lyricsfile%"%haslyrics% -T "DISCNUMBER=%cdnumber%" -T "TOTALDISCS=%totalcds%" -T "TOTALTRACKS=%numtracks%" %hascover%--picture="%coverfile%"%hascover% %source% -o %dest%


TOC извлечённого CD

Трек | Старт | Длительность | Начальный сектор | Конечный сектор
---------------------------------------------------------------------
1 | 0:00.00 | 1:08.14 | 0 | 5113
2 | 1:08.14 | 4:07.69 | 5114 | 23707
3 | 5:16.08 | 5:44.36 | 23708 | 49543
4 | 11:00.44 | 3:57.44 | 49544 | 67362
5 | 14:58.13 | 4:19.57 | 67363 | 86844
6 | 19:17.70 | 4:44.38 | 86845 | 108182
7 | 24:02.33 | 5:51.07 | 108183 | 134514
8 | 29:53.40 | 4:33.10 | 134515 | 154999
9 | 34:26.50 | 5:15.74 | 155000 | 178698


Характеристики диапазона извлечения и сообщения об ошибках

Выбранный диапазон

Имя файла C:\Users\магазин\Music\Black Mass - Ancient Scriptures.wav

Пиковый уровень 100.0 %
Скорость извлечения 3.8 X
Качество диапазона 100.0 %
CRC копии E7F2CB71
Копирование... OK

Ошибок не произошло


AccurateRip: сводка

Трек 1 отсутствует в базе данных
Трек 2 отсутствует в базе данных
Трек 3 отсутствует в базе данных
Трек 4 отсутствует в базе данных
Трек 5 отсутствует в базе данных
Трек 6 отсутствует в базе данных
Трек 7 отсутствует в базе данных
Трек 8 отсутствует в базе данных
Трек 9 отсутствует в базе данных

Ни одного трека нет в базе AccurateRip

Конец отчёта

---- CUETools DB Plugin V2.1.6

[CTDB TOCID: ZGQGRGRrEBx6p6md7aM7Vz5VEz4-] disk not present in database
Submit result: ZGQGRGRrEBx6p6md7aM7Vz5VEz4- has been uploaded


Ancient Scriptures


Top
 Profile  
 
 
PostPosted: 04 Aug 2016 
Хиппей (support team)
User avatar
Joined: 30 Jul 2007
Posts: 108837
Lоcаtion: Киев (Kyiv, UA)
Age: 45
Name: Andrey
:thanx:

mirror: iFolder l Narod l M-Cloud

_________________


Top
 Profile E-mail  
 
 
PostPosted: 04 Aug 2016 
Хиппей (support team)
User avatar
Joined: 30 Jul 2007
Posts: 108837
Lоcаtion: Киев (Kyiv, UA)
Age: 45
Name: Andrey
:shok: Новинка свежайшая от Майл_ру :crazy:


Image

_________________


Top
 Profile E-mail  
 
 
PostPosted: 04 Aug 2016 
Рарник и трушник
User avatar
Joined: 25 Dec 2009
Posts: 8477
Lоcаtion: Москва
Age: 53
Name: Виталий
Спасибо, Сергей, заслушаем. :thanx:


Top
 Profile  
 
 
PostPosted: 04 Aug 2016 
Генеральный thrasher
User avatar
Joined: 03 Oct 2008
Posts: 3535
Lоcаtion: Ханты-Мансийский АО
Age: 43
Name: Сергей
Это стоит послушать! :lob:


Top
 Profile  
 
 
PostPosted: 04 Aug 2016 
Рарник и трушник
User avatar
Joined: 25 Dec 2009
Posts: 8477
Lоcаtion: Москва
Age: 53
Name: Виталий
Да, хороший альбомчег! Добротный трэш, мощно звучит и в лучших трэшевых канонах 80-х. :pardon:


Top
 Profile  
 
 
PostPosted: 04 Aug 2016 
Прокъмитолист
User avatar
Joined: 12 Aug 2007
Posts: 6513
Lоcаtion: Санктъ-Петербуркъ
Age: 51
Name: Олекъ
:thanx:

_________________
прокъметол - это музыко, от которово есть прок (ы)


Top
 Profile  
 
 
PostPosted: 04 Aug 2016 
консэрваторъ
Joined: 11 Aug 2007
Posts: 16313
Lоcаtion: Псков
Age: 44
Name: Сергей
Канечно забираем сразу, а послушаем чуть позже после Афтерволов... :oops: :thanx: :thanx:

_________________
THRASH 'EM ALL


Top
 Profile E-mail  
 
 
PostPosted: 04 Aug 2016 
Генеральный thrasher
User avatar
Joined: 03 Oct 2008
Posts: 3535
Lоcаtion: Ханты-Мансийский АО
Age: 43
Name: Сергей
Канечно забираем сразу, а послушаем чуть позже после Афтерволов... :oops: :thanx: :thanx:


Ну и зря,Серж!Это надо слушать до After All или вместо After All... ;)


Top
 Profile  
 
 
PostPosted: 04 Aug 2016 
консэрваторъ
Joined: 11 Aug 2007
Posts: 16313
Lоcаtion: Псков
Age: 44
Name: Сергей
Я ж занудно-педантно-доколупасто последователен, Серёг... :oops: :thanx:

_________________
THRASH 'EM ALL


Top
 Profile E-mail  
 
 
PostPosted: 04 Aug 2016 
Генеральный thrasher
User avatar
Joined: 03 Oct 2008
Posts: 3535
Lоcаtion: Ханты-Мансийский АО
Age: 43
Name: Сергей
Я ж занудно-педантно-доколупасто последователен, Серёг... :oops: :thanx:


Серёги не должны быть занудными! :umnik:


Top
 Profile  
 
 
PostPosted: 04 Aug 2016 
Я набрал 1000 сообщений!
Joined: 09 Jul 2008
Posts: 2473
Age: 45
Name: Сергей
3 или 4 песни понравились, остальные - ни рыба, ни мясо


Top
 Profile  
 
 
PostPosted: 05 Aug 2016 
Генеральный thrasher
User avatar
Joined: 03 Oct 2008
Posts: 3535
Lоcаtion: Ханты-Мансийский АО
Age: 43
Name: Сергей
Да я знаю,Сергей,что тебе никто не нравится.


Top
 Profile  
 
 
PostPosted: 05 Aug 2016 
Я набрал 1000 сообщений!
Joined: 09 Jul 2008
Posts: 2473
Age: 45
Name: Сергей
ну, как я уже писал, это не так )


Top
 Profile  
 
 
PostPosted: 05 Aug 2016 
Хиппей (support team)
User avatar
Joined: 30 Jul 2007
Posts: 108837
Lоcаtion: Киев (Kyiv, UA)
Age: 45
Name: Andrey
Какими же занудными бывают Серёги :crazy:

_________________


Top
 Profile E-mail  
 
 
PostPosted: 06 Aug 2016 
Хиппей (support team)
User avatar
Joined: 30 Jul 2007
Posts: 108837
Lоcаtion: Киев (Kyiv, UA)
Age: 45
Name: Andrey
thorbeorn wrote:
Black Mass - Ancient Scriptures (2015)


8/10

В топ забираю личный.
Серёг, очередное спасибо ого-ого какое :thanx: :lob: :lob: :lob:

_________________


Top
 Profile E-mail  
 
 
PostPosted: 06 Aug 2016 
Генеральный thrasher
User avatar
Joined: 03 Oct 2008
Posts: 3535
Lоcаtion: Ханты-Мансийский АО
Age: 43
Name: Сергей
Рад,что тебе понравилось,Андрей. :true:


Top
 Profile  
 
 
PostPosted: 06 Aug 2016 
Thrasher
User avatar
Joined: 07 Oct 2007
Posts: 2756
Lоcаtion: Russia, Moscow
Age: 34
Name: Drunk & Evil
Подскажите неучу ... Черная Масса или Черная Месса? :fingal:

_________________
ВОДКА, БАБЫ И БЛЮЗ / 40° till death... :bodun:
One time we saw some hookers, but when we got closer, we realised it was Mötley Crüe. ©


Top
 Profile  
 
 
PostPosted: 06 Aug 2016 
Генеральный thrasher
User avatar
Joined: 03 Oct 2008
Posts: 3535
Lоcаtion: Ханты-Мансийский АО
Age: 43
Name: Сергей
Подскажите неучу ... Черная Масса или Черная Месса? :fingal:


Прикалывешься? :umnik: Месса надо полагать.


Top
 Profile  
 
 
PostPosted: 06 Aug 2016 
Thrasher
User avatar
Joined: 07 Oct 2007
Posts: 2756
Lоcаtion: Russia, Moscow
Age: 34
Name: Drunk & Evil
thorbeorn

не, просто мозги с утра плохо варят, еще с первой сигаретой угарнул, назвать группу Черная Масса))) , лан признаю - протупил изрядно...

За рип - гран-мерси, качать не буду, хватило бэндкампа... валят плотно, рычат злобно...

Для себя выделил Behold The Horror / Victims Of The Disease / Prepare For War / Witch

_________________
ВОДКА, БАБЫ И БЛЮЗ / 40° till death... :bodun:
One time we saw some hookers, but when we got closer, we realised it was Mötley Crüe. ©


Top
 Profile  
 
Display posts from previous:  Sort by  
Post new topic Reply to topic  [ 70 posts ]  Go to page 1, 2, 3, 4  Next

All times are UTC + 3 hours


Who is online

Users browsing this forum: No registered users and 2 guests


You cannot post new topics in this forum
You cannot reply to topics in this forum
You cannot edit your posts in this forum
You cannot delete your posts in this forum
You cannot post attachments in this forum

Search for:
Яндекс.Метрика
Powered by phpBB © 2000, 2002, 2005, 2007 phpBB Group