\m/ 80's metal \m/

Информационно-аналитический форум "80 см пыли" (In Search We Trust) "У нас никто никуда не спешит"
Me For You - http://me-4u.com
It is currently 19 Dec 2018

All times are UTC + 3 hours

Spoiler
Chat - temporary registration for foreign users (please leave your application here)





Forum rules


Уважаемые пользователи ресурса, друзья, коллеги и гости нашего форума. Данный раздел конференции создан с целью рафинации, и посвящён такому стилевому направлению в музыке, как Thrash Metal во всех его проявлениях и ипостасях, а иногда и переходящему на пограничные стили Speed, Power, Groove, Crossover, MDM и т.п.
Главное правило здесь одно: Одна группа – одна тема! Всё остальное созвучно основным нормам поведения на конференции.
Шаблон оформления тем в этом подфоруме должен быть основан на данных сайта www.metal-archives.com и выглядеть следующим образом:

Группа (Страна) - Стилевые рамки - дискография
Slayer (USA) - Thrash Metal - дискография


В теме допустимо размещение всей информации касающейся данного коллектива: анонсы любых альбомов в любых форматах, запросы любых релизов коллектива (кроме релизов текущего и прошлого годов), обсуждения, обзоры, а в остальном всё как обычно. Уважаем друг друга, не грубим, соблюдаем нормы поведения на конференции, оформляем анонсы и запросы красиво и информативно, что бы модераторы не посчитали их троллингом, и не отправили куда положено, выписав Вам предупреждение или ещё что похуже… Прежде чем что-то запросить или запостить, пользуемся поиском! Пользуемся поиском! ПОЛЬЗУЕМСЯ ПОИСКОМ!!! Так слышно меня?.. :pardon:
Интересного, конструктивного и креативного общения! ;)



Post new topic Reply to topic  [ 73 posts ]  Go to page Previous  1, 2, 3, 4  Next
Author Message
 
PostPosted: 10 Aug 2016 
консэрваторъ
Joined: 11 Aug 2007
Posts: 16341
Lоcаtion: Псков
Age: 44
Name: Сергей
Там в бонусах дема 7-ого года если что...

10. National Suicide 04:01
11. Into The Clubhouse 05:02
12. Sucks 'N' Artillery 03:19
13. This Is A Raid 04:20

_________________
THRASH 'EM ALL


Top
 Profile E-mail  
 
 
PostPosted: 11 Aug 2016 
Генеральный thrasher
User avatar
Joined: 03 Oct 2008
Posts: 3542
Lоcаtion: Ханты-Мансийский АО
Age: 43
Name: Сергей
Надо новый альбом покупать.Уж больно хорош!


Top
 Profile  
 
 
PostPosted: 11 Aug 2016 
Хиппей (support team)
User avatar
Joined: 30 Jul 2007
Posts: 109025
Lоcаtion: Киев (Kyiv, UA)
Age: 45
Name: Andrey
Нужон кому альбом с бонусами???

Ага :dance:

_________________


Top
 Profile E-mail  
 
 
PostPosted: 12 Aug 2016 
Генеральный thrasher
User avatar
Joined: 03 Oct 2008
Posts: 3542
Lоcаtion: Ханты-Мансийский АО
Age: 43
Name: Сергей
Image

Year:2009 (2010 Reissue)
Style:Thrash Metal
Country:Italy
Archive:Flac+Cue+Log+Scans
Size:427Mb
Source:my CD
Label:My Graveyard Productions

Line-Up:
Stefano Mini - vocals
Ema - drums
Tiziano "Tiz" Campagna - guitars
Ivan "Saxon" Andreolli - bass
Robert "Bob" Condini - guitars

Tracklist:
01. National Suicide 03:57
02. Nu Posers Don't Scare Anyone 04:58
03. The Old Family Is Still Alive 05:01
04. Let Me See Your Pogo 03:42
05. Wanted 02:56
06. Into the Clubhouse 04:55
07. Please Welcome... My Friends! 04:27
08. Sucks 'n' Artillery 03:23
09. This Is a Raid 04:16
10. National Suicide (demo) 04:02
11. Into The Clubhouse (demo) 05:03
12. Sucks 'N' Artillery (demo) 03:20
13. This Is A Raid (demo) 04:19

"Cue"
REM GENRE Thrash
REM DATE 2009
REM DISCID D60CB50D
REM COMMENT "ExactAudioCopy v1.1"
PERFORMER "National Suicide"
TITLE "The Old Family Is Still Alive"
FILE "National Suicide - The Old Family Is Still Alive.flac" WAVE
TRACK 01 AUDIO
TITLE "National Suicide"
PERFORMER "National Suicide"
FLAGS DCP
INDEX 01 00:00:00
TRACK 02 AUDIO
TITLE "Nu Posers Don't Scare Anyone"
PERFORMER "National Suicide"
FLAGS DCP
INDEX 00 03:54:13
INDEX 01 03:56:13
TRACK 03 AUDIO
TITLE "The Old Family Is Still Alive"
PERFORMER "National Suicide"
FLAGS DCP
INDEX 00 08:51:54
INDEX 01 08:53:54
TRACK 04 AUDIO
TITLE "Let Me See Your Pogo"
PERFORMER "National Suicide"
FLAGS DCP
INDEX 00 13:52:30
INDEX 01 13:54:30
TRACK 05 AUDIO
TITLE "Wanted"
PERFORMER "National Suicide"
FLAGS DCP
INDEX 00 17:33:41
INDEX 01 17:35:41
TRACK 06 AUDIO
TITLE "Into the Clubhouse"
PERFORMER "National Suicide"
FLAGS DCP
INDEX 00 20:29:30
INDEX 01 20:31:30
TRACK 07 AUDIO
TITLE "Please Welcome... My Friends!"
PERFORMER "National Suicide"
FLAGS DCP
INDEX 00 25:24:19
INDEX 01 25:26:19
TRACK 08 AUDIO
TITLE "Sucks 'n' Artillery"
PERFORMER "National Suicide"
FLAGS DCP
INDEX 00 29:51:15
INDEX 01 29:53:15
TRACK 09 AUDIO
TITLE "This Is a Raid"
PERFORMER "National Suicide"
FLAGS DCP
INDEX 00 33:13:59
INDEX 01 33:15:59
TRACK 10 AUDIO
TITLE "National Suicide (Demo) [Bonus Track]"
PERFORMER "National Suicide"
FLAGS DCP
INDEX 00 37:29:13
INDEX 01 37:31:13
TRACK 11 AUDIO
TITLE "Into the Clubhouse (Demo) [Bonus Track]"
PERFORMER "National Suicide"
FLAGS DCP
INDEX 00 41:30:51
INDEX 01 41:32:51
TRACK 12 AUDIO
TITLE "Sucks 'n' Artillery (Demo) [Bonus Track]"
PERFORMER "National Suicide"
FLAGS DCP
INDEX 00 46:33:18
INDEX 01 46:35:18
TRACK 13 AUDIO
TITLE "This Is a Raid (Demo) [Bonus Track]"
PERFORMER "National Suicide"
FLAGS DCP
INDEX 00 49:53:10
INDEX 01 49:55:10

"Log"
Exact Audio Copy V1.1 from 23. June 2015

Отчёт EAC об извлечении, выполненном 10. августа 2016, 9:14

National Suicide / The Old Family Is Still Alive

Дисковод: HL-DT-STDVDRAM GTA0N Adapter: 1 ID: 0

Режим чтения : Достоверность
Использование точного потока : Да
Отключение кэша аудио : Да
Использование указателей C2 : Нет

Коррекция смещения при чтении : 102
Способность читать области Lead-in и Lead-out : Нет
Заполнение пропущенных сэмплов тишиной : Да
Удаление блоков с тишиной в начале и конце : Нет
При вычислениях CRC использовались нулевые сэмплы : Да
Интерфейс : Встроенный Win32-интерфейс для Win NT/2000

Выходной формат : Пользовательский кодировщик
Выбранный битрейт : 768 kBit/s
Качество : Высокий
Добавление ID3-тега : Нет
Утилита сжатия : C:\Program Files (x86)\Exact Audio Copy\FLAC\FLAC.EXE
Дополнительные параметры : -6 -V -T "ARTIST=%artist%" -T "TITLE=%title%" -T "ALBUM=%albumtitle%" -T "DATE=%year%" -T "TRACKNUMBER=%tracknr%" -T "GENRE=%genre%" -T "COMMENT=%comment%" -T "BAND=%albuminterpret%" -T "ALBUMARTIST=%albuminterpret%" -T "COMPOSER=%composer%" %haslyrics%--tag-from-file=LYRICS="%lyricsfile%"%haslyrics% -T "DISCNUMBER=%cdnumber%" -T "TOTALDISCS=%totalcds%" -T "TOTALTRACKS=%numtracks%" %hascover%--picture="%coverfile%"%hascover% %source% -o %dest%


TOC извлечённого CD

Трек | Старт | Длительность | Начальный сектор | Конечный сектор
---------------------------------------------------------------------
1 | 0:00.00 | 3:56.13 | 0 | 17712
2 | 3:56.13 | 4:57.41 | 17713 | 40028
3 | 8:53.54 | 5:00.51 | 40029 | 62579
4 | 13:54.30 | 3:41.11 | 62580 | 79165
5 | 17:35.41 | 2:55.64 | 79166 | 92354
6 | 20:31.30 | 4:54.64 | 92355 | 114468
7 | 25:26.19 | 4:26.71 | 114469 | 134489
8 | 29:53.15 | 3:22.44 | 134490 | 149683
9 | 33:15.59 | 4:15.29 | 149684 | 168837
10 | 37:31.13 | 4:01.38 | 168838 | 186950
11 | 41:32.51 | 5:02.42 | 186951 | 209642
12 | 46:35.18 | 3:19.67 | 209643 | 224634
13 | 49:55.10 | 4:18.47 | 224635 | 244031


Характеристики диапазона извлечения и сообщения об ошибках

Выбранный диапазон

Имя файла C:\Users\магазин\Music\National Suicide - The Old Family Is Still Alive.wav

Пиковый уровень 99.9 %
Скорость извлечения 4.1 X
Качество диапазона 100.0 %
CRC копии 84BB63A1
Копирование... OK

Ошибок не произошло


AccurateRip: сводка

Трек 1 : извлечено точно (доверие 1) [4EC2872B] (AR v2)
Трек 2 : извлечено точно (доверие 1) [4876C72D] (AR v2)
Трек 3 : извлечено точно (доверие 1) [8669152A] (AR v2)
Трек 4 : извлечено точно (доверие 1) [8A976C16] (AR v2)
Трек 5 : извлечено точно (доверие 1) [FB8584D8] (AR v2)
Трек 6 : извлечено точно (доверие 1) [C4BDF9CB] (AR v2)
Трек 7 : извлечено точно (доверие 1) [0F054392] (AR v2)
Трек 8 : извлечено точно (доверие 1) [D6BD2FCB] (AR v2)
Трек 9 : извлечено точно (доверие 1) [8CB515AC] (AR v2)
Трек 10 : извлечено точно (доверие 1) [38E2D33B] (AR v2)
Трек 11 : извлечено точно (доверие 1) [73C3FF44] (AR v2)
Трек 12 : извлечено точно (доверие 1) [70CA5E8D] (AR v2)
Трек 13 : извлечено точно (доверие 1) [983E730E] (AR v2)

Все треки извлечены точно

Конец отчёта

---- CUETools DB Plugin V2.1.6

[CTDB TOCID: wyvRt9NwHMSI0wEG3Mj0uNtDhm8-] found
Submit result: wyvRt9NwHMSI0wEG3Mj0uNtDhm8- has been confirmed
Track | CTDB Status
1 | (3/3) Accurately ripped
2 | (3/3) Accurately ripped
3 | (3/3) Accurately ripped
4 | (3/3) Accurately ripped
5 | (3/3) Accurately ripped
6 | (3/3) Accurately ripped
7 | (3/3) Accurately ripped
8 | (3/3) Accurately ripped
9 | (3/3) Accurately ripped
10 | (3/3) Accurately ripped
11 | (3/3) Accurately ripped
12 | (3/3) Accurately ripped
13 | (2/3) Accurately ripped


The Old Family Is Still Alive


Top
 Profile  
 
 
PostPosted: 12 Aug 2016 
Alive Again
User avatar
Joined: 17 Dec 2008
Posts: 4744
Lоcаtion: Курск Воронеж Оскол
Age: 44
Name: Дмитрий
:thanx:


Top
 Profile E-mail  
 
 
PostPosted: 12 Aug 2016 
Хиппей (support team)
User avatar
Joined: 30 Jul 2007
Posts: 109025
Lоcаtion: Киев (Kyiv, UA)
Age: 45
Name: Andrey
:thanx:

mirror: iFolder l Narod l M-Cloud

_________________


Top
 Profile E-mail  
 
 
PostPosted: 12 Aug 2016 
Thrasher
User avatar
Joined: 07 Oct 2007
Posts: 2756
Lоcаtion: Russia, Moscow
Age: 34
Name: Drunk & Evil
Помню этот альбом, крутой трэш нарезают :true: :thanx:

_________________
ВОДКА, БАБЫ И БЛЮЗ / 40° till death... :bodun:
One time we saw some hookers, but when we got closer, we realised it was Mötley Crüe. ©


Top
 Profile  
 
 
PostPosted: 12 Aug 2016 
Генеральный thrasher
User avatar
Joined: 03 Oct 2008
Posts: 3542
Lоcаtion: Ханты-Мансийский АО
Age: 43
Name: Сергей
Ищу новый по нормальной цене.Переплачивать не собираюсь!


Top
 Profile  
 
 
PostPosted: 12 Aug 2016 
Прокъмитолист
User avatar
Joined: 12 Aug 2007
Posts: 6515
Lоcаtion: Санктъ-Петербуркъ
Age: 51
Name: Олекъ
спасибо, Серёга! бонусы пригодятся :thanx:

з.ы. тьфуты, есть жеж уже такое издание у меня :crazy: все равно спасибо, Серёг :lob:

_________________
прокъметол - это музыко, от которово есть прок (ы)


Top
 Profile  
 
 
PostPosted: 12 Aug 2016 
Генеральный thrasher
User avatar
Joined: 03 Oct 2008
Posts: 3542
Lоcаtion: Ханты-Мансийский АО
Age: 43
Name: Сергей
спасибо, Серёга! бонусы пригодятся :thanx:

з.ы. тьфуты, есть жеж уже такое издание у меня :crazy: все равно спасибо, Серёг :lob:


В закромах лежит,да,Олег?


Top
 Profile  
 
 
PostPosted: 12 Aug 2016 
Прокъмитолист
User avatar
Joined: 12 Aug 2007
Posts: 6515
Lоcаtion: Санктъ-Петербуркъ
Age: 51
Name: Олекъ
ага )

_________________
прокъметол - это музыко, от которово есть прок (ы)


Top
 Profile  
 
 
PostPosted: 13 Aug 2016 
консэрваторъ
Joined: 11 Aug 2007
Posts: 16341
Lоcаtion: Псков
Age: 44
Name: Сергей
Пластинка 9-ого года лично мне нравится поболе текущего релиза...

_________________
THRASH 'EM ALL


Top
 Profile E-mail  
 
 
PostPosted: 15 Aug 2016 
Хиппей (support team)
User avatar
Joined: 30 Jul 2007
Posts: 109025
Lоcаtion: Киев (Kyiv, UA)
Age: 45
Name: Andrey
Велипоколенный альбом :lob: :lob: :lob:
Впервые, вроде, слушаю полный релиз группы. Радует. Хороший, очень хороший клон Экзодуза + своего немножко. Очень занятно будет за их развитием понаблюдать :kro:

7+/10

Естественно, в топ личный внесу.

_________________


Top
 Profile E-mail  
 
 
PostPosted: 15 Aug 2016 
Генеральный thrasher
User avatar
Joined: 03 Oct 2008
Posts: 3542
Lоcаtion: Ханты-Мансийский АО
Age: 43
Name: Сергей
Новый то слушал,Андрюх?


Top
 Profile  
 
 
PostPosted: 15 Aug 2016 
Хиппей (support team)
User avatar
Joined: 30 Jul 2007
Posts: 109025
Lоcаtion: Киев (Kyiv, UA)
Age: 45
Name: Andrey
Не, Серёг, я пока слушаю по мере скачивания. Даже не смотрю, это дебютник у них был или серединка.. =)

_________________


Top
 Profile E-mail  
 
 
PostPosted: 19 Nov 2016 
Генеральный thrasher
User avatar
Joined: 03 Oct 2008
Posts: 3542
Lоcаtion: Ханты-Мансийский АО
Age: 43
Name: Сергей
Пришёл новый альбом.Нужон сохатый?


Top
 Profile  
 
 
PostPosted: 21 Sep 2017 
Доктор энтомологии
User avatar
Joined: 22 Jan 2009
Posts: 9500
Lоcаtion: Даугавпилс
Age: 43
Name: Алексей
Новый альбом продолжает ту же волну в духе ранних Оверкиллов. Весьма доставляет :meloman: Позитивный очень альбом. Пошел на второй круг :kaz:


Top
 Profile  
 
 
PostPosted: 21 Sep 2017 
консэрваторъ
Joined: 11 Aug 2007
Posts: 16341
Lоcаtion: Псков
Age: 44
Name: Сергей
Это который завтра вышел?.. :vic:

_________________
THRASH 'EM ALL


Top
 Profile E-mail  
 
 
PostPosted: 21 Sep 2017 
Хиппей (support team)
User avatar
Joined: 30 Jul 2007
Posts: 109025
Lоcаtion: Киев (Kyiv, UA)
Age: 45
Name: Andrey
Пришёл новый альбом.Нужон сохатый?

Пргдицца. На торренте ужо есть? :kro:

_________________


Top
 Profile E-mail  
 
 
PostPosted: 21 Sep 2017 
Доктор энтомологии
User avatar
Joined: 22 Jan 2009
Posts: 9500
Lоcаtion: Даугавпилс
Age: 43
Name: Алексей
Это который завтра вышел?.. :vic:

ага :crazy:


Top
 Profile  
 
Display posts from previous:  Sort by  
Post new topic Reply to topic  [ 73 posts ]  Go to page Previous  1, 2, 3, 4  Next

All times are UTC + 3 hours


Who is online

Users browsing this forum: No registered users and 4 guests


You cannot post new topics in this forum
You cannot reply to topics in this forum
You cannot edit your posts in this forum
You cannot delete your posts in this forum
You cannot post attachments in this forum

Search for:
Яндекс.Метрика
Powered by phpBB © 2000, 2002, 2005, 2007 phpBB Group