\m/ 80's metal \m/

Информационно-аналитический форум "80 см пыли" (In Search We Trust) "У нас никто никуда не спешит"
Me For You - http://me-4u.com
It is currently 17 Dec 2018

All times are UTC + 3 hours

Spoiler
Chat - temporary registration for foreign users (please leave your application here)





Forum rules


Уважаемые пользователи ресурса, друзья, коллеги и гости нашего форума. Данный раздел конференции создан с целью рафинации, и посвящён такому стилевому направлению в музыке, как Thrash Metal во всех его проявлениях и ипостасях, а иногда и переходящему на пограничные стили Speed, Power, Groove, Crossover, MDM и т.п.
Главное правило здесь одно: Одна группа – одна тема! Всё остальное созвучно основным нормам поведения на конференции.
Шаблон оформления тем в этом подфоруме должен быть основан на данных сайта www.metal-archives.com и выглядеть следующим образом:

Группа (Страна) - Стилевые рамки - дискография
Slayer (USA) - Thrash Metal - дискография


В теме допустимо размещение всей информации касающейся данного коллектива: анонсы любых альбомов в любых форматах, запросы любых релизов коллектива (кроме релизов текущего и прошлого годов), обсуждения, обзоры, а в остальном всё как обычно. Уважаем друг друга, не грубим, соблюдаем нормы поведения на конференции, оформляем анонсы и запросы красиво и информативно, что бы модераторы не посчитали их троллингом, и не отправили куда положено, выписав Вам предупреждение или ещё что похуже… Прежде чем что-то запросить или запостить, пользуемся поиском! Пользуемся поиском! ПОЛЬЗУЕМСЯ ПОИСКОМ!!! Так слышно меня?.. :pardon:
Интересного, конструктивного и креативного общения! ;)



Post new topic Reply to topic  [ 57 posts ]  Go to page Previous  1, 2, 3
Author Message
 
PostPosted: 08 Jul 2016 
Хиппей (support team)
User avatar
Joined: 30 Jul 2007
Posts: 108957
Lоcаtion: Киев (Kyiv, UA)
Age: 45
Name: Andrey
Да-да, гори сини-красно-белым пламенем в отпусках тот тырнет :lob:

_________________


Top
 Profile E-mail  
 
 
PostPosted: 09 Jul 2016 
Генеральный thrasher
User avatar
Joined: 03 Oct 2008
Posts: 3537
Lоcаtion: Ханты-Мансийский АО
Age: 43
Name: Сергей
Да он на море и не нужен


Top
 Profile  
 
 
PostPosted: 10 Jul 2016 
Хиппей (support team)
User avatar
Joined: 30 Jul 2007
Posts: 108957
Lоcаtion: Киев (Kyiv, UA)
Age: 45
Name: Andrey
Не, ну иногда вифи и жеперес для рыбалки не помешают :mir: :kaz: :ryba:

_________________


Top
 Profile E-mail  
 
 
PostPosted: 22 Jul 2016 
Генеральный thrasher
User avatar
Joined: 03 Oct 2008
Posts: 3537
Lоcаtion: Ханты-Мансийский АО
Age: 43
Name: Сергей
Выложил,как и обещал...

Holosade - A Circle Of Silent Screams 1994 (2015 Re-Issue)

Image

Year: 1994 (2015 Re-Issue)
Style: Heavy/Thrash Metal
Country: U.K.
Archive: Flac+Cue+Log+Scans
Size: 389Mb
Source: my CD
Label: Divebomb Records

Line-Up:
Simon Jones - guitars
Andy Barker - drums
Philip de Sade - vocals
Steve Wright - bass
Gary Thomas - guitars
Fred Purser - keyboards

Tracklist:
01. Maximum Security 02:47
02. Masquerade 04:44
03. The Return 06:19
04. I Am the One 04:43
05. Superstition 02:48
06. Computer World 06:52
07. Hard Life 03:29
08. Eastern Promise 06:06
09. Carolanne 02:24
10. Little Miss 04:46
11. Once Upon a Nightmare 05:44
12. Babylon's Burning 02:38

"Cue"
REM GENRE "Thrash Metal"
REM DATE 2015
REM DISCID 940C7A0C
REM COMMENT "ExactAudioCopy v1.1"
PERFORMER "Holosade"
TITLE "A Circle Of Silent Screams"
FILE "Holosade - A Circle Of Silent Screams.flac" WAVE
TRACK 01 AUDIO
TITLE "Maximum Security"
PERFORMER "Holosade"
FLAGS DCP
INDEX 01 00:00:00
TRACK 02 AUDIO
TITLE "Masquerade"
PERFORMER "Holosade"
FLAGS DCP
INDEX 01 02:46:70
TRACK 03 AUDIO
TITLE "The Return"
PERFORMER "Holosade"
FLAGS DCP
INDEX 01 07:30:01
TRACK 04 AUDIO
TITLE "I Am The One"
PERFORMER "Holosade"
FLAGS DCP
INDEX 01 13:48:21
TRACK 05 AUDIO
TITLE "Superstition"
PERFORMER "Holosade"
FLAGS DCP
INDEX 01 18:30:26
TRACK 06 AUDIO
TITLE "Computer World"
PERFORMER "Holosade"
FLAGS DCP
INDEX 01 21:18:16
TRACK 07 AUDIO
TITLE "Hard Life"
PERFORMER "Holosade"
FLAGS DCP
INDEX 01 28:09:61
TRACK 08 AUDIO
TITLE "Eastern Promise"
PERFORMER "Holosade"
FLAGS DCP
INDEX 01 31:38:53
TRACK 09 AUDIO
TITLE "Carolanne"
PERFORMER "Holosade"
FLAGS DCP
INDEX 01 37:44:12
TRACK 10 AUDIO
TITLE "Little Miss"
PERFORMER "Holosade"
FLAGS DCP
INDEX 01 40:07:45
TRACK 11 AUDIO
TITLE "Once Upon A Nightmare"
PERFORMER "Holosade"
FLAGS DCP
INDEX 01 44:52:65
TRACK 12 AUDIO
TITLE "Babylon’s Burning"
PERFORMER "Holosade"
FLAGS DCP
INDEX 01 50:36:62

"Log"
Exact Audio Copy V1.1 from 23. June 2015

Отчёт EAC об извлечении, выполненном 1. декабря 2015, 14:10

Holosade / A Circle Of Silent Screams

Дисковод: HL-DT-STDVDRAM GTA0N Adapter: 1 ID: 0

Режим чтения : Достоверность
Использование точного потока : Да
Отключение кэша аудио : Да
Использование указателей C2 : Нет

Коррекция смещения при чтении : 102
Способность читать области Lead-in и Lead-out : Нет
Заполнение пропущенных сэмплов тишиной : Да
Удаление блоков с тишиной в начале и конце : Нет
При вычислениях CRC использовались нулевые сэмплы : Да
Интерфейс : Встроенный Win32-интерфейс для Win NT/2000

Выходной формат : Пользовательский кодировщик
Выбранный битрейт : 768 kBit/s
Качество : Высокий
Добавление ID3-тега : Нет
Утилита сжатия : C:\Program Files (x86)\Exact Audio Copy\FLAC\FLAC.EXE
Дополнительные параметры : -6 -V -T "ARTIST=%artist%" -T "TITLE=%title%" -T "ALBUM=%albumtitle%" -T "DATE=%year%" -T "TRACKNUMBER=%tracknr%" -T "GENRE=%genre%" -T "COMMENT=%comment%" -T "BAND=%albuminterpret%" -T "ALBUMARTIST=%albuminterpret%" -T "COMPOSER=%composer%" %haslyrics%--tag-from-file=LYRICS="%lyricsfile%"%haslyrics% -T "DISCNUMBER=%cdnumber%" -T "TOTALDISCS=%totalcds%" -T "TOTALTRACKS=%numtracks%" %hascover%--picture="%coverfile%"%hascover% %source% -o %dest%


TOC извлечённого CD

Трек | Старт | Длительность | Начальный сектор | Конечный сектор
---------------------------------------------------------------------
1 | 0:00.00 | 2:46.70 | 0 | 12519
2 | 2:46.70 | 4:43.06 | 12520 | 33750
3 | 7:30.01 | 6:18.20 | 33751 | 62120
4 | 13:48.21 | 4:42.05 | 62121 | 83275
5 | 18:30.26 | 2:47.65 | 83276 | 95865
6 | 21:18.16 | 6:51.45 | 95866 | 126735
7 | 28:09.61 | 3:28.67 | 126736 | 142402
8 | 31:38.53 | 6:05.34 | 142403 | 169811
9 | 37:44.12 | 2:23.33 | 169812 | 180569
10 | 40:07.45 | 4:45.20 | 180570 | 201964
11 | 44:52.65 | 5:43.72 | 201965 | 227761
12 | 50:36.62 | 2:37.28 | 227762 | 239564


Характеристики диапазона извлечения и сообщения об ошибках

Выбранный диапазон

Имя файла C:\Users\магазин\Music\Holosade - A Circle Of Silent Screams.wav

Пиковый уровень 100.0 %
Скорость извлечения 2.1 X
Качество диапазона 99.9 %
CRC копии 8D8C4F9E
Копирование... OK

Ошибок не произошло


AccurateRip: сводка

Трек 1 отсутствует в базе данных
Трек 2 отсутствует в базе данных
Трек 3 отсутствует в базе данных
Трек 4 отсутствует в базе данных
Трек 5 отсутствует в базе данных
Трек 6 отсутствует в базе данных
Трек 7 отсутствует в базе данных
Трек 8 отсутствует в базе данных
Трек 9 отсутствует в базе данных
Трек 10 отсутствует в базе данных
Трек 11 отсутствует в базе данных
Трек 12 отсутствует в базе данных

Ни одного трека нет в базе AccurateRip

Конец отчёта

---- CUETools DB Plugin V2.1.6

[CTDB TOCID: UwWyc.Btw6zm2ICl8W3yqGTRcGc-] disk not present in database
Submit result: UwWyc.Btw6zm2ICl8W3yqGTRcGc- has been uploaded


A Circle Of Silent Screams


Top
 Profile  
 
 
PostPosted: 22 Jul 2016 
консэрваторъ
Joined: 11 Aug 2007
Posts: 16333
Lоcаtion: Псков
Age: 44
Name: Сергей
A Circle of Silent Screams :arrov: viewtopic.php?p=269497#p269497

_________________
THRASH 'EM ALL


Top
 Profile E-mail  
 
 
PostPosted: 22 Jul 2016 
консэрваторъ
Joined: 11 Aug 2007
Posts: 16333
Lоcаtion: Псков
Age: 44
Name: Сергей
Серёг, спасибо, забрал, сравню с тем, что у меня есть... обвяжу всё перекрёстными ссылями на всякий случай... :oops:
Holosade - Hell House 1988 (2015 Re-Issue Deluxe Edition) :arrov: viewtopic.php?p=267923#p267923

_________________
THRASH 'EM ALL


Top
 Profile E-mail  
 
 
PostPosted: 22 Jul 2016 
Генеральный thrasher
User avatar
Joined: 03 Oct 2008
Posts: 3537
Lоcаtion: Ханты-Мансийский АО
Age: 43
Name: Сергей
Здесь материал мягче,чем на дебютнике.


Top
 Profile  
 
 
PostPosted: 22 Jul 2016 
консэрваторъ
Joined: 11 Aug 2007
Posts: 16333
Lоcаtion: Псков
Age: 44
Name: Сергей
Чуда не произошло, но всё равно спасибо ещё раз!.. :lob:

_________________
THRASH 'EM ALL


Top
 Profile E-mail  
 
 
PostPosted: 22 Jul 2016 
Рарник и трушник
User avatar
Joined: 25 Dec 2009
Posts: 8486
Lоcаtion: Москва
Age: 53
Name: Виталий
Спасибо, Сергей! :lob: Послушаю, раньше не попадался. :vic:


Top
 Profile  
 
 
PostPosted: 22 Jul 2016 
А может смените мне статус?..
Joined: 03 Jul 2009
Posts: 836
Lоcаtion: Serbia
Name: Laki
:thanx:


Top
 Profile E-mail  
 
 
PostPosted: 22 Jul 2016 
Прокъмитолист
User avatar
Joined: 12 Aug 2007
Posts: 6514
Lоcаtion: Санктъ-Петербуркъ
Age: 51
Name: Олекъ
:thanx:

_________________
прокъметол - это музыко, от которово есть прок (ы)


Top
 Profile  
 
 
PostPosted: 22 Jul 2016 
Анатолий
User avatar
Joined: 18 Oct 2008
Posts: 3253
Lоcаtion: Армавир
Age: 41
Name: Анатолий
Спасибо! :thanx: :true:


Top
 Profile E-mail  
 
 
PostPosted: 22 Jul 2016 
Генеральный thrasher
User avatar
Joined: 03 Oct 2008
Posts: 3537
Lоcаtion: Ханты-Мансийский АО
Age: 43
Name: Сергей
Да на здоровье,други!


Top
 Profile  
 
 
PostPosted: 24 Jul 2016 
Хиппей (support team)
User avatar
Joined: 30 Jul 2007
Posts: 108957
Lоcаtion: Киев (Kyiv, UA)
Age: 45
Name: Andrey
:thanx:

mirror: Depos l Narod l M-Cloud

_________________


Top
 Profile E-mail  
 
 
PostPosted: 30 Apr 2017 
Хиппей (support team)
User avatar
Joined: 30 Jul 2007
Posts: 108957
Lоcаtion: Киев (Kyiv, UA)
Age: 45
Name: Andrey
Вы меня тоже пардон, но после хардкорового мягкого трэша группа стала играть нудный типа эпик-хэви с панковским, вычитывающим и иногда выплёвывающим лирику вокалом :(

4/10

_________________


Top
 Profile E-mail  
 
 
PostPosted: 30 Apr 2017 
Хиппей (support team)
User avatar
Joined: 30 Jul 2007
Posts: 108957
Lоcаtion: Киев (Kyiv, UA)
Age: 45
Name: Andrey
Объединил обе темы по группе :pardon:

_________________


Top
 Profile E-mail  
 
 
PostPosted: 30 Apr 2017 
консэрваторъ
Joined: 11 Aug 2007
Posts: 16333
Lоcаtion: Псков
Age: 44
Name: Сергей
:thanx:

_________________
THRASH 'EM ALL


Top
 Profile E-mail  
 
Display posts from previous:  Sort by  
Post new topic Reply to topic  [ 57 posts ]  Go to page Previous  1, 2, 3

All times are UTC + 3 hours


Who is online

Users browsing this forum: No registered users and 3 guests


You cannot post new topics in this forum
You cannot reply to topics in this forum
You cannot edit your posts in this forum
You cannot delete your posts in this forum
You cannot post attachments in this forum

Search for:
Яндекс.Метрика
Powered by phpBB © 2000, 2002, 2005, 2007 phpBB Group