\m/ 80's metal \m/

Информационно-аналитический форум "80 см пыли" (In Search We Trust) "У нас никто никуда не спешит"
Me For You - http://me-4u.com
It is currently 15 Dec 2018

All times are UTC + 3 hours

Spoiler
Chat - temporary registration for foreign users (please leave your application here)





Forum rules


Уважаемые пользователи ресурса, друзья, коллеги и гости нашего форума. Данный раздел конференции создан с целью рафинации, и посвящён такому стилевому направлению в музыке, как Thrash Metal во всех его проявлениях и ипостасях, а иногда и переходящему на пограничные стили Speed, Power, Groove, Crossover, MDM и т.п.
Главное правило здесь одно: Одна группа – одна тема! Всё остальное созвучно основным нормам поведения на конференции.
Шаблон оформления тем в этом подфоруме должен быть основан на данных сайта www.metal-archives.com и выглядеть следующим образом:

Группа (Страна) - Стилевые рамки - дискография
Slayer (USA) - Thrash Metal - дискография


В теме допустимо размещение всей информации касающейся данного коллектива: анонсы любых альбомов в любых форматах, запросы любых релизов коллектива (кроме релизов текущего и прошлого годов), обсуждения, обзоры, а в остальном всё как обычно. Уважаем друг друга, не грубим, соблюдаем нормы поведения на конференции, оформляем анонсы и запросы красиво и информативно, что бы модераторы не посчитали их троллингом, и не отправили куда положено, выписав Вам предупреждение или ещё что похуже… Прежде чем что-то запросить или запостить, пользуемся поиском! Пользуемся поиском! ПОЛЬЗУЕМСЯ ПОИСКОМ!!! Так слышно меня?.. :pardon:
Интересного, конструктивного и креативного общения! ;)



Post new topic Reply to topic  [ 50 posts ]  Go to page Previous  1, 2, 3
Author Message
 
PostPosted: 20 Apr 2010 
мелосмертхстер
User avatar
Joined: 11 Jul 2008
Posts: 1058
Lоcаtion: (Әлмәт/Самара)
Age: 42
Name: Rus†Ⓐm
...... а ни кому не показалось что чуваки на КАМАЗе....иль только мне одному ?

_________________
Everytime I Die

Image


Top
 Profile E-mail  
 
 
PostPosted: 21 Apr 2010 
Работнечег
User avatar
Joined: 28 Aug 2007
Posts: 5606
Lоcаtion: г. Москва
Age: 29
Name: Дима
bodomchild76 wrote:
...... а ни кому не показалось что чуваки на КАМАЗе....иль только мне одному ?

Дык тут без вариантов по-моему :true: За релиз, спасибо!


Top
 Profile E-mail  
 
 
PostPosted: 23 Apr 2010 
metallpaparazzy
User avatar
Joined: 20 Dec 2009
Posts: 674
Lоcаtion: Днепропетровск
Age: 43
Name: Геннадий
только колеса у КАМАЗА какие-то непропорциональные... :vic:
а, понял: :shok: он тоже мутирует! :nunu:
:thanx:


Top
 Profile E-mail  
 
 
PostPosted: 18 Jan 2011 
DarkSage
User avatar
Joined: 24 Sep 2009
Posts: 945
Lоcаtion: Moscow
Name: Оксана
тема по группе /дискография

_________________
Image,Image


Top
 Profile E-mail  
 
 
PostPosted: 24 Aug 2017 
консэрваторъ
Joined: 11 Aug 2007
Posts: 16320
Lоcаtion: Псков
Age: 44
Name: Сергей
Municipal Waste - Slime and Punishment 2017

Image

1. Breathe Grease 01:49
2. Enjoy the Night 00:49
3. Dingy Situations 01:39
4. Shrednecks 02:16
5. Poison the Preacher 02:01
6. Bourbon Discipline 02:31
7. Parole Violators 02:30
8. Slime and Punishment 02:22
9. Amateur Sketch 01:45
10. Excessive Celebration 01:29
11. Low Tolerance 02:21
12. Under the Waste Command 01:51
13. Death Proof 02:52
14. Think Fast 02:30

Пол часа добротного жирного лосиного кросса на тракторе!.. :lob: (ММТэшный рип)... Оказывается альбом вышел ещё 23 июня... Полякам конечно не конкурент, но вкатывает так приятно с утра перед трудовым днём!.. :meloman:

_________________
THRASH 'EM ALL


Top
 Profile E-mail  
 
 
PostPosted: 24 Aug 2017 
Я набрал 1000 сообщений!
Joined: 09 Jul 2008
Posts: 2484
Age: 45
Name: Сергей
совсем не вкатывает такое


Top
 Profile  
 
 
PostPosted: 24 Aug 2017 
Доктор энтомологии
User avatar
Joined: 22 Jan 2009
Posts: 9485
Lоcаtion: Даугавпилс
Age: 43
Name: Алексей
просто ты никогда не занимался стэйдждайвингом


Top
 Profile  
 
 
PostPosted: 24 Aug 2017 
консэрваторъ
Joined: 11 Aug 2007
Posts: 16320
Lоcаtion: Псков
Age: 44
Name: Сергей
Либо занимался, но в последний момент все расступились... :pardon:

_________________
THRASH 'EM ALL


Top
 Profile E-mail  
 
 
PostPosted: 31 Aug 2017 
Хиппей (support team)
User avatar
Joined: 30 Jul 2007
Posts: 108909
Lоcаtion: Киев (Kyiv, UA)
Age: 45
Name: Andrey
О, я пока новый альбом и не слушать :scratch:

Качнуть правильного лося :arrow: https://rutracker.org/forum/viewtopic.php?t=5049630

_________________


Top
 Profile E-mail  
 
 
PostPosted: 09 Sep 2017 
Хиппей (support team)
User avatar
Joined: 30 Jul 2007
Posts: 108909
Lоcаtion: Киев (Kyiv, UA)
Age: 45
Name: Andrey
Municipal Waste - 2017 - Slime and Punishment (NUCLEAR BLAST 3233-2) [flac]

Image

mirror: Depos l Narod l M-Cloud l Drop

Очередной очень качественный и просто хороший альбом уже культовой современной группы :kro:

8/10

Забираю альбом в личные топы года :dance:


log
Exact Audio Copy V1.3 from 2. September 2016

EAC extraction logfile from 20. August 2017, 11:50

Municipal Waste / Slime and Punishment

Used drive : PLEXTOR DVDR PX-810SA Adapter: 1 ID: 0

Read mode : Secure
Utilize accurate stream : Yes
Defeat audio cache : Yes
Make use of C2 pointers : No

Read offset correction : 48
Overread into Lead-In and Lead-Out : No
Fill up missing offset samples with silence : Yes
Delete leading and trailing silent blocks : No
Null samples used in CRC calculations : Yes
Used interface : Native Win32 interface for Win NT & 2000

Used output format : User Defined Encoder
Selected bitrate : 896 kBit/s
Quality : High
Add ID3 tag : No
Command line compressor : C:\Program Files (x86)\Exact Audio Copy\Flac\flac.exe
Additional command line options : -T "artist=%artist%" -T "title=%title%" -T "album=%albumtitle%" -T "date=%year%" -T "tracknumber=%tracknr%" -T "genre=%genre%" -8 %source%


TOC of the extracted CD

Track | Start | Length | Start sector | End sector
---------------------------------------------------------
1 | 0:00.00 | 1:50.02 | 0 | 8251
2 | 1:50.02 | 0:49.10 | 8252 | 11936
3 | 2:39.12 | 1:39.42 | 11937 | 19403
4 | 4:18.54 | 2:16.28 | 19404 | 29631
5 | 6:35.07 | 2:01.49 | 29632 | 38755
6 | 8:36.56 | 2:31.34 | 38756 | 50114
7 | 11:08.15 | 2:30.21 | 50115 | 61385
8 | 13:38.36 | 2:22.56 | 61386 | 72091
9 | 16:01.17 | 1:45.39 | 72092 | 80005
10 | 17:46.56 | 1:29.32 | 80006 | 86712
11 | 19:16.13 | 2:21.56 | 86713 | 97343
12 | 21:37.69 | 1:50.73 | 97344 | 105666
13 | 23:28.67 | 2:52.19 | 105667 | 118585
14 | 26:21.11 | 2:31.17 | 118586 | 129927


Range status and errors

Selected range

Filename C:\2017 - Slime and Punishment\Municipal Waste - Slime and Punishment.wav

Peak level 100.0 %
Extraction speed 6.1 X
Range quality 99.9 %
Test CRC 6D727D6D
Copy CRC 6D727D6D
Copy OK

No errors occurred


AccurateRip summary

Track 1 accurately ripped (confidence 1) [13D46CFE] (AR v2)
Track 2 accurately ripped (confidence 1) [0E679763] (AR v2)
Track 3 accurately ripped (confidence 2) [9673AF20] (AR v2)
Track 4 accurately ripped (confidence 2) [C5D005C8] (AR v2)
Track 5 accurately ripped (confidence 2) [90A08E0F] (AR v2)
Track 6 accurately ripped (confidence 2) [B653DF1B] (AR v2)
Track 7 accurately ripped (confidence 2) [D103D88E] (AR v2)
Track 8 accurately ripped (confidence 2) [61CC85A5] (AR v2)
Track 9 accurately ripped (confidence 2) [EC75B897] (AR v2)
Track 10 accurately ripped (confidence 2) [2E670718] (AR v2)
Track 11 accurately ripped (confidence 2) [2B63CE74] (AR v2)
Track 12 accurately ripped (confidence 2) [36DFEB15] (AR v2)
Track 13 accurately ripped (confidence 2) [1E8A08B3] (AR v2)
Track 14 accurately ripped (confidence 2) [FD250D4E] (AR v2)

All tracks accurately ripped

End of status report

==== Log checksum 2E736767A26F58C3072AB9A94B29181F33C4EDF8344B09E1791B5A8538D9D01B ====

cue
REM GENRE Metal
REM DATE 2017
REM DISCID AA06C40E
REM COMMENT "ExactAudioCopy v1.3"
PERFORMER "Municipal Waste"
TITLE "Slime and Punishment"
REM COMPOSER "Municipal Waste"
FILE "Municipal Waste - Slime and Punishment.flac" WAVE
TRACK 01 AUDIO
TITLE "Breathe Grease"
PERFORMER "Municipal Waste"
REM COMPOSER "Municipal Waste"
INDEX 01 00:00:00
TRACK 02 AUDIO
TITLE "Enjoy the Night"
PERFORMER "Municipal Waste"
REM COMPOSER "Municipal Waste"
INDEX 01 01:50:02
TRACK 03 AUDIO
TITLE "Dingy Situations"
PERFORMER "Municipal Waste"
REM COMPOSER "Municipal Waste"
INDEX 01 02:39:12
TRACK 04 AUDIO
TITLE "Shrednecks"
PERFORMER "Municipal Waste"
REM COMPOSER "Municipal Waste"
INDEX 01 04:18:54
TRACK 05 AUDIO
TITLE "Poison the Preacher"
PERFORMER "Municipal Waste"
REM COMPOSER "Municipal Waste"
INDEX 01 06:35:07
TRACK 06 AUDIO
TITLE "Bourbon Discipline"
PERFORMER "Municipal Waste"
REM COMPOSER "Municipal Waste"
INDEX 01 08:36:56
TRACK 07 AUDIO
TITLE "Parole Violators"
PERFORMER "Municipal Waste"
REM COMPOSER "Municipal Waste"
INDEX 01 11:08:15
TRACK 08 AUDIO
TITLE "Slime and Punishment"
PERFORMER "Municipal Waste"
REM COMPOSER "Municipal Waste"
INDEX 01 13:38:36
TRACK 09 AUDIO
TITLE "Amateur Sketch"
PERFORMER "Municipal Waste"
REM COMPOSER "Municipal Waste"
INDEX 01 16:01:17
TRACK 10 AUDIO
TITLE "Excessive Celebration"
PERFORMER "Municipal Waste"
REM COMPOSER "Municipal Waste"
INDEX 01 17:46:56
TRACK 11 AUDIO
TITLE "Low Tolerance"
PERFORMER "Municipal Waste"
REM COMPOSER "Municipal Waste"
INDEX 01 19:16:13
TRACK 12 AUDIO
TITLE "Under the Waste Command"
PERFORMER "Municipal Waste"
REM COMPOSER "Municipal Waste"
INDEX 01 21:37:69
TRACK 13 AUDIO
TITLE "Death Proof"
PERFORMER "Municipal Waste"
REM COMPOSER "Municipal Waste"
INDEX 01 23:28:67
TRACK 14 AUDIO
TITLE "Think Fast"
PERFORMER "Municipal Waste"
REM COMPOSER "Municipal Waste"
INDEX 01 26:21:11

_________________


Top
 Profile E-mail  
 
Display posts from previous:  Sort by  
Post new topic Reply to topic  [ 50 posts ]  Go to page Previous  1, 2, 3

All times are UTC + 3 hours


Who is online

Users browsing this forum: Google [Bot] and 2 guests


You cannot post new topics in this forum
You cannot reply to topics in this forum
You cannot edit your posts in this forum
You cannot delete your posts in this forum
You cannot post attachments in this forum

Search for:
Яндекс.Метрика
Powered by phpBB © 2000, 2002, 2005, 2007 phpBB Group