\m/ 80's metal \m/

Информационно-аналитический форум "80 см пыли" (In Search We Trust) "У нас никто никуда не спешит"
Me For You - http://me-4u.com
It is currently 10 Dec 2018

All times are UTC + 3 hours

Spoiler
Chat - temporary registration for foreign users (please leave your application here)





Forum rules


Уважаемые пользователи ресурса, друзья, коллеги и гости нашего форума. Данный раздел конференции создан с целью рафинации, и посвящён такому стилевому направлению в музыке, как Thrash Metal во всех его проявлениях и ипостасях, а иногда и переходящему на пограничные стили Speed, Power, Groove, Crossover, MDM и т.п.
Главное правило здесь одно: Одна группа – одна тема! Всё остальное созвучно основным нормам поведения на конференции.
Шаблон оформления тем в этом подфоруме должен быть основан на данных сайта www.metal-archives.com и выглядеть следующим образом:

Группа (Страна) - Стилевые рамки - дискография
Slayer (USA) - Thrash Metal - дискография


В теме допустимо размещение всей информации касающейся данного коллектива: анонсы любых альбомов в любых форматах, запросы любых релизов коллектива (кроме релизов текущего и прошлого годов), обсуждения, обзоры, а в остальном всё как обычно. Уважаем друг друга, не грубим, соблюдаем нормы поведения на конференции, оформляем анонсы и запросы красиво и информативно, что бы модераторы не посчитали их троллингом, и не отправили куда положено, выписав Вам предупреждение или ещё что похуже… Прежде чем что-то запросить или запостить, пользуемся поиском! Пользуемся поиском! ПОЛЬЗУЕМСЯ ПОИСКОМ!!! Так слышно меня?.. :pardon:
Интересного, конструктивного и креативного общения! ;)



Post new topic Reply to topic  [ 8 posts ] 
Author Message
 
PostPosted: 31 May 2016 
Генеральный thrasher
User avatar
Joined: 03 Oct 2008
Posts: 3532
Lоcаtion: Ханты-Мансийский АО
Age: 43
Name: Сергей
Image

Year:1990 (2014 Re-Issue)
Style:Thrash Metal
Country:U.S.A.
Archive:Flac+Cue+Log+Scans
Size:297Mb
Source:my CD
Label:Divebomb Records

Line-Up:
Bob Lumb - guitars
Vic Van Wie - vocals
Anthony Pagono - drums
Dean Bouras - guitars
John Smith - bass

Tracklist:
01. Maniac 04:59
02. Slay Ground 04:46
03. Metal Cry 04:25
04. Victim 04:01
05. Patriot 04:55
06. Betrayer 03:50
07. P.O.W. 04:06
08. Enemy in Our Midst 04:19
09. Band Interview (1990) 04:38

"Cue"
REM GENRE "Thrash Metal"
REM DATE 2014
REM DISCID 6A095A09
REM COMMENT "ExactAudioCopy v1.1"
PERFORMER "Erotikill"
TITLE "Virgin Speed"
FILE "Erotikill - Virgin Speed.flac" WAVE
TRACK 01 AUDIO
TITLE "Maniac"
PERFORMER "Erotikill"
FLAGS DCP
INDEX 01 00:00:00
TRACK 02 AUDIO
TITLE "Slay Ground"
PERFORMER "Erotikill"
FLAGS DCP
INDEX 01 04:58:64
TRACK 03 AUDIO
TITLE "Metal Cry"
PERFORMER "Erotikill"
FLAGS DCP
INDEX 01 09:44:21
TRACK 04 AUDIO
TITLE "Victim"
PERFORMER "Erotikill"
FLAGS DCP
INDEX 01 14:08:48
TRACK 05 AUDIO
TITLE "Patriot"
PERFORMER "Erotikill"
FLAGS DCP
INDEX 01 18:09:35
TRACK 06 AUDIO
TITLE "Betrayer"
PERFORMER "Erotikill"
FLAGS DCP
INDEX 01 23:03:64
TRACK 07 AUDIO
TITLE "P.O.W. "
PERFORMER "Erotikill"
FLAGS DCP
INDEX 01 26:53:12
TRACK 08 AUDIO
TITLE "Enemy in Our Midst"
PERFORMER "Erotikill"
FLAGS DCP
INDEX 01 30:58:36
TRACK 09 AUDIO
TITLE "Band Interview (1990)"
PERFORMER "Erotikill"
FLAGS DCP
INDEX 00 35:13:15
INDEX 01 35:17:15

"Log"
Exact Audio Copy V1.1 from 23. June 2015

Отчёт EAC об извлечении, выполненном 29. мая 2016, 20:19

Erotikill / Virgin Speed

Дисковод: HL-DT-STDVDRAM GTA0N Adapter: 1 ID: 0

Режим чтения : Достоверность
Использование точного потока : Да
Отключение кэша аудио : Да
Использование указателей C2 : Нет

Коррекция смещения при чтении : 102
Способность читать области Lead-in и Lead-out : Нет
Заполнение пропущенных сэмплов тишиной : Да
Удаление блоков с тишиной в начале и конце : Нет
При вычислениях CRC использовались нулевые сэмплы : Да
Интерфейс : Встроенный Win32-интерфейс для Win NT/2000

Выходной формат : Пользовательский кодировщик
Выбранный битрейт : 768 kBit/s
Качество : Высокий
Добавление ID3-тега : Нет
Утилита сжатия : C:\Program Files (x86)\Exact Audio Copy\FLAC\FLAC.EXE
Дополнительные параметры : -6 -V -T "ARTIST=%artist%" -T "TITLE=%title%" -T "ALBUM=%albumtitle%" -T "DATE=%year%" -T "TRACKNUMBER=%tracknr%" -T "GENRE=%genre%" -T "COMMENT=%comment%" -T "BAND=%albuminterpret%" -T "ALBUMARTIST=%albuminterpret%" -T "COMPOSER=%composer%" %haslyrics%--tag-from-file=LYRICS="%lyricsfile%"%haslyrics% -T "DISCNUMBER=%cdnumber%" -T "TOTALDISCS=%totalcds%" -T "TOTALTRACKS=%numtracks%" %hascover%--picture="%coverfile%"%hascover% %source% -o %dest%


TOC извлечённого CD

Трек | Старт | Длительность | Начальный сектор | Конечный сектор
---------------------------------------------------------------------
1 | 0:00.00 | 4:58.64 | 0 | 22413
2 | 4:58.64 | 4:45.32 | 22414 | 43820
3 | 9:44.21 | 4:24.27 | 43821 | 63647
4 | 14:08.48 | 4:00.62 | 63648 | 81709
5 | 18:09.35 | 4:54.29 | 81710 | 103788
6 | 23:03.64 | 3:49.23 | 103789 | 120986
7 | 26:53.12 | 4:05.24 | 120987 | 139385
8 | 30:58.36 | 4:18.54 | 139386 | 158789
9 | 35:17.15 | 4:37.39 | 158790 | 179603


Характеристики диапазона извлечения и сообщения об ошибках

Выбранный диапазон

Имя файла C:\Users\магазин\Music\Erotikill - Virgin Speed.wav

Пиковый уровень 100.0 %
Скорость извлечения 3.7 X
Качество диапазона 99.9 %
CRC копии 3C7F8D93
Копирование... OK

Ошибок не произошло


AccurateRip: сводка

Трек 1 : извлечено точно (доверие 1) [09C2E081] (AR v2)
Трек 2 : извлечено точно (доверие 1) [AF01AD44] (AR v2)
Трек 3 : извлечено точно (доверие 1) [C3CAC361] (AR v2)
Трек 4 : извлечено точно (доверие 1) [25066016] (AR v2)
Трек 5 : извлечено точно (доверие 1) [126F2F2A] (AR v2)
Трек 6 : извлечено точно (доверие 1) [3B78E5EF] (AR v2)
Трек 7 : извлечено точно (доверие 1) [CE05CDC5] (AR v2)
Трек 8 : извлечено точно (доверие 1) [5E4F88AC] (AR v2)
Трек 9 : извлечено точно (доверие 1) [D1B706C6] (AR v2)

Все треки извлечены точно

Конец отчёта

---- CUETools DB Plugin V2.1.6

[CTDB TOCID: g8fUfe.1mFOhNm_u4ufYTv8U3vQ-] found
Submit result: g8fUfe.1mFOhNm_u4ufYTv8U3vQ- has been confirmed
Track | CTDB Status
1 | (2/2) Accurately ripped
2 | (2/2) Accurately ripped
3 | (2/2) Accurately ripped
4 | (2/2) Accurately ripped
5 | (2/2) Accurately ripped
6 | (2/2) Accurately ripped
7 | (2/2) Accurately ripped
8 | (2/2) Accurately ripped
9 | (2/2) Accurately ripped


Virgin Speed


Top
 Profile  
 
 
PostPosted: 31 May 2016 
консэрваторъ
Joined: 11 Aug 2007
Posts: 16308
Lоcаtion: Псков
Age: 44
Name: Сергей
О!.. Американцы с одним альбомом и ипихой... http://www.metal-archives.com/bands/Erotikill/76055 интересненько...

_________________
THRASH 'EM ALL


Top
 Profile E-mail  
 
 
PostPosted: 31 May 2016 
Генеральный thrasher
User avatar
Joined: 03 Oct 2008
Posts: 3532
Lоcаtion: Ханты-Мансийский АО
Age: 43
Name: Сергей
Ты ж любишь,Серёга,американский трэш.Стандартная для тех лет,но весьма неплохая работа.


Top
 Profile  
 
 
PostPosted: 31 May 2016 
Труъ
User avatar
Joined: 30 Aug 2007
Posts: 119
Lоcаtion: Москва
спасибо


Top
 Profile  
 
 
PostPosted: 31 May 2016 
Персональный статус
User avatar
Joined: 28 Mar 2013
Posts: 420
Lоcаtion: Russia (Bryansk)
Age: 25
Name: Michael
Спасибо :thanx:


Top
 Profile E-mail  
 
 
PostPosted: 31 May 2016 
Прокъмитолист
User avatar
Joined: 12 Aug 2007
Posts: 6512
Lоcаtion: Санктъ-Петербуркъ
Age: 51
Name: Олекъ
:thanx:

_________________
прокъметол - это музыко, от которово есть прок (ы)


Top
 Profile  
 
 
PostPosted: 31 May 2016 
А может смените мне статус?..
Joined: 03 Jul 2009
Posts: 836
Lоcаtion: Serbia
Name: Laki
:thanx:


Top
 Profile E-mail  
 
 
PostPosted: 31 May 2016 
консэрваторъ
Joined: 11 Aug 2007
Posts: 16308
Lоcаtion: Псков
Age: 44
Name: Сергей
Дооолго разгоняются на вступительной вещи... 3 минуты... вот разогнались, уже лучше... Вторая вещь качающая... да... хорошо... ещё понаподдать бы!.. Во!.. Metal Cry... погнали засверливать!.. Victim... с середины весьма правильный наждачный круг... очень хорош!.. The Patriot лобзики любимые!.. Чуть было не сказал, что 6-ой трек проходной, но в середины зарядили как надо... P.O.W. очень сильно претендует на шедевр, в лучших традициях ФайтФаяВизФая!.. И закрывашка тоже не подкачала, очень шустро, зарубисто!..
Круто, Серёг!.. просто я давненько трэшу старенького не слушал, и сначала чуть было не воспринял в штыки... а фигли так мутно начинать-то?.. :oops: Трэшерам в коллекции иметь однозначно, забираю, спасибо большое!.. :lob:

На ипихе три трека с альбома плюс интервью, которое на этом переиздание присутствует... НЕ ищется соответственно...

_________________
THRASH 'EM ALL


Top
 Profile E-mail  
 
Display posts from previous:  Sort by  
Post new topic Reply to topic  [ 8 posts ] 

All times are UTC + 3 hours


Who is online

Users browsing this forum: No registered users and 4 guests


You cannot post new topics in this forum
You cannot reply to topics in this forum
You cannot edit your posts in this forum
You cannot delete your posts in this forum
You cannot post attachments in this forum

Search for:
Яндекс.Метрика
Powered by phpBB © 2000, 2002, 2005, 2007 phpBB Group