\m/ 80's metal \m/

Информационно-аналитический форум "80 см пыли" (In Search We Trust) "У нас никто никуда не спешит"
Me For You - http://me-4u.com
It is currently 14 Dec 2018

All times are UTC + 3 hours

Spoiler
Chat - temporary registration for foreign users (please leave your application here)





Forum rules


Уважаемые пользователи ресурса, друзья, коллеги и гости нашего форума. Данный раздел конференции создан с целью рафинации, и посвящён такому стилевому направлению в музыке, как Thrash Metal во всех его проявлениях и ипостасях, а иногда и переходящему на пограничные стили Speed, Power, Groove, Crossover, MDM и т.п.
Главное правило здесь одно: Одна группа – одна тема! Всё остальное созвучно основным нормам поведения на конференции.
Шаблон оформления тем в этом подфоруме должен быть основан на данных сайта www.metal-archives.com и выглядеть следующим образом:

Группа (Страна) - Стилевые рамки - дискография
Slayer (USA) - Thrash Metal - дискография


В теме допустимо размещение всей информации касающейся данного коллектива: анонсы любых альбомов в любых форматах, запросы любых релизов коллектива (кроме релизов текущего и прошлого годов), обсуждения, обзоры, а в остальном всё как обычно. Уважаем друг друга, не грубим, соблюдаем нормы поведения на конференции, оформляем анонсы и запросы красиво и информативно, что бы модераторы не посчитали их троллингом, и не отправили куда положено, выписав Вам предупреждение или ещё что похуже… Прежде чем что-то запросить или запостить, пользуемся поиском! Пользуемся поиском! ПОЛЬЗУЕМСЯ ПОИСКОМ!!! Так слышно меня?.. :pardon:
Интересного, конструктивного и креативного общения! ;)



Post new topic Reply to topic  [ 12 posts ] 
Author Message
 
PostPosted: 23 May 2016 
Генеральный thrasher
User avatar
Joined: 03 Oct 2008
Posts: 3536
Lоcаtion: Ханты-Мансийский АО
Age: 43
Name: Сергей
Снова макаронники...снова трэш...пока единственный альбом

Image

Year:2011
Style:Thrash Metal
Country:Italy
Archive:Flac+Cue+Log+Scans
Size:444Mb
Source:my CD
Label:SG Records

Line-Up:
Tony De Marco - vocals,guitars
Paul Medina - bass
Simone Bosi - drums
Fabio Cantone - guitars

Tracklist:
01. Dust 00:58
02. 1936 06:28
03. Earth Attack 02:43
04. World of Fashion 05:16
05. Morrow 05:47
06. Face to Face 07:53
07. Deep Forest Night 07:33
08. Blood Buster 05:31
09. Bad News, Good Stuff 00:52
10. Scoop! 05:57
11. Enigma 09:02

"Cue"
REM GENRE "Thrash Metal"
REM DATE 2011
REM DISCID A60D940B
REM COMMENT "ExactAudioCopy v1.1"
PERFORMER "Tramortiria"
TITLE "Wrath Among The Dead"
FILE "Tramortiria - Wrath Among The Dead.flac" WAVE
TRACK 01 AUDIO
TITLE "Dust"
PERFORMER "Tramortiria"
INDEX 01 00:00:00
TRACK 02 AUDIO
TITLE "1936"
PERFORMER "Tramortiria"
INDEX 01 00:57:20
TRACK 03 AUDIO
TITLE "Earth Attack"
PERFORMER "Tramortiria"
INDEX 00 07:22:74
INDEX 01 07:24:74
TRACK 04 AUDIO
TITLE "World Of Fashion"
PERFORMER "Tramortiria"
INDEX 00 10:07:58
INDEX 01 10:07:59
TRACK 05 AUDIO
TITLE "Morrow"
PERFORMER "Tramortiria"
INDEX 01 15:22:64
TRACK 06 AUDIO
TITLE "Face to Face"
PERFORMER "Tramortiria"
INDEX 00 21:07:34
INDEX 01 21:09:34
TRACK 07 AUDIO
TITLE "Deep Forest Night"
PERFORMER "Tramortiria"
INDEX 00 29:00:34
INDEX 01 29:02:34
TRACK 08 AUDIO
TITLE "Blood Buster"
PERFORMER "Tramortiria"
INDEX 00 36:33:34
INDEX 01 36:35:34
TRACK 09 AUDIO
TITLE "Bad News, Good Stuff"
PERFORMER "Tramortiria"
INDEX 00 42:04:33
INDEX 01 42:06:34
TRACK 10 AUDIO
TITLE "Scoop!"
PERFORMER "Tramortiria"
INDEX 00 42:57:53
INDEX 01 42:57:54
TRACK 11 AUDIO
TITLE "Enigma"
PERFORMER "Tramortiria"
INDEX 00 48:52:34
INDEX 01 48:54:34

"Log"
Exact Audio Copy V1.1 from 23. June 2015

Отчёт EAC об извлечении, выполненном 22. мая 2016, 10:50

Tramortiria / Wrath Among The Dead

Дисковод: HL-DT-STDVDRAM GTA0N Adapter: 1 ID: 0

Режим чтения : Достоверность
Использование точного потока : Да
Отключение кэша аудио : Да
Использование указателей C2 : Нет

Коррекция смещения при чтении : 102
Способность читать области Lead-in и Lead-out : Нет
Заполнение пропущенных сэмплов тишиной : Да
Удаление блоков с тишиной в начале и конце : Нет
При вычислениях CRC использовались нулевые сэмплы : Да
Интерфейс : Встроенный Win32-интерфейс для Win NT/2000

Выходной формат : Пользовательский кодировщик
Выбранный битрейт : 768 kBit/s
Качество : Высокий
Добавление ID3-тега : Нет
Утилита сжатия : C:\Program Files (x86)\Exact Audio Copy\FLAC\FLAC.EXE
Дополнительные параметры : -6 -V -T "ARTIST=%artist%" -T "TITLE=%title%" -T "ALBUM=%albumtitle%" -T "DATE=%year%" -T "TRACKNUMBER=%tracknr%" -T "GENRE=%genre%" -T "COMMENT=%comment%" -T "BAND=%albuminterpret%" -T "ALBUMARTIST=%albuminterpret%" -T "COMPOSER=%composer%" %haslyrics%--tag-from-file=LYRICS="%lyricsfile%"%haslyrics% -T "DISCNUMBER=%cdnumber%" -T "TOTALDISCS=%totalcds%" -T "TOTALTRACKS=%numtracks%" %hascover%--picture="%coverfile%"%hascover% %source% -o %dest%


TOC извлечённого CD

Трек | Старт | Длительность | Начальный сектор | Конечный сектор
---------------------------------------------------------------------
1 | 0:00.00 | 0:57.20 | 0 | 4294
2 | 0:57.20 | 6:27.54 | 4295 | 33373
3 | 7:24.74 | 2:42.60 | 33374 | 45583
4 | 10:07.59 | 5:15.05 | 45584 | 69213
5 | 15:22.64 | 5:46.45 | 69214 | 95208
6 | 21:09.34 | 7:53.00 | 95209 | 130683
7 | 29:02.34 | 7:33.00 | 130684 | 164658
8 | 36:35.34 | 5:31.00 | 164659 | 189483
9 | 42:06.34 | 0:51.20 | 189484 | 193328
10 | 42:57.54 | 5:56.55 | 193329 | 220083
11 | 48:54.34 | 9:02.00 | 220084 | 260733


Характеристики диапазона извлечения и сообщения об ошибках

Выбранный диапазон

Имя файла C:\Users\магазин\Music\Tramortiria - Wrath Among The Dead.wav

Пиковый уровень 98.8 %
Скорость извлечения 4.1 X
Качество диапазона 100.0 %
CRC копии 6941DF67
Копирование... OK

Ошибок не произошло


AccurateRip: сводка

Трек 1 отсутствует в базе данных
Трек 2 отсутствует в базе данных
Трек 3 отсутствует в базе данных
Трек 4 отсутствует в базе данных
Трек 5 отсутствует в базе данных
Трек 6 отсутствует в базе данных
Трек 7 отсутствует в базе данных
Трек 8 отсутствует в базе данных
Трек 9 отсутствует в базе данных
Трек 10 отсутствует в базе данных
Трек 11 отсутствует в базе данных

Ни одного трека нет в базе AccurateRip

Конец отчёта

---- CUETools DB Plugin V2.1.6

[CTDB TOCID: 7ln9IpnUeemzOAOLGOijpm3bX1Y-] found
Submit result: 7ln9IpnUeemzOAOLGOijpm3bX1Y- has been confirmed
Track | CTDB Status
1 | (1/1) Accurately ripped
2 | (1/1) Accurately ripped
3 | (1/1) Accurately ripped
4 | (1/1) Accurately ripped
5 | (1/1) Accurately ripped
6 | (1/1) Accurately ripped
7 | (1/1) Accurately ripped
8 | (1/1) Accurately ripped
9 | (1/1) Accurately ripped
10 | (1/1) Accurately ripped
11 | (1/1) Accurately ripped


Wrath Among The Dead


Top
 Profile  
 
 
PostPosted: 23 May 2016 
Прокъмитолист
User avatar
Joined: 12 Aug 2007
Posts: 6514
Lоcаtion: Санктъ-Петербуркъ
Age: 51
Name: Олекъ
:thanx:

_________________
прокъметол - это музыко, от которово есть прок (ы)


Top
 Profile  
 
 
PostPosted: 23 May 2016 
Alive Again
User avatar
Joined: 17 Dec 2008
Posts: 4744
Lоcаtion: Курск Воронеж Оскол
Age: 44
Name: Дмитрий
:thanx:


Top
 Profile E-mail  
 
 
PostPosted: 23 May 2016 
Работнечег
User avatar
Joined: 28 Aug 2007
Posts: 5606
Lоcаtion: г. Москва
Age: 29
Name: Дима
Спасибо, Серег! :true: Сколько в 2000-х стало в Италии треша появляться)) Олдскульного правда по-моему очень мало, но есть хорошие группы, типо Neurasthenia той же.


Top
 Profile E-mail  
 
 
PostPosted: 23 May 2016 
Генеральный thrasher
User avatar
Joined: 03 Oct 2008
Posts: 3536
Lоcаtion: Ханты-Мансийский АО
Age: 43
Name: Сергей
Спасибо, Серег! :true: Сколько в 2000-х стало в Италии треша появляться)) Олдскульного правда по-моему очень мало, но есть хорошие группы, типо Neurasthenia той же.


Дим,Neurasthenia отличная банда.Но посмотри мои посты здесь и на трэкере и увидишь ещё немало интересного.


Top
 Profile  
 
 
PostPosted: 23 May 2016 
Работнечег
User avatar
Joined: 28 Aug 2007
Posts: 5606
Lоcаtion: г. Москва
Age: 29
Name: Дима
Спасибо, Серег! :true: Сколько в 2000-х стало в Италии треша появляться)) Олдскульного правда по-моему очень мало, но есть хорошие группы, типо Neurasthenia той же.


Дим,Neurasthenia отличная банда.Но посмотри мои посты здесь и на трэкере и увидишь ещё немало интересного.

Не сомневаюсь, Серег! Но времени слушать всё интересное, к сожалению, нет, поэтому только выборочно. Тут еще много страничек на форуме непросмотренных, потихонечку разгребаю!


Top
 Profile E-mail  
 
 
PostPosted: 23 May 2016 
консэрваторъ
Joined: 11 Aug 2007
Posts: 16319
Lоcаtion: Псков
Age: 44
Name: Сергей
Забрато, спасибо!.. Хм... 10 лет отыграли и не записали ни одной демки... и внезапно альбумус... :scratch:
http://www.metal-archives.com/bands/Tra ... 3540340596

_________________
THRASH 'EM ALL


Top
 Profile E-mail  
 
 
PostPosted: 24 May 2016 
консэрваторъ
Joined: 11 Aug 2007
Posts: 16319
Lоcаtion: Псков
Age: 44
Name: Сергей
Эпичные не по годам, длиннющие песни 07:53, 07:33, 09:02... Несколько тягомотно, им бы со звуком поработать, а так вполне монументально... :thanx:

_________________
THRASH 'EM ALL


Top
 Profile E-mail  
 
 
PostPosted: 24 May 2016 
Я набрал 1000 сообщений!
Joined: 09 Jul 2008
Posts: 2482
Age: 45
Name: Сергей
присоединюсь к последнему оратору


Top
 Profile  
 
 
PostPosted: 24 May 2016 
Хиппей (support team)
User avatar
Joined: 30 Jul 2007
Posts: 108901
Lоcаtion: Киев (Kyiv, UA)
Age: 45
Name: Andrey
:thanx:

mirror: iFolder l Narod l M-Cloud

_________________


Top
 Profile E-mail  
 
 
PostPosted: 24 May 2016 
Хиппей (support team)
User avatar
Joined: 30 Jul 2007
Posts: 108901
Lоcаtion: Киев (Kyiv, UA)
Age: 45
Name: Andrey
Уфффф, какой вокал жыыырный :kz: :kz: :kz:
Слушаю пока альбом...

_________________


Top
 Profile E-mail  
 
 
PostPosted: 25 May 2016 
Хиппей (support team)
User avatar
Joined: 30 Jul 2007
Posts: 108901
Lоcаtion: Киев (Kyiv, UA)
Age: 45
Name: Andrey
Эх, хороша работа. Хо-ро-ша :lob: :lob: :lob:

8/10

_________________


Top
 Profile E-mail  
 
Display posts from previous:  Sort by  
Post new topic Reply to topic  [ 12 posts ] 

All times are UTC + 3 hours


Who is online

Users browsing this forum: No registered users and 4 guests


You cannot post new topics in this forum
You cannot reply to topics in this forum
You cannot edit your posts in this forum
You cannot delete your posts in this forum
You cannot post attachments in this forum

Search for:
Яндекс.Метрика
Powered by phpBB © 2000, 2002, 2005, 2007 phpBB Group