\m/ 80's metal \m/

Информационно-аналитический форум "80 см пыли" (In Search We Trust) "У нас никто никуда не спешит"
Me For You - http://me-4u.com
It is currently 15 Dec 2018

All times are UTC + 3 hours

Spoiler
Chat - temporary registration for foreign users (please leave your application here)





Forum rules


Уважаемые пользователи ресурса, друзья, коллеги и гости нашего форума. Данный раздел конференции создан с целью рафинации, и посвящён такому стилевому направлению в музыке, как Thrash Metal во всех его проявлениях и ипостасях, а иногда и переходящему на пограничные стили Speed, Power, Groove, Crossover, MDM и т.п.
Главное правило здесь одно: Одна группа – одна тема! Всё остальное созвучно основным нормам поведения на конференции.
Шаблон оформления тем в этом подфоруме должен быть основан на данных сайта www.metal-archives.com и выглядеть следующим образом:

Группа (Страна) - Стилевые рамки - дискография
Slayer (USA) - Thrash Metal - дискография


В теме допустимо размещение всей информации касающейся данного коллектива: анонсы любых альбомов в любых форматах, запросы любых релизов коллектива (кроме релизов текущего и прошлого годов), обсуждения, обзоры, а в остальном всё как обычно. Уважаем друг друга, не грубим, соблюдаем нормы поведения на конференции, оформляем анонсы и запросы красиво и информативно, что бы модераторы не посчитали их троллингом, и не отправили куда положено, выписав Вам предупреждение или ещё что похуже… Прежде чем что-то запросить или запостить, пользуемся поиском! Пользуемся поиском! ПОЛЬЗУЕМСЯ ПОИСКОМ!!! Так слышно меня?.. :pardon:
Интересного, конструктивного и креативного общения! ;)



Post new topic Reply to topic  [ 17 posts ] 
Author Message
 
PostPosted: 13 May 2016 
Генеральный thrasher
User avatar
Joined: 03 Oct 2008
Posts: 3536
Lоcаtion: Ханты-Мансийский АО
Age: 43
Name: Сергей
Ещё порция трэшующих итальянцев из закромов.

Image

Year:2015
Style:Thrash Metal
Country:Italy
Archive:Flac+Cue+Log+Scans
Size:309Mb
Source:my CD
Label:Nightbreaker Productions

Line-Up:
Deriu - vocals
Jak - guitars
Borto - guitars
Chene - bass
Corra - drums

Tracklist:
01. Cane Arrabbiato (Rabid Dog) 04:53
02. Blind 04:11
03. Human 04:44
04. The Springwood Slasher 05:29
05. You Deserve To Die 03:36
06. My Day 04:19
07. Serial Victim 04:45
08. Parasite 04:30
09. La Polizia Non Puo Sparare 04:33

"Cue"
REM GENRE "Thrash Metal"
REM DATE 2015
REM DISCID 7A099809
REM COMMENT "ExactAudioCopy v1.1"
PERFORMER "Final Fright"
TITLE "Artificial Perfection"
FILE "Final Fright - Artificial Perfection.flac" WAVE
TRACK 01 AUDIO
TITLE "Cane Arrabbiato (Rabid Dog)"
PERFORMER "Final Fright"
INDEX 01 00:00:00
TRACK 02 AUDIO
TITLE "Blind"
PERFORMER "Final Fright"
INDEX 00 04:50:60
INDEX 01 04:52:60
TRACK 03 AUDIO
TITLE "Human"
PERFORMER "Final Fright"
INDEX 00 09:01:05
INDEX 01 09:03:05
TRACK 04 AUDIO
TITLE "The Springwood Slasher"
PERFORMER "Final Fright"
INDEX 00 13:44:65
INDEX 01 13:46:65
TRACK 05 AUDIO
TITLE "You Deserve To Die"
PERFORMER "Final Fright"
INDEX 01 19:15:13
TRACK 06 AUDIO
TITLE "My Day"
PERFORMER "Final Fright"
INDEX 00 22:49:11
INDEX 01 22:51:11
TRACK 07 AUDIO
TITLE "Serial Victim"
PERFORMER "Final Fright"
INDEX 00 27:07:71
INDEX 01 27:09:71
TRACK 08 AUDIO
TITLE "Parasite"
PERFORMER "Final Fright"
INDEX 01 31:54:31
TRACK 09 AUDIO
TITLE "La Polizia Non Puo Sparare"
PERFORMER "Final Fright"
INDEX 00 36:22:04
INDEX 01 36:24:04

"Log"
Exact Audio Copy V1.1 from 23. June 2015

Отчёт EAC об извлечении, выполненном 13. мая 2016, 12:08

Final Fright / Artificial Perfection

Дисковод: HL-DT-STDVDRAM GTA0N Adapter: 1 ID: 0

Режим чтения : Достоверность
Использование точного потока : Да
Отключение кэша аудио : Да
Использование указателей C2 : Нет

Коррекция смещения при чтении : 102
Способность читать области Lead-in и Lead-out : Нет
Заполнение пропущенных сэмплов тишиной : Да
Удаление блоков с тишиной в начале и конце : Нет
При вычислениях CRC использовались нулевые сэмплы : Да
Интерфейс : Встроенный Win32-интерфейс для Win NT/2000

Выходной формат : Пользовательский кодировщик
Выбранный битрейт : 768 kBit/s
Качество : Высокий
Добавление ID3-тега : Нет
Утилита сжатия : C:\Program Files (x86)\Exact Audio Copy\FLAC\FLAC.EXE
Дополнительные параметры : -6 -V -T "ARTIST=%artist%" -T "TITLE=%title%" -T "ALBUM=%albumtitle%" -T "DATE=%year%" -T "TRACKNUMBER=%tracknr%" -T "GENRE=%genre%" -T "COMMENT=%comment%" -T "BAND=%albuminterpret%" -T "ALBUMARTIST=%albuminterpret%" -T "COMPOSER=%composer%" %haslyrics%--tag-from-file=LYRICS="%lyricsfile%"%haslyrics% -T "DISCNUMBER=%cdnumber%" -T "TOTALDISCS=%totalcds%" -T "TOTALTRACKS=%numtracks%" %hascover%--picture="%coverfile%"%hascover% %source% -o %dest%


TOC извлечённого CD

Трек | Старт | Длительность | Начальный сектор | Конечный сектор
---------------------------------------------------------------------
1 | 0:00.00 | 4:52.60 | 0 | 21959
2 | 4:52.60 | 4:10.20 | 21960 | 40729
3 | 9:03.05 | 4:43.60 | 40730 | 62014
4 | 13:46.65 | 5:28.23 | 62015 | 86637
5 | 19:15.13 | 3:35.73 | 86638 | 102835
6 | 22:51.11 | 4:18.60 | 102836 | 122245
7 | 27:09.71 | 4:44.35 | 122246 | 143580
8 | 31:54.31 | 4:29.48 | 143581 | 163803
9 | 36:24.04 | 4:32.17 | 163804 | 184220


Характеристики диапазона извлечения и сообщения об ошибках

Выбранный диапазон

Имя файла C:\Users\магазин\Music\Final Fright - Artificial Perfection.wav

Пиковый уровень 97.8 %
Скорость извлечения 3.8 X
Качество диапазона 100.0 %
CRC копии 30B399FE
Копирование... OK

Ошибок не произошло


AccurateRip: сводка

Трек 1 отсутствует в базе данных
Трек 2 отсутствует в базе данных
Трек 3 отсутствует в базе данных
Трек 4 отсутствует в базе данных
Трек 5 отсутствует в базе данных
Трек 6 отсутствует в базе данных
Трек 7 отсутствует в базе данных
Трек 8 отсутствует в базе данных
Трек 9 отсутствует в базе данных

Ни одного трека нет в базе AccurateRip

Конец отчёта

---- CUETools DB Plugin V2.1.6

[CTDB TOCID: qnycSkph7n4bCm6qdKQ3qF9KoNA-] found
Submit result: qnycSkph7n4bCm6qdKQ3qF9KoNA- has been confirmed
Track | CTDB Status
1 | (1/1) Accurately ripped
2 | (1/1) Accurately ripped
3 | (1/1) Accurately ripped
4 | (1/1) Accurately ripped
5 | (1/1) Accurately ripped
6 | (1/1) Accurately ripped
7 | (1/1) Accurately ripped
8 | (1/1) Accurately ripped
9 | (1/1) Accurately ripped


Artificial Perfection


Top
 Profile  
 
 
PostPosted: 13 May 2016 
Прокъмитолист
User avatar
Joined: 12 Aug 2007
Posts: 6514
Lоcаtion: Санктъ-Петербуркъ
Age: 51
Name: Олекъ
:thanx:

_________________
прокъметол - это музыко, от которово есть прок (ы)


Top
 Profile  
 
 
PostPosted: 13 May 2016 
Хиппей (support team)
User avatar
Joined: 30 Jul 2007
Posts: 108909
Lоcаtion: Киев (Kyiv, UA)
Age: 45
Name: Andrey
:thanx:

mirror: iFolder l Narod l M-Cloud

_________________


Top
 Profile E-mail  
 
 
PostPosted: 13 May 2016 
Я набрал 1000 сообщений!
Joined: 09 Jul 2008
Posts: 2484
Age: 45
Name: Сергей
рекомендую смотреть клипы )


Top
 Profile  
 
 
PostPosted: 13 May 2016 
Я набрал 1000 сообщений!
Joined: 09 Jul 2008
Posts: 2484
Age: 45
Name: Сергей
оп-па.. они уже распасться успели


Top
 Profile  
 
 
PostPosted: 13 May 2016 
консэрваторъ
Joined: 11 Aug 2007
Posts: 16320
Lоcаtion: Псков
Age: 44
Name: Сергей
Берём, спасибо!.. :lob:

_________________
THRASH 'EM ALL


Top
 Profile E-mail  
 
 
PostPosted: 14 May 2016 
Хиппей (support team)
User avatar
Joined: 30 Jul 2007
Posts: 108909
Lоcаtion: Киев (Kyiv, UA)
Age: 45
Name: Andrey
Альбом хорош. Музыка хороша (Thrash + Hadrcore), но... вокалист не в тему немного.
Зачем-то пытается петь в хардкоре и трэше, а не выкрикивать слова или речитативить.
Ок, пел бы, кабы умел, пример Беладонны в Антраксе показателен, что в трэше хардкористом можно тоже петь.
Но... не умеет итальянец нормально петь :pardon:

5+/10

_________________


Top
 Profile E-mail  
 
 
PostPosted: 15 May 2016 
консэрваторъ
Joined: 11 Aug 2007
Posts: 16320
Lоcаtion: Псков
Age: 44
Name: Сергей
А есть ли у кого Final Fright - Wrapped in Chains 2014 (EP) в качестве получше, чем 128 ?.. :oops:
В сети проскакиваю следы файла 35,59 метров, но увы, всё посдыхало...
Code:
http://rapidgator.net/file/dc8b1ac85f28a032f941e313e2932def/Final_Fright-Wrapped_In_Chains-(EP)-2014-RTB.rar

Подзагубили им звук на альбоме... Ипиха звучит даже лучше...

_________________
THRASH 'EM ALL


Top
 Profile E-mail  
 
 
PostPosted: 15 May 2016 
Alive Again
User avatar
Joined: 17 Dec 2008
Posts: 4744
Lоcаtion: Курск Воронеж Оскол
Age: 44
Name: Дмитрий
:thanx:


Top
 Profile E-mail  
 
 
PostPosted: 16 May 2016 
Труъ
User avatar
Joined: 30 Aug 2007
Posts: 119
Lоcаtion: Москва
спасибо


Top
 Profile  
 
 
PostPosted: 17 May 2016 
Хиппей (support team)
User avatar
Joined: 30 Jul 2007
Posts: 108909
Lоcаtion: Киев (Kyiv, UA)
Age: 45
Name: Andrey
А есть ли у кого Final Fright - Wrapped in Chains 2014 (EP) в качестве получше, чем 128 ?.. :oops:
В сети проскакиваю следы файла 35,59 метров, но увы, всё посдыхало...
Code:
http://rapidgator.net/file/dc8b1ac85f28a032f941e313e2932def/Final_Fright-Wrapped_In_Chains-(EP)-2014-RTB.rar

Подзагубили им звук на альбоме... Ипиха звучит даже лучше...

Странно, чего они страничку https://finalfright.bandcamp.com даже свою ликвидейшн? :vic:

_________________


Top
 Profile E-mail  
 
 
PostPosted: 17 May 2016 
консэрваторъ
Joined: 11 Aug 2007
Posts: 16320
Lоcаtion: Псков
Age: 44
Name: Сергей
Ага, все концы в воду... поспасибкали на FB, попрощались и пошли работать... :vic:

_________________
THRASH 'EM ALL


Top
 Profile E-mail  
 
 
PostPosted: 18 May 2016 
Хиппей (support team)
User avatar
Joined: 30 Jul 2007
Posts: 108909
Lоcаtion: Киев (Kyiv, UA)
Age: 45
Name: Andrey
Мдя, уж. Ну и да удачи им :kro:

Миник и я послушал. Нормательно.
Залью всё же ща и к нам в любом виде.

И еще. Только заметил, что группа называется не Final Fight :crazy: , а Final Fright :pardon:

_________________


Top
 Profile E-mail  
 
 
PostPosted: 18 May 2016 
Хиппей (support team)
User avatar
Joined: 30 Jul 2007
Posts: 108909
Lоcаtion: Киев (Kyiv, UA)
Age: 45
Name: Andrey
Final Fright - 2014 - Wrapped In Chains (EP) [128]

Image

mirror: iFolder l M-Cloud


Image

Image

_________________


Top
 Profile E-mail  
 
 
PostPosted: 18 May 2016 
Генеральный thrasher
User avatar
Joined: 03 Oct 2008
Posts: 3536
Lоcаtion: Ханты-Мансийский АО
Age: 43
Name: Сергей
Откуда картинки,Андрюха?


Top
 Profile  
 
 
PostPosted: 18 May 2016 
Хиппей (support team)
User avatar
Joined: 30 Jul 2007
Posts: 108909
Lоcаtion: Киев (Kyiv, UA)
Age: 45
Name: Andrey
Из папочки :kro:

_________________


Top
 Profile E-mail  
 
 
PostPosted: 19 May 2016 
Генеральный thrasher
User avatar
Joined: 03 Oct 2008
Posts: 3536
Lоcаtion: Ханты-Мансийский АО
Age: 43
Name: Сергей
Странно, чего они страничку https://finalfright.bandcamp.com даже свою ликвидейшн? :vic:


Могли бы демку и епишку на бэндкампе выложить.Странные парни!Или так друг другу надоели,что решили все следы своего пребывания в сети удалить?


Top
 Profile  
 
Display posts from previous:  Sort by  
Post new topic Reply to topic  [ 17 posts ] 

All times are UTC + 3 hours


Who is online

Users browsing this forum: No registered users and 4 guests


You cannot post new topics in this forum
You cannot reply to topics in this forum
You cannot edit your posts in this forum
You cannot delete your posts in this forum
You cannot post attachments in this forum

Search for:
Яндекс.Метрика
Powered by phpBB © 2000, 2002, 2005, 2007 phpBB Group