\m/ 80's metal \m/

Информационно-аналитический форум "80 см пыли" (In Search We Trust) "У нас никто никуда не спешит"
Me For You - http://me-4u.com
It is currently 18 Dec 2018

All times are UTC + 3 hours

Spoiler
Chat - temporary registration for foreign users (please leave your application here)





Forum rules


Уважаемые пользователи ресурса, друзья, коллеги и гости нашего форума. Данный раздел конференции создан с целью рафинации, и посвящён такому стилевому направлению в музыке, как Thrash Metal во всех его проявлениях и ипостасях, а иногда и переходящему на пограничные стили Speed, Power, Groove, Crossover, MDM и т.п.
Главное правило здесь одно: Одна группа – одна тема! Всё остальное созвучно основным нормам поведения на конференции.
Шаблон оформления тем в этом подфоруме должен быть основан на данных сайта www.metal-archives.com и выглядеть следующим образом:

Группа (Страна) - Стилевые рамки - дискография
Slayer (USA) - Thrash Metal - дискография


В теме допустимо размещение всей информации касающейся данного коллектива: анонсы любых альбомов в любых форматах, запросы любых релизов коллектива (кроме релизов текущего и прошлого годов), обсуждения, обзоры, а в остальном всё как обычно. Уважаем друг друга, не грубим, соблюдаем нормы поведения на конференции, оформляем анонсы и запросы красиво и информативно, что бы модераторы не посчитали их троллингом, и не отправили куда положено, выписав Вам предупреждение или ещё что похуже… Прежде чем что-то запросить или запостить, пользуемся поиском! Пользуемся поиском! ПОЛЬЗУЕМСЯ ПОИСКОМ!!! Так слышно меня?.. :pardon:
Интересного, конструктивного и креативного общения! ;)



Post new topic Reply to topic  [ 9 posts ] 
Author Message
 
PostPosted: 07 May 2016 
Генеральный thrasher
User avatar
Joined: 03 Oct 2008
Posts: 3539
Lоcаtion: Ханты-Мансийский АО
Age: 43
Name: Сергей
Первая и пока единственная работа команды из Тель-Авива

Image

Year:2014
Style:Thrash Metal/Crossover
Country:Israel
Archive:Flac+Cue+Log+Scans
Size:166Mb
Source:my CD
Label:Stormspell Records

Line-Up:
Eliran Balely - vocals
Lidor Sharaby - bass
Dor HaShamen Plaut - guitars
Noam Chizo Salingre - drums

Tracklist:
01. Haircut I Never Got 02:30
02. The IMF 02:23
03. Dubstep Sucks 01:16
04. Marx Was Right 03:49
05. Beer Law 02:25
06. Soher (Tamir Gal cover) 01:38
07. Capitalist Zombies 02:28
08. Fuck Your Law 01:19
09. Watchin´TV 02:14
10. Smoke Hash 02:12

"Cue"
REM GENRE "Thrash Metal/Crossover"
REM DATE 2014
REM DISCID 9005300A
REM COMMENT "ExactAudioCopy v1.1"
PERFORMER "Black Sachbak"
TITLE "No Pay No Gain"
FILE "Black Sachbak - No Pay No Gain.flac" WAVE
TRACK 01 AUDIO
TITLE "Haircut I Never Got"
PERFORMER "Black Sachbak"
FLAGS DCP
INDEX 01 00:00:00
TRACK 02 AUDIO
TITLE "The IMF"
PERFORMER "Black Sachbak"
FLAGS DCP
INDEX 01 02:29:19
TRACK 03 AUDIO
TITLE "Dubstep Sucks"
PERFORMER "Black Sachbak"
FLAGS DCP
INDEX 01 04:51:64
TRACK 04 AUDIO
TITLE "Marx Was Right"
PERFORMER "Black Sachbak"
FLAGS DCP
INDEX 01 06:07:06
TRACK 05 AUDIO
TITLE "Beer Law"
PERFORMER "Black Sachbak"
FLAGS DCP
INDEX 01 09:55:74
TRACK 06 AUDIO
TITLE "Soher (Tamir Gal cover)"
PERFORMER "Black Sachbak"
FLAGS DCP
INDEX 01 12:20:62
TRACK 07 AUDIO
TITLE "Capitalist Zombies"
PERFORMER "Black Sachbak"
FLAGS DCP
INDEX 01 13:58:25
TRACK 08 AUDIO
TITLE "Fuck Your Law"
PERFORMER "Black Sachbak"
FLAGS DCP
INDEX 01 16:25:26
TRACK 09 AUDIO
TITLE "Watchin' TV"
PERFORMER "Black Sachbak"
FLAGS DCP
INDEX 01 17:44:01
TRACK 10 AUDIO
TITLE "Smoke Hash"
PERFORMER "Black Sachbak"
FLAGS DCP
INDEX 01 19:57:13

"Log"
Exact Audio Copy V1.1 from 23. June 2015

Отчёт EAC об извлечении, выполненном 7. мая 2016, 11:14

Black Sachbak / No Pay No Gain

Дисковод: HL-DT-STDVDRAM GTA0N Adapter: 1 ID: 0

Режим чтения : Достоверность
Использование точного потока : Да
Отключение кэша аудио : Да
Использование указателей C2 : Нет

Коррекция смещения при чтении : 102
Способность читать области Lead-in и Lead-out : Нет
Заполнение пропущенных сэмплов тишиной : Да
Удаление блоков с тишиной в начале и конце : Нет
При вычислениях CRC использовались нулевые сэмплы : Да
Интерфейс : Встроенный Win32-интерфейс для Win NT/2000

Выходной формат : Пользовательский кодировщик
Выбранный битрейт : 768 kBit/s
Качество : Высокий
Добавление ID3-тега : Нет
Утилита сжатия : C:\Program Files (x86)\Exact Audio Copy\FLAC\FLAC.EXE
Дополнительные параметры : -6 -V -T "ARTIST=%artist%" -T "TITLE=%title%" -T "ALBUM=%albumtitle%" -T "DATE=%year%" -T "TRACKNUMBER=%tracknr%" -T "GENRE=%genre%" -T "COMMENT=%comment%" -T "BAND=%albuminterpret%" -T "ALBUMARTIST=%albuminterpret%" -T "COMPOSER=%composer%" %haslyrics%--tag-from-file=LYRICS="%lyricsfile%"%haslyrics% -T "DISCNUMBER=%cdnumber%" -T "TOTALDISCS=%totalcds%" -T "TOTALTRACKS=%numtracks%" %hascover%--picture="%coverfile%"%hascover% %source% -o %dest%


TOC извлечённого CD

Трек | Старт | Длительность | Начальный сектор | Конечный сектор
---------------------------------------------------------------------
1 | 0:00.00 | 2:29.19 | 0 | 11193
2 | 2:29.19 | 2:22.45 | 11194 | 21888
3 | 4:51.64 | 1:15.17 | 21889 | 27530
4 | 6:07.06 | 3:48.68 | 27531 | 44698
5 | 9:55.74 | 2:24.63 | 44699 | 55561
6 | 12:20.62 | 1:37.38 | 55562 | 62874
7 | 13:58.25 | 2:27.01 | 62875 | 73900
8 | 16:25.26 | 1:18.50 | 73901 | 79800
9 | 17:44.01 | 2:13.12 | 79801 | 89787
10 | 19:57.13 | 2:11.07 | 89788 | 99619


Характеристики диапазона извлечения и сообщения об ошибках

Выбранный диапазон

Имя файла C:\Users\магазин\Music\Black Sachbak - No Pay No Gain.wav

Пиковый уровень 99.2 %
Скорость извлечения 3.3 X
Качество диапазона 100.0 %
CRC копии 6E14D671
Копирование... OK

Ошибок не произошло


AccurateRip: сводка

Трек 1 : извлечено точно (доверие 1) [56B791AD] (AR v2)
Трек 2 : извлечено точно (доверие 1) [0BCFF40B] (AR v2)
Трек 3 : извлечено точно (доверие 1) [7805021D] (AR v2)
Трек 4 : извлечено точно (доверие 1) [4AE0CDA3] (AR v2)
Трек 5 : извлечено точно (доверие 1) [F97265A6] (AR v2)
Трек 6 : извлечено точно (доверие 1) [95AF7999] (AR v2)
Трек 7 : извлечено точно (доверие 1) [83C464A7] (AR v2)
Трек 8 : извлечено точно (доверие 1) [01130D5A] (AR v2)
Трек 9 : извлечено точно (доверие 1) [F941AC00] (AR v2)
Трек 10 : извлечено точно (доверие 1) [8E75B88E] (AR v2)

Все треки извлечены точно

Конец отчёта

---- CUETools DB Plugin V2.1.6

[CTDB TOCID: tLqvQ2UYcrRmvmokON4MGBq8qnI-] found
Submit result: tLqvQ2UYcrRmvmokON4MGBq8qnI- has been confirmed
Track | CTDB Status
1 | (1/1) Accurately ripped
2 | (1/1) Accurately ripped
3 | (1/1) Accurately ripped
4 | (1/1) Accurately ripped
5 | (1/1) Accurately ripped
6 | (1/1) Accurately ripped
7 | (1/1) Accurately ripped
8 | (1/1) Accurately ripped
9 | (1/1) Accurately ripped
10 | (1/1) Accurately ripped


No Pay No Gain


Top
 Profile  
 
 
PostPosted: 10 May 2016 
консэрваторъ
Joined: 11 Aug 2007
Posts: 16334
Lоcаtion: Псков
Age: 44
Name: Сергей
Спасибо, ознакомимся... :thanx:

_________________
THRASH 'EM ALL


Top
 Profile E-mail  
 
 
PostPosted: 13 May 2016 
Хиппей (support team)
User avatar
Joined: 30 Jul 2007
Posts: 108989
Lоcаtion: Киев (Kyiv, UA)
Age: 45
Name: Andrey
:thanx:

mirror: iFolder l Narod l M-Cloud

_________________


Top
 Profile E-mail  
 
 
PostPosted: 13 May 2016 
Хиппей (support team)
User avatar
Joined: 30 Jul 2007
Posts: 108989
Lоcаtion: Киев (Kyiv, UA)
Age: 45
Name: Andrey
Граждане евреи здесь играют Hardcore/Crossover (не тот, который часто называют кроссовером, вышедшим из трэша), с весьма юморными текстами.
Но... так как я не понимаю ни еврейского ни английского, то чисто по музыке и это их творение оценю на 4 балла из 10.

зы. Как я понял, что лирика юморная? По названиям песен и частично по словам в припевах.

_________________


Top
 Profile E-mail  
 
 
PostPosted: 13 May 2016 
Хиппей (support team)
User avatar
Joined: 30 Jul 2007
Posts: 108989
Lоcаtion: Киев (Kyiv, UA)
Age: 45
Name: Andrey


А группа ещё жива и катается по Берлину :dance:


_________________


Top
 Profile E-mail  
 
 
PostPosted: 22 May 2016 
консэрваторъ
Joined: 11 Aug 2007
Posts: 16334
Lоcаtion: Псков
Age: 44
Name: Сергей
http://www.metal-archives.com/bands/Bla ... 3540372636

Изначально альбом выпущен 27 октября 2013 года индепендендно...
Прикольные, стёбные, задорные израильтяне!.. Нарезают Hardcore/Crossover/Thrash в лучших традициях S.O.D. :lob:
Альбом на 22 минуты весьма взбодрил и потянул в пляс...
Опять же все благодарственные грамоты уходят к Серёге на севера!.. :true:

_________________
THRASH 'EM ALL


Top
 Profile E-mail  
 
 
PostPosted: 23 May 2016 
Генеральный thrasher
User avatar
Joined: 03 Oct 2008
Posts: 3539
Lоcаtion: Ханты-Мансийский АО
Age: 43
Name: Сергей
Да,отличная команда.Лишь бы бравые еврейские парни не ограничились одним альбомом.


Top
 Profile  
 
 
PostPosted: 23 May 2016 
Я набрал 1000 сообщений!
Joined: 09 Jul 2008
Posts: 2490
Age: 45
Name: Сергей
слушал бы их с удовольствием, если бы ребята не сочли своим долгом испоганить каждую песню каким-нить откровенно дерьмовым куском


Top
 Profile  
 
 
PostPosted: 23 May 2016 
Я набрал 1000 сообщений!
User avatar
Joined: 04 Jul 2009
Posts: 1167
Age: 45
Name: dima
Немного напомнило Lawnmower. Люблю такую музыку, спасибо


Top
 Profile E-mail  
 
Display posts from previous:  Sort by  
Post new topic Reply to topic  [ 9 posts ] 

All times are UTC + 3 hours


Who is online

Users browsing this forum: No registered users and 5 guests


You cannot post new topics in this forum
You cannot reply to topics in this forum
You cannot edit your posts in this forum
You cannot delete your posts in this forum
You cannot post attachments in this forum

Search for:
Яндекс.Метрика
Powered by phpBB © 2000, 2002, 2005, 2007 phpBB Group