\m/ 80's metal \m/

Информационно-аналитический форум "80 см пыли" (In Search We Trust) "У нас никто никуда не спешит"
Me For You - http://me-4u.com
It is currently 16 Dec 2018

All times are UTC + 3 hours

Spoiler
Chat - temporary registration for foreign users (please leave your application here)





Forum rules


Уважаемые пользователи ресурса, друзья, коллеги и гости нашего форума. Данный раздел конференции создан с целью рафинации, и посвящён такому стилевому направлению в музыке, как Thrash Metal во всех его проявлениях и ипостасях, а иногда и переходящему на пограничные стили Speed, Power, Groove, Crossover, MDM и т.п.
Главное правило здесь одно: Одна группа – одна тема! Всё остальное созвучно основным нормам поведения на конференции.
Шаблон оформления тем в этом подфоруме должен быть основан на данных сайта www.metal-archives.com и выглядеть следующим образом:

Группа (Страна) - Стилевые рамки - дискография
Slayer (USA) - Thrash Metal - дискография


В теме допустимо размещение всей информации касающейся данного коллектива: анонсы любых альбомов в любых форматах, запросы любых релизов коллектива (кроме релизов текущего и прошлого годов), обсуждения, обзоры, а в остальном всё как обычно. Уважаем друг друга, не грубим, соблюдаем нормы поведения на конференции, оформляем анонсы и запросы красиво и информативно, что бы модераторы не посчитали их троллингом, и не отправили куда положено, выписав Вам предупреждение или ещё что похуже… Прежде чем что-то запросить или запостить, пользуемся поиском! Пользуемся поиском! ПОЛЬЗУЕМСЯ ПОИСКОМ!!! Так слышно меня?.. :pardon:
Интересного, конструктивного и креативного общения! ;)



Post new topic Reply to topic  [ 43 posts ]  Go to page 1, 2, 3  Next
Author Message
 
PostPosted: 20 Apr 2016 
Генеральный thrasher
User avatar
Joined: 03 Oct 2008
Posts: 3537
Lоcаtion: Ханты-Мансийский АО
Age: 43
Name: Сергей
Из купленных мной в последнее время дисков очень понравился дебютник этих испанцев.Ребята взяли на вооружение американскую школу трэша,в частности Megadeth и Death Angel (ну по крайней мере мне так кажется).

Image

Year:2015
Style:Thrash Metal
Country:Spain
Archive:Flac+Cue+Log+Scans
Size:270Mb
Source:my CD
Label:Suspiria Records

Line-Up:
Marcus - guitars
David - guitars
Sebas - drums
Macaco - bass,vocals

Tracklist:
01. Bad News 04:20
02. L.O.B. 05:20
03. Evil Waits 04:35
04. The Siege 02:59
05. Raze the Earth 05:49
06. The Church Is On Fire 04:37
07. Do You Wanna Die? 03:53
08. Streets Of Wickedness 07:26

"Cue"
REM GENRE "Thrash Metal"
REM DATE 2015
REM DISCID 6D092208
REM COMMENT "ExactAudioCopy v1.1"
PERFORMER "Raze"
TITLE "Mankind's Heritage"
FILE "Raze - Mankind's Heritage.flac" WAVE
TRACK 01 AUDIO
TITLE "Bad News"
PERFORMER "Raze"
FLAGS DCP
INDEX 01 00:00:00
TRACK 02 AUDIO
TITLE "L.O.B."
PERFORMER "Raze"
FLAGS DCP
INDEX 00 04:18:32
INDEX 01 04:20:32
TRACK 03 AUDIO
TITLE "Evil Waits"
PERFORMER "Raze"
FLAGS DCP
INDEX 00 09:38:29
INDEX 01 09:40:29
TRACK 04 AUDIO
TITLE "The Siege"
PERFORMER "Raze"
FLAGS DCP
INDEX 00 14:13:36
INDEX 01 14:15:36
TRACK 05 AUDIO
TITLE "Raze the Earth"
PERFORMER "Raze"
FLAGS DCP
INDEX 00 17:12:15
INDEX 01 17:14:15
TRACK 06 AUDIO
TITLE "The Church Is on Fire"
PERFORMER "Raze"
FLAGS DCP
INDEX 00 23:00:66
INDEX 01 23:02:66
TRACK 07 AUDIO
TITLE "Do You Wanna Die?"
PERFORMER "Raze"
FLAGS DCP
INDEX 00 27:37:65
INDEX 01 27:39:65
TRACK 08 AUDIO
TITLE "Streets of Wickedness"
PERFORMER "Raze"
FLAGS DCP
INDEX 00 31:30:20
INDEX 01 31:32:20

"Log"
Exact Audio Copy V1.1 from 23. June 2015

Отчёт EAC об извлечении, выполненном 15. апреля 2016, 19:59

Raze / Mankind's Heritage

Дисковод: HL-DT-STDVDRAM GTA0N Adapter: 1 ID: 0

Режим чтения : Достоверность
Использование точного потока : Да
Отключение кэша аудио : Да
Использование указателей C2 : Нет

Коррекция смещения при чтении : 102
Способность читать области Lead-in и Lead-out : Нет
Заполнение пропущенных сэмплов тишиной : Да
Удаление блоков с тишиной в начале и конце : Нет
При вычислениях CRC использовались нулевые сэмплы : Да
Интерфейс : Встроенный Win32-интерфейс для Win NT/2000

Выходной формат : Пользовательский кодировщик
Выбранный битрейт : 768 kBit/s
Качество : Высокий
Добавление ID3-тега : Нет
Утилита сжатия : C:\Program Files (x86)\Exact Audio Copy\FLAC\FLAC.EXE
Дополнительные параметры : -6 -V -T "ARTIST=%artist%" -T "TITLE=%title%" -T "ALBUM=%albumtitle%" -T "DATE=%year%" -T "TRACKNUMBER=%tracknr%" -T "GENRE=%genre%" -T "COMMENT=%comment%" -T "BAND=%albuminterpret%" -T "ALBUMARTIST=%albuminterpret%" -T "COMPOSER=%composer%" %haslyrics%--tag-from-file=LYRICS="%lyricsfile%"%haslyrics% -T "DISCNUMBER=%cdnumber%" -T "TOTALDISCS=%totalcds%" -T "TOTALTRACKS=%numtracks%" %hascover%--picture="%coverfile%"%hascover% %source% -o %dest%


TOC извлечённого CD

Трек | Старт | Длительность | Начальный сектор | Конечный сектор
---------------------------------------------------------------------
1 | 0:00.00 | 4:20.32 | 0 | 19531
2 | 4:20.32 | 5:19.72 | 19532 | 43528
3 | 9:40.29 | 4:35.07 | 43529 | 64160
4 | 14:15.36 | 2:58.54 | 64161 | 77564
5 | 17:14.15 | 5:48.51 | 77565 | 103715
6 | 23:02.66 | 4:36.74 | 103716 | 124489
7 | 27:39.65 | 3:52.30 | 124490 | 141919
8 | 31:32.20 | 7:26.22 | 141920 | 175391


Характеристики диапазона извлечения и сообщения об ошибках

Выбранный диапазон

Имя файла C:\Users\магазин\Music\Raze - Mankind's Heritage.wav

Пиковый уровень 96.6 %
Скорость извлечения 3.7 X
Качество диапазона 100.0 %
CRC копии 334D3733
Копирование... OK

Ошибок не произошло


AccurateRip: сводка

Трек 1 отсутствует в базе данных
Трек 2 отсутствует в базе данных
Трек 3 отсутствует в базе данных
Трек 4 отсутствует в базе данных
Трек 5 отсутствует в базе данных
Трек 6 отсутствует в базе данных
Трек 7 отсутствует в базе данных
Трек 8 отсутствует в базе данных

Ни одного трека нет в базе AccurateRip

Конец отчёта

---- CUETools DB Plugin V2.1.6

[CTDB TOCID: snbaZEN6lwzoojd7cvROcmagM84-] disk not present in database
Submit result: snbaZEN6lwzoojd7cvROcmagM84- has been uploaded


Mankind's Heritage


Top
 Profile  
 
 
PostPosted: 20 Apr 2016 
Доктор энтомологии
User avatar
Joined: 22 Jan 2009
Posts: 9488
Lоcаtion: Даугавпилс
Age: 43
Name: Алексей
:thanx: Невеселое какое будущее у семейки беженцев на картинке :fingal:


Last edited by Entomologist on 20 Apr 2016, edited 1 time in total.

Top
 Profile  
 
 
PostPosted: 20 Apr 2016 
Прокъмитолист
User avatar
Joined: 12 Aug 2007
Posts: 6514
Lоcаtion: Санктъ-Петербуркъ
Age: 51
Name: Олекъ
:thanx:

_________________
прокъметол - это музыко, от которово есть прок (ы)


Top
 Profile  
 
 
PostPosted: 20 Apr 2016 
Alive Again
User avatar
Joined: 17 Dec 2008
Posts: 4744
Lоcаtion: Курск Воронеж Оскол
Age: 44
Name: Дмитрий
:thanx:


Top
 Profile E-mail  
 
 
PostPosted: 20 Apr 2016 
Хиппей (support team)
User avatar
Joined: 30 Jul 2007
Posts: 108945
Lоcаtion: Киев (Kyiv, UA)
Age: 45
Name: Andrey
:thanx:

mirror: iFolder l Narod l M-Cloud

_________________


Top
 Profile E-mail  
 
 
PostPosted: 20 Apr 2016 
семерых одним ударом
Joined: 18 Aug 2007
Posts: 3868
Lоcаtion: Владивосток
Age: 43
Name: Николай Николаевич
death angel люблю. Послушаю, спасибо!


Top
 Profile  
 
 
PostPosted: 20 Apr 2016 
Хиппей (support team)
User avatar
Joined: 30 Jul 2007
Posts: 108945
Lоcаtion: Киев (Kyiv, UA)
Age: 45
Name: Andrey
Слушаю альбом...
После 7-9 релизов от других трэшевых групп, где вокалисты орут почти без пауз, этот воспринимается как-то по-особенному... =)
Скоростной техничный трэшак ненавязчивый. Пока нравится.

_________________


Top
 Profile E-mail  
 
 
PostPosted: 20 Apr 2016 
Хиппей (support team)
User avatar
Joined: 30 Jul 2007
Posts: 108945
Lоcаtion: Киев (Kyiv, UA)
Age: 45
Name: Andrey
thorbeorn wrote:
08. Streets Of Wickedness 07:26

Отметка 03:37 в правом ухе щелчок лёгкий дигитальный (наэлектризованность). И чуть ранее - 03:27, в левом.
Явно такой спецэффект, да?
На диске он присутствует?

_________________


Top
 Profile E-mail  
 
 
PostPosted: 20 Apr 2016 
Хиппей (support team)
User avatar
Joined: 30 Jul 2007
Posts: 108945
Lоcаtion: Киев (Kyiv, UA)
Age: 45
Name: Andrey
thorbeorn wrote:
02. L.O.B. 05:20

03:27 - левое ухо.
Откель они запись то брали? :vic:

_________________


Top
 Profile E-mail  
 
 
PostPosted: 20 Apr 2016 
Хиппей (support team)
User avatar
Joined: 30 Jul 2007
Posts: 108945
Lоcаtion: Киев (Kyiv, UA)
Age: 45
Name: Andrey
Надо будет все песни на 03:27 внимательно послушать. А вдруг это тайная руна :lloo:

_________________


Top
 Profile E-mail  
 
 
PostPosted: 20 Apr 2016 
Генеральный thrasher
User avatar
Joined: 03 Oct 2008
Posts: 3537
Lоcаtion: Ханты-Мансийский АО
Age: 43
Name: Сергей
Андрюх,я его раз 50 переслушал и никаких щелчков не слышал... :vic:


Top
 Profile  
 
 
PostPosted: 20 Apr 2016 
консэрваторъ
Joined: 11 Aug 2007
Posts: 16329
Lоcаtion: Псков
Age: 44
Name: Сергей
Забираю не глядя... Наверняка опять круть!..

_________________
THRASH 'EM ALL


Top
 Profile E-mail  
 
 
PostPosted: 20 Apr 2016 
Хиппей (support team)
User avatar
Joined: 30 Jul 2007
Posts: 108945
Lоcаtion: Киев (Kyiv, UA)
Age: 45
Name: Andrey
В общем, альбом понравился, спасибо всем :meloman: :thanx:

7/10

_________________


Top
 Profile E-mail  
 
 
PostPosted: 20 Apr 2016 
Хиппей (support team)
User avatar
Joined: 30 Jul 2007
Posts: 108945
Lоcаtion: Киев (Kyiv, UA)
Age: 45
Name: Andrey
Андрюх,я его раз 50 переслушал и никаких щелчков не слышал... :vic:

Серёг, теперь у всех аплоадеров и рипперов настало тяжкое время - я пока колонки не починю, буду мучать всех мелкими косяками :(

_________________


Top
 Profile E-mail  
 
 
PostPosted: 20 Apr 2016 
Я набрал 1000 сообщений!
Joined: 09 Jul 2008
Posts: 2486
Age: 45
Name: Сергей
чини топором, помогает )

сабж: скачал, завтра послушаю )


Top
 Profile  
 
 
PostPosted: 20 Apr 2016 
Труъ
User avatar
Joined: 27 Feb 2009
Posts: 186
Lоcаtion: Питер
Age: 51
Name: Олег
Отличный альбом ! :thanx: :thanx: :thanx:


Top
 Profile  
 
 
PostPosted: 21 Apr 2016 
Хиппей (support team)
User avatar
Joined: 30 Jul 2007
Posts: 108945
Lоcаtion: Киев (Kyiv, UA)
Age: 45
Name: Andrey
boojum wrote:
чини топором, помогает )

А у тя цыков типа не слышно в указанных местах? =)

_________________


Top
 Profile E-mail  
 
 
PostPosted: 21 Apr 2016 
Я набрал 1000 сообщений!
Joined: 09 Jul 2008
Posts: 2486
Age: 45
Name: Сергей
послушал
нечто безумно скучное

цыки не искал...


Top
 Profile  
 
 
PostPosted: 22 Apr 2016 
Доктор энтомологии
User avatar
Joined: 22 Jan 2009
Posts: 9488
Lоcаtion: Даугавпилс
Age: 43
Name: Алексей
Трэш трэшовый. Норм, послухать можно. Что и сделал. :meloman: Скуки не нашел.


Top
 Profile  
 
 
PostPosted: 22 Apr 2016 
ТрэшЭрос
User avatar
Joined: 18 Jul 2011
Posts: 2300
Lоcаtion: Гулькевичи
Age: 43
Name: Александр
:thanx: :lob:

_________________
Thrash no trash!!!


Top
 Profile E-mail  
 
Display posts from previous:  Sort by  
Post new topic Reply to topic  [ 43 posts ]  Go to page 1, 2, 3  Next

All times are UTC + 3 hours


Who is online

Users browsing this forum: No registered users and 1 guest


You cannot post new topics in this forum
You cannot reply to topics in this forum
You cannot edit your posts in this forum
You cannot delete your posts in this forum
You cannot post attachments in this forum

Search for:
Яндекс.Метрика
Powered by phpBB © 2000, 2002, 2005, 2007 phpBB Group