\m/ 80's metal \m/

Информационно-аналитический форум "80 см пыли" (In Search We Trust) "У нас никто никуда не спешит"
Me For You - http://me-4u.com
It is currently 10 Dec 2018

All times are UTC + 3 hours

Spoiler
Chat - temporary registration for foreign users (please leave your application here)





Forum rules


Уважаемые пользователи ресурса, друзья, коллеги и гости нашего форума. Данный раздел конференции создан с целью рафинации, и посвящён такому стилевому направлению в музыке, как Thrash Metal во всех его проявлениях и ипостасях, а иногда и переходящему на пограничные стили Speed, Power, Groove, Crossover, MDM и т.п.
Главное правило здесь одно: Одна группа – одна тема! Всё остальное созвучно основным нормам поведения на конференции.
Шаблон оформления тем в этом подфоруме должен быть основан на данных сайта www.metal-archives.com и выглядеть следующим образом:

Группа (Страна) - Стилевые рамки - дискография
Slayer (USA) - Thrash Metal - дискография


В теме допустимо размещение всей информации касающейся данного коллектива: анонсы любых альбомов в любых форматах, запросы любых релизов коллектива (кроме релизов текущего и прошлого годов), обсуждения, обзоры, а в остальном всё как обычно. Уважаем друг друга, не грубим, соблюдаем нормы поведения на конференции, оформляем анонсы и запросы красиво и информативно, что бы модераторы не посчитали их троллингом, и не отправили куда положено, выписав Вам предупреждение или ещё что похуже… Прежде чем что-то запросить или запостить, пользуемся поиском! Пользуемся поиском! ПОЛЬЗУЕМСЯ ПОИСКОМ!!! Так слышно меня?.. :pardon:
Интересного, конструктивного и креативного общения! ;)



Post new topic Reply to topic  [ 23 posts ]  Go to page 1, 2  Next
Author Message
 
PostPosted: 08 Apr 2016 
Генеральный thrasher
User avatar
Joined: 03 Oct 2008
Posts: 3530
Lоcаtion: Ханты-Мансийский АО
Age: 43
Name: Сергей
И снова итальянцы! И снова трэшак!

Image

Year:2013
Style:Thrash Metal
Country:Italy
Archive:Flac+Cue+Log+Scans
Size:209Mb
Source:my CD
Label:My Graveyard Productions

Line-Up:
Danilo Sunna - drums
Alessandro Preti - guitars
Gioele Zoppellaro - guitars, vocals (backing)
Matteo Albini - vocals
Daniel Cullity - bass

Tracklist:
01. Intro 00:23
02. Fury Of The Damned 05:57
03. Keep Pushing 04:35
04. Dawn Of Disease 05:26
05. Headshot 04:28
06. Kill The Brave 05:45

"Cue"
REM GENRE "Thrash Metal"
REM DATE 2013
REM DISCID 42063606
REM COMMENT "ExactAudioCopy v1.1"
PERFORMER "Blindeath"
TITLE "Headshot!"
FILE "Blindeath - Headshot!.flac" WAVE
TRACK 01 AUDIO
TITLE "Intro"
PERFORMER "Blindeath"
INDEX 01 00:00:00
TRACK 02 AUDIO
TITLE "Fury Of The Damned"
PERFORMER "Blindeath"
INDEX 01 00:22:22
TRACK 03 AUDIO
TITLE "Keep Pushing"
PERFORMER "Blindeath"
INDEX 01 06:18:25
TRACK 04 AUDIO
TITLE "Dawn Of Disease"
PERFORMER "Blindeath"
INDEX 01 10:53:07
TRACK 05 AUDIO
TITLE "Headshot"
PERFORMER "Blindeath"
INDEX 01 16:18:26
TRACK 06 AUDIO
TITLE "Kill the Brave"
PERFORMER "Blindeath"
INDEX 01 20:45:37

"Log"
Exact Audio Copy V1.1 from 23. June 2015

Отчёт EAC об извлечении, выполненном 7. апреля 2016, 12:00

Blindeath / Headshot!

Дисковод: HL-DT-STDVDRAM GTA0N Adapter: 1 ID: 0

Режим чтения : Достоверность
Использование точного потока : Да
Отключение кэша аудио : Да
Использование указателей C2 : Нет

Коррекция смещения при чтении : 102
Способность читать области Lead-in и Lead-out : Нет
Заполнение пропущенных сэмплов тишиной : Да
Удаление блоков с тишиной в начале и конце : Нет
При вычислениях CRC использовались нулевые сэмплы : Да
Интерфейс : Встроенный Win32-интерфейс для Win NT/2000

Выходной формат : Пользовательский кодировщик
Выбранный битрейт : 768 kBit/s
Качество : Высокий
Добавление ID3-тега : Нет
Утилита сжатия : C:\Program Files (x86)\Exact Audio Copy\FLAC\FLAC.EXE
Дополнительные параметры : -6 -V -T "ARTIST=%artist%" -T "TITLE=%title%" -T "ALBUM=%albumtitle%" -T "DATE=%year%" -T "TRACKNUMBER=%tracknr%" -T "GENRE=%genre%" -T "COMMENT=%comment%" -T "BAND=%albuminterpret%" -T "ALBUMARTIST=%albuminterpret%" -T "COMPOSER=%composer%" %haslyrics%--tag-from-file=LYRICS="%lyricsfile%"%haslyrics% -T "DISCNUMBER=%cdnumber%" -T "TOTALDISCS=%totalcds%" -T "TOTALTRACKS=%numtracks%" %hascover%--picture="%coverfile%"%hascover% %source% -o %dest%


TOC извлечённого CD

Трек | Старт | Длительность | Начальный сектор | Конечный сектор
---------------------------------------------------------------------
1 | 0:00.00 | 0:22.22 | 0 | 1671
2 | 0:22.22 | 5:56.03 | 1672 | 28374
3 | 6:18.25 | 4:34.57 | 28375 | 48981
4 | 10:53.07 | 5:25.19 | 48982 | 73375
5 | 16:18.26 | 4:27.11 | 73376 | 93411
6 | 20:45.37 | 5:44.63 | 93412 | 119274


Характеристики диапазона извлечения и сообщения об ошибках

Выбранный диапазон

Имя файла C:\Users\магазин\Music\Blindeath - Headshot!.wav

Пиковый уровень 98.8 %
Скорость извлечения 3.4 X
Качество диапазона 100.0 %
CRC копии 7188FB59
Копирование... OK

Ошибок не произошло


AccurateRip: сводка

Трек 1 отсутствует в базе данных
Трек 2 отсутствует в базе данных
Трек 3 отсутствует в базе данных
Трек 4 отсутствует в базе данных
Трек 5 отсутствует в базе данных
Трек 6 отсутствует в базе данных

Ни одного трека нет в базе AccurateRip

Конец отчёта

---- CUETools DB Plugin V2.1.6

[CTDB TOCID: ahCcC9gEWAWj4gm42Zdbb8fPq04-] found
Submit result: ahCcC9gEWAWj4gm42Zdbb8fPq04- has been confirmed
Track | CTDB Status
1 | (1/1) Accurately ripped
2 | (1/1) Accurately ripped
3 | (1/1) Accurately ripped
4 | (1/1) Accurately ripped
5 | (1/1) Accurately ripped
6 | (1/1) Accurately ripped

Headshot!

Image

Year:2014
Style:Thrash Metal
Country:Italy
Archive:Flac+Cue+Log+Scans
Size:251Mb
Source:my CD
Label:Earthquake Terror Noise

Line-Up:
Danilo Sunna - drums
Gioele "Butcher" Zoppellaro - vocals,guitars
Luca Frisenna - bass
Simone Aiello - guitars

Tracklist:
01. Blood And Guts 03:20
02. Murdered By The Beast 04:28
03. Toxic War! 02:40
04. Moshing Maniax 02:55
05. Arcadia 04:09
06. 2977 01:42
07. Rebels Die Hard 03:57
08. Welcome To The Thrash Party 02:51
09. Feast Of Blood 06:18

"Cue"
REM GENRE "Thrash Metal"
REM DATE 2014
REM DISCID 62079009
REM COMMENT "ExactAudioCopy v0.99pb5"
PERFORMER "Blindeath"
TITLE "Into The Slaughter"
FILE "Blindeath - Into The Slaughter.flac" WAVE
TRACK 01 AUDIO
TITLE "Blood And Guts "
PERFORMER "Blindeath"
INDEX 01 00:00:00
TRACK 02 AUDIO
TITLE "Murdered By The Beast "
PERFORMER "Blindeath"
INDEX 01 03:19:60
TRACK 03 AUDIO
TITLE "Toxic War!"
PERFORMER "Blindeath"
INDEX 01 07:47:04
TRACK 04 AUDIO
TITLE "Moshing Maniax"
PERFORMER "Blindeath"
INDEX 01 10:27:02
TRACK 05 AUDIO
TITLE "Arcadia"
PERFORMER "Blindeath"
INDEX 01 13:21:55
TRACK 06 AUDIO
TITLE "2977"
PERFORMER "Blindeath"
INDEX 01 17:30:53
TRACK 07 AUDIO
TITLE "Rebels Die Hard"
PERFORMER "Blindeath"
INDEX 01 19:12:29
TRACK 08 AUDIO
TITLE "Welcome To The Thrash Party "
PERFORMER "Blindeath"
INDEX 01 23:09:26
TRACK 09 AUDIO
TITLE "Feast Of Blood "
PERFORMER "Blindeath"
INDEX 01 25:59:51

"Log"
Exact Audio Copy V0.99 prebeta 5 from 4. May 2009

Отчёт EAC об извлечении, выполненном 24. декабря 2014, 17:36

Blindeath / Into The Slaughter

Дисковод: MATSHITADVD-RAM UJ8A0AS Adapter: 0 ID: 1

Режим чтения : Достоверность
Использование точного потока : Да
Отключение кэша аудио : Да
Использование указателей C2 : Нет

Коррекция смещения при чтении : 102
Способность читать области Lead-in и Lead-out : Нет
Заполнение пропущенных сэмплов тишиной : Да
Удаление блоков с тишиной в начале и конце : Нет
При вычислениях CRC использовались нулевые сэмплы : Да
Интерфейс : Встроенный Win32-интерфейс для Win NT/2000

Выходной формат : Пользовательский кодировщик
Выбранный битрейт : 1024 kBit/s
Качество : Высокий
Добавление ID3-тэга : Нет
Утилита сжатия : C:\Program Files\Exact Audio Copy\FLAC\FLAC.EXE
Дополнительные параметры : -6 -V -T "ARTIST=%a" -T "TITLE=%t" -T "ALBUM=%g" -T "DATE=%y" -T "TRACKNUMBER=%n" -T "GENRE=%m" -T "COMMENT=%e" %s -o %d


TOC извлечённого CD

Трек | Старт | Длительность | Начальный сектор | Конечный сектор
---------------------------------------------------------------------
1 | 0:00.00 | 3:19.60 | 0 | 14984
2 | 3:19.60 | 4:27.19 | 14985 | 35028
3 | 7:47.04 | 2:39.73 | 35029 | 47026
4 | 10:27.02 | 2:54.53 | 47027 | 60129
5 | 13:21.55 | 4:08.73 | 60130 | 78802
6 | 17:30.53 | 1:41.51 | 78803 | 86428
7 | 19:12.29 | 3:56.72 | 86429 | 104200
8 | 23:09.26 | 2:50.25 | 104201 | 116975
9 | 25:59.51 | 6:17.09 | 116976 | 145259


Характеристики диапазона извлечения и сообщения об ошибках

Выбранный диапазон

Имя файла C:\Users\эксперт\Music\Blindeath - Into The Slaughter.wav

Пиковый уровень 100.0 %
Качество диапазона 100.0 %
CRC копии D8E38019
Копирование... OK

Ошибок не произошло


AccurateRip: сводка

Трек 1 нет в базе данных
Трек 2 нет в базе данных
Трек 3 нет в базе данных
Трек 4 нет в базе данных
Трек 5 нет в базе данных
Трек 6 нет в базе данных
Трек 7 нет в базе данных
Трек 8 нет в базе данных
Трек 9 нет в базе данных

Ни одного трека нет в базе AccurateRip

Конец отчёта


Into The Slaughter


Top
 Profile  
 
 
PostPosted: 08 Apr 2016 
Alive Again
User avatar
Joined: 17 Dec 2008
Posts: 4744
Lоcаtion: Курск Воронеж Оскол
Age: 44
Name: Дмитрий
:thanx: Серёг!


Top
 Profile E-mail  
 
 
PostPosted: 08 Apr 2016 
ТрэшЭрос
User avatar
Joined: 18 Jul 2011
Posts: 2300
Lоcаtion: Гулькевичи
Age: 43
Name: Александр
:thanx:
Когда всё это слушать... :oops:

_________________
Thrash no trash!!!


Top
 Profile E-mail  
 
 
PostPosted: 08 Apr 2016 
консэрваторъ
Joined: 11 Aug 2007
Posts: 16308
Lоcаtion: Псков
Age: 44
Name: Сергей
Можно сегодня вечером, к примеру... :thanx:

_________________
THRASH 'EM ALL


Top
 Profile E-mail  
 
 
PostPosted: 08 Apr 2016 
Генеральный thrasher
User avatar
Joined: 03 Oct 2008
Posts: 3530
Lоcаtion: Ханты-Мансийский АО
Age: 43
Name: Сергей
:thanx:
Когда всё это слушать... :oops:


А можете и не слушать! :benya:


Top
 Profile  
 
 
PostPosted: 08 Apr 2016 
консэрваторъ
Joined: 11 Aug 2007
Posts: 16308
Lоcаtion: Псков
Age: 44
Name: Сергей
Хренасе!.. Лупцовка!.. :shok: :lob:

BLINDEATH - Feast Of Blood (Official Track) | +

_________________
THRASH 'EM ALL


Top
 Profile E-mail  
 
 
PostPosted: 08 Apr 2016 
Генеральный thrasher
User avatar
Joined: 03 Oct 2008
Posts: 3530
Lоcаtion: Ханты-Мансийский АО
Age: 43
Name: Сергей
Я говорил,что у меня в запасниках трэша много-много...Сканировать вот лень.Да и сканер старенький,временами капризничает.Ну а слушать или нет - дело каждого индивидуума.Предпочитаю слушать свежие группы,нежели так называемых "монстров".


Top
 Profile  
 
 
PostPosted: 08 Apr 2016 
Прокъмитолист
User avatar
Joined: 12 Aug 2007
Posts: 6512
Lоcаtion: Санктъ-Петербуркъ
Age: 51
Name: Олекъ
и еще раз спасибо, Серёг! :thanx:

_________________
прокъметол - это музыко, от которово есть прок (ы)


Top
 Profile  
 
 
PostPosted: 08 Apr 2016 
консэрваторъ
Joined: 11 Aug 2007
Posts: 16308
Lоcаtion: Псков
Age: 44
Name: Сергей
Спасибо огромное, Серёга!.. Обе работы в кайф!.. Мощно, мясисто, зарубисто!.. :lob:

_________________
THRASH 'EM ALL


Top
 Profile E-mail  
 
 
PostPosted: 08 Apr 2016 
Генеральный thrasher
User avatar
Joined: 03 Oct 2008
Posts: 3530
Lоcаtion: Ханты-Мансийский АО
Age: 43
Name: Сергей
Да на здоровье,Серёг! :lob:


Top
 Profile  
 
 
PostPosted: 12 Apr 2016 
консэрваторъ
Joined: 11 Aug 2007
Posts: 16308
Lоcаtion: Псков
Age: 44
Name: Сергей
У парней на FB есть такая заметочка... :arrov: https://www.facebook.com/Blindeath.Thra ... 9034441614
Написал 8-ого, тихо... Напишите ещё кто-нить для верности... :oops:

_________________
THRASH 'EM ALL


Top
 Profile E-mail  
 
 
PostPosted: 12 Apr 2016 
Генеральный thrasher
User avatar
Joined: 03 Oct 2008
Posts: 3530
Lоcаtion: Ханты-Мансийский АО
Age: 43
Name: Сергей
Написал тоже,Серёг...


Top
 Profile  
 
 
PostPosted: 13 Apr 2016 
Генеральный thrasher
User avatar
Joined: 03 Oct 2008
Posts: 3530
Lоcаtion: Ханты-Мансийский АО
Age: 43
Name: Сергей
Никто не отвечает.Видно не судьба... :(


Top
 Profile  
 
 
PostPosted: 22 Apr 2016 
Alive Again
User avatar
Joined: 17 Dec 2008
Posts: 4744
Lоcаtion: Курск Воронеж Оскол
Age: 44
Name: Дмитрий
Пока послушал только "Headshot!", понравились ребята, опять же заглавная песня начинается со знаменитой "No limit" 2 unlimited :crazy: А главное, что не скупятся на соляки.


Top
 Profile E-mail  
 
 
PostPosted: 13 May 2017 
Генеральный thrasher
User avatar
Joined: 03 Oct 2008
Posts: 3530
Lоcаtion: Ханты-Мансийский АО
Age: 43
Name: Сергей
Всё!!!Банда накрылась медным тазом... :(


Top
 Profile  
 
 
PostPosted: 13 May 2017 
Хиппей (support team)
User avatar
Joined: 30 Jul 2007
Posts: 108775
Lоcаtion: Киев (Kyiv, UA)
Age: 45
Name: Andrey
thorbeorn wrote:
Headshot!

:thanx:

mirror: Turbo l Narod l M-Cloud l Drop

_________________


Top
 Profile E-mail  
 
 
PostPosted: 13 May 2017 
Хиппей (support team)
User avatar
Joined: 30 Jul 2007
Posts: 108775
Lоcаtion: Киев (Kyiv, UA)
Age: 45
Name: Andrey
thorbeorn wrote:
Into The Slaughter

:thanx:

mirror: Turbo l Narod l M-Cloud l Drop

_________________


Top
 Profile E-mail  
 
 
PostPosted: 13 May 2017 
Хиппей (support team)
User avatar
Joined: 30 Jul 2007
Posts: 108775
Lоcаtion: Киев (Kyiv, UA)
Age: 45
Name: Andrey
splatty wrote:
Напишите ещё кто-нить для верности... :oops:

Аукунул про демку тоже :au:

_________________


Top
 Profile E-mail  
 
 
PostPosted: 14 May 2017 
консэрваторъ
Joined: 11 Aug 2007
Posts: 16308
Lоcаtion: Псков
Age: 44
Name: Сергей
А ты тоже на почту написал?.. А может надо успеть на ФБ достучаться?.. Хотя наверное уже поздно...

_________________
THRASH 'EM ALL


Top
 Profile E-mail  
 
 
PostPosted: 15 Jun 2017 
Хиппей (support team)
User avatar
Joined: 30 Jul 2007
Posts: 108775
Lоcаtion: Киев (Kyiv, UA)
Age: 45
Name: Andrey
thorbeorn wrote:
Into The Slaughter

Нормальный активный и задорный трэшак в духе германской волны 80-90-х - Танкард, Дистракшен, Содом.
Ничего своего пока нет у группы, оригинального, но несколько хитов на данном альбоме имеются :lob: :lob: :lob:

6+/10

_________________


Top
 Profile E-mail  
 
Display posts from previous:  Sort by  
Post new topic Reply to topic  [ 23 posts ]  Go to page 1, 2  Next

All times are UTC + 3 hours


Who is online

Users browsing this forum: No registered users and 6 guests


You cannot post new topics in this forum
You cannot reply to topics in this forum
You cannot edit your posts in this forum
You cannot delete your posts in this forum
You cannot post attachments in this forum

Search for:
Яндекс.Метрика
Powered by phpBB © 2000, 2002, 2005, 2007 phpBB Group