\m/ 80's metal \m/

Информационно-аналитический форум "80 см пыли" (In Search We Trust) "У нас никто никуда не спешит"
Me For You - http://me-4u.com
It is currently 19 Dec 2018

All times are UTC + 3 hours

Spoiler
Chat - temporary registration for foreign users (please leave your application here)





Forum rules


Уважаемые пользователи ресурса, друзья, коллеги и гости нашего форума. Данный раздел конференции создан с целью рафинации, и посвящён такому стилевому направлению в музыке, как Thrash Metal во всех его проявлениях и ипостасях, а иногда и переходящему на пограничные стили Speed, Power, Groove, Crossover, MDM и т.п.
Главное правило здесь одно: Одна группа – одна тема! Всё остальное созвучно основным нормам поведения на конференции.
Шаблон оформления тем в этом подфоруме должен быть основан на данных сайта www.metal-archives.com и выглядеть следующим образом:

Группа (Страна) - Стилевые рамки - дискография
Slayer (USA) - Thrash Metal - дискография


В теме допустимо размещение всей информации касающейся данного коллектива: анонсы любых альбомов в любых форматах, запросы любых релизов коллектива (кроме релизов текущего и прошлого годов), обсуждения, обзоры, а в остальном всё как обычно. Уважаем друг друга, не грубим, соблюдаем нормы поведения на конференции, оформляем анонсы и запросы красиво и информативно, что бы модераторы не посчитали их троллингом, и не отправили куда положено, выписав Вам предупреждение или ещё что похуже… Прежде чем что-то запросить или запостить, пользуемся поиском! Пользуемся поиском! ПОЛЬЗУЕМСЯ ПОИСКОМ!!! Так слышно меня?.. :pardon:
Интересного, конструктивного и креативного общения! ;)



Post new topic Reply to topic  [ 14 posts ] 
Author Message
 
PostPosted: 25 Mar 2016 
Генеральный thrasher
User avatar
Joined: 03 Oct 2008
Posts: 3539
Lоcаtion: Ханты-Мансийский АО
Age: 43
Name: Сергей
Один из лучших на мой взгляд альбомов греческой (и не только) трэш-сцены.

Image

Year:2009 (2011 Re-issue)
Style:Thrash Metal
Country:Greece
Archive:Flac+Cue+Log+Scans
Size:226Mb
Source:my CD
Label:EBM Records

Tracklist:
01. Prelude To Vio-Lence 02:31
02. Necrohooligan 04:35
03. Mosh Pit Maniac 04:29
04. The Thrash Brigade 03:22
05. Schizophrenic 04:41
06. Lunar Chaos 03:45
07. Politisize 04:59
08. Leatherface (Watch Me Die) 03:01
09. The Thrash Brigade (extended version) 04:13

"Cue"
REM GENRE "Thrash Metal"
REM DATE 2011
REM DISCID 76085409
REM COMMENT "ExactAudioCopy v1.1"
PERFORMER "Mentally Defiled"
TITLE "The Thrash Brigade"
FILE "Mentally Defiled - The Thrash Brigade.flac" WAVE
TRACK 01 AUDIO
TITLE "Prelude To Violence"
PERFORMER "Mentally Defiled"
FLAGS DCP
INDEX 01 00:00:00
TRACK 02 AUDIO
TITLE "Necrohooligan"
PERFORMER "Mentally Defiled"
FLAGS DCP
INDEX 01 02:30:11
TRACK 03 AUDIO
TITLE "Mosh Pit Maniac"
PERFORMER "Mentally Defiled"
FLAGS DCP
INDEX 01 07:05:03
TRACK 04 AUDIO
TITLE "The Thrash Brigade"
PERFORMER "Mentally Defiled"
FLAGS DCP
INDEX 01 11:34:03
TRACK 05 AUDIO
TITLE "Schizophrenic"
PERFORMER "Mentally Defiled"
FLAGS DCP
INDEX 01 14:55:20
TRACK 06 AUDIO
TITLE "Lunar Chaos"
PERFORMER "Mentally Defiled"
FLAGS DCP
INDEX 01 19:35:74
TRACK 07 AUDIO
TITLE "Politisize"
PERFORMER "Mentally Defiled"
FLAGS DCP
INDEX 01 23:20:27
TRACK 08 AUDIO
TITLE "Leatherface (Watch Me Die)"
PERFORMER "Mentally Defiled"
FLAGS DCP
INDEX 01 28:19:19
TRACK 09 AUDIO
TITLE "The Thrash Brigade (Extended Version)"
PERFORMER "Mentally Defiled"
FLAGS DCP
INDEX 01 31:19:74

"Log"
Exact Audio Copy V1.1 from 23. June 2015

Отчёт EAC об извлечении, выполненном 25. марта 2016, 10:21

Mentally Defiled / The Thrash Brigade

Дисковод: HL-DT-STDVDRAM GTA0N Adapter: 1 ID: 0

Режим чтения : Достоверность
Использование точного потока : Да
Отключение кэша аудио : Да
Использование указателей C2 : Нет

Коррекция смещения при чтении : 102
Способность читать области Lead-in и Lead-out : Нет
Заполнение пропущенных сэмплов тишиной : Да
Удаление блоков с тишиной в начале и конце : Нет
При вычислениях CRC использовались нулевые сэмплы : Да
Интерфейс : Встроенный Win32-интерфейс для Win NT/2000

Выходной формат : Пользовательский кодировщик
Выбранный битрейт : 768 kBit/s
Качество : Высокий
Добавление ID3-тега : Нет
Утилита сжатия : C:\Program Files (x86)\Exact Audio Copy\FLAC\FLAC.EXE
Дополнительные параметры : -6 -V -T "ARTIST=%artist%" -T "TITLE=%title%" -T "ALBUM=%albumtitle%" -T "DATE=%year%" -T "TRACKNUMBER=%tracknr%" -T "GENRE=%genre%" -T "COMMENT=%comment%" -T "BAND=%albuminterpret%" -T "ALBUMARTIST=%albuminterpret%" -T "COMPOSER=%composer%" %haslyrics%--tag-from-file=LYRICS="%lyricsfile%"%haslyrics% -T "DISCNUMBER=%cdnumber%" -T "TOTALDISCS=%totalcds%" -T "TOTALTRACKS=%numtracks%" %hascover%--picture="%coverfile%"%hascover% %source% -o %dest%


TOC извлечённого CD

Трек | Старт | Длительность | Начальный сектор | Конечный сектор
---------------------------------------------------------------------
1 | 0:00.00 | 2:30.11 | 0 | 11260
2 | 2:30.11 | 4:34.67 | 11261 | 31877
3 | 7:05.03 | 4:29.00 | 31878 | 52052
4 | 11:34.03 | 3:21.17 | 52053 | 67144
5 | 14:55.20 | 4:40.54 | 67145 | 88198
6 | 19:35.74 | 3:44.28 | 88199 | 105026
7 | 23:20.27 | 4:58.67 | 105027 | 127443
8 | 28:19.19 | 3:00.55 | 127444 | 140998
9 | 31:19.74 | 4:12.14 | 140999 | 159912


Характеристики диапазона извлечения и сообщения об ошибках

Выбранный диапазон

Имя файла C:\Users\магазин\Music\Mentally Defiled - The Thrash Brigade.wav

Пиковый уровень 100.0 %
Скорость извлечения 3.7 X
Качество диапазона 100.0 %
CRC копии 5162B80E
Копирование... OK

Ошибок не произошло


AccurateRip: сводка

Трек 1 отсутствует в базе данных
Трек 2 отсутствует в базе данных
Трек 3 отсутствует в базе данных
Трек 4 отсутствует в базе данных
Трек 5 отсутствует в базе данных
Трек 6 отсутствует в базе данных
Трек 7 отсутствует в базе данных
Трек 8 отсутствует в базе данных
Трек 9 отсутствует в базе данных

Ни одного трека нет в базе AccurateRip

Конец отчёта

---- CUETools DB Plugin V2.1.6

[CTDB TOCID: I0L31neCgWyTGzr3JDeLeqC1h90-] disk not present in database
Submit result: I0L31neCgWyTGzr3JDeLeqC1h90- has been uploaded


The Thrash Brigade


Top
 Profile  
 
 
PostPosted: 25 Mar 2016 
Хиппей (support team)
User avatar
Joined: 30 Jul 2007
Posts: 109003
Lоcаtion: Киев (Kyiv, UA)
Age: 45
Name: Andrey
:thanx:

mirror: iFolder l Narod l M-Cloud

_________________


Top
 Profile E-mail  
 
 
PostPosted: 25 Mar 2016 
Генеральный thrasher
User avatar
Joined: 03 Oct 2008
Posts: 3539
Lоcаtion: Ханты-Мансийский АО
Age: 43
Name: Сергей
Как мне кажется данная команда интересней,чем те же Bio-Cancer.Правда своё мнение я ни в коем случае никому не навязываю. :smile:


Top
 Profile  
 
 
PostPosted: 25 Mar 2016 
Alive Again
User avatar
Joined: 17 Dec 2008
Posts: 4744
Lоcаtion: Курск Воронеж Оскол
Age: 44
Name: Дмитрий
Quote:
Как мне кажется данная команда интересней,чем те же Bio-Cancer.

БиоРака не слышал, но если интереснее, то качаю! Серёга, :thanx:
А вообще я смотрю у греков метальное дело хорошо развито :true:


Top
 Profile E-mail  
 
 
PostPosted: 25 Mar 2016 
Генеральный thrasher
User avatar
Joined: 03 Oct 2008
Posts: 3539
Lоcаtion: Ханты-Мансийский АО
Age: 43
Name: Сергей
Лосяш второго альбома есть на трэкере.


Top
 Profile  
 
 
PostPosted: 25 Mar 2016 
консэрваторъ
Joined: 11 Aug 2007
Posts: 16336
Lоcаtion: Псков
Age: 44
Name: Сергей
Ага есть такие!..

_________________
THRASH 'EM ALL


Top
 Profile E-mail  
 
 
PostPosted: 26 Mar 2016 
ТрэшЭрос
User avatar
Joined: 18 Jul 2011
Posts: 2300
Lоcаtion: Гулькевичи
Age: 43
Name: Александр
Ранее стянул где-то в Сети издание Thrash Massacre Records (номер по каталогу: TM 005-09). Интересно, есть разница? :umnik:

_________________
Thrash no trash!!!


Top
 Profile E-mail  
 
 
PostPosted: 26 Mar 2016 
Генеральный thrasher
User avatar
Joined: 03 Oct 2008
Posts: 3539
Lоcаtion: Ханты-Мансийский АО
Age: 43
Name: Сергей
Оформление другое


Top
 Profile  
 
 
PostPosted: 31 Mar 2016 
Хиппей (support team)
User avatar
Joined: 30 Jul 2007
Posts: 109003
Lоcаtion: Киев (Kyiv, UA)
Age: 45
Name: Andrey
Фуф, идеальный альбом в рамках стиля :lob: :lob: :lob:
Ничего лишнего или ненужного нет. Всё звучит ровно так насколько это может звучать в идеале.
Шедевр, чо :meloman:

10/10

_________________


Top
 Profile E-mail  
 
 
PostPosted: 31 Mar 2016 
консэрваторъ
Joined: 11 Aug 2007
Posts: 16336
Lоcаtion: Псков
Age: 44
Name: Сергей
Scatterbrain wrote:
10/10

:shok: :shok: :shok:

_________________
THRASH 'EM ALL


Top
 Profile E-mail  
 
 
PostPosted: 31 Mar 2016 
Хиппей (support team)
User avatar
Joined: 30 Jul 2007
Posts: 109003
Lоcаtion: Киев (Kyiv, UA)
Age: 45
Name: Andrey
Scatterbrain wrote:
10/10

:shok: :shok: :shok:

Да, это не "Райд зэ Лайтнинг" популярный и проданный уже хз сколькими миллионами, но тоже шедевр в своём роде :kro:

_________________


Top
 Profile E-mail  
 
 
PostPosted: 31 Mar 2016 
Рарник и трушник
User avatar
Joined: 25 Dec 2009
Posts: 8488
Lоcаtion: Москва
Age: 53
Name: Виталий
thorbeorn wrote:
Style:Thrash rap

О как! :shok: Типа Эксодуса 90-го? :shok:


Top
 Profile  
 
 
PostPosted: 31 Mar 2016 
Генеральный thrasher
User avatar
Joined: 03 Oct 2008
Posts: 3539
Lоcаtion: Ханты-Мансийский АО
Age: 43
Name: Сергей
Не писал я такого стайла! :shok: Тут истинный трэшак!


Top
 Profile  
 
 
PostPosted: 22 Jun 2018 
консэрваторъ
Joined: 11 Aug 2007
Posts: 16336
Lоcаtion: Псков
Age: 44
Name: Сергей
16 июня вышел сплит с Evil Army... так себе, маловата будет, хотя 3-я весьма неплоха...


_________________
THRASH 'EM ALL


Top
 Profile E-mail  
 
Display posts from previous:  Sort by  
Post new topic Reply to topic  [ 14 posts ] 

All times are UTC + 3 hours


Who is online

Users browsing this forum: No registered users and 5 guests


You cannot post new topics in this forum
You cannot reply to topics in this forum
You cannot edit your posts in this forum
You cannot delete your posts in this forum
You cannot post attachments in this forum

Search for:
Яндекс.Метрика
Powered by phpBB © 2000, 2002, 2005, 2007 phpBB Group