\m/ 80's metal \m/

Информационно-аналитический форум "80 см пыли" (In Search We Trust) "У нас никто никуда не спешит"
Me For You - http://me-4u.com
It is currently 14 Dec 2018

All times are UTC + 3 hours

Spoiler
Chat - temporary registration for foreign users (please leave your application here)





Forum rules


Уважаемые пользователи ресурса, друзья, коллеги и гости нашего форума. Данный раздел конференции создан с целью рафинации, и посвящён такому стилевому направлению в музыке, как Thrash Metal во всех его проявлениях и ипостасях, а иногда и переходящему на пограничные стили Speed, Power, Groove, Crossover, MDM и т.п.
Главное правило здесь одно: Одна группа – одна тема! Всё остальное созвучно основным нормам поведения на конференции.
Шаблон оформления тем в этом подфоруме должен быть основан на данных сайта www.metal-archives.com и выглядеть следующим образом:

Группа (Страна) - Стилевые рамки - дискография
Slayer (USA) - Thrash Metal - дискография


В теме допустимо размещение всей информации касающейся данного коллектива: анонсы любых альбомов в любых форматах, запросы любых релизов коллектива (кроме релизов текущего и прошлого годов), обсуждения, обзоры, а в остальном всё как обычно. Уважаем друг друга, не грубим, соблюдаем нормы поведения на конференции, оформляем анонсы и запросы красиво и информативно, что бы модераторы не посчитали их троллингом, и не отправили куда положено, выписав Вам предупреждение или ещё что похуже… Прежде чем что-то запросить или запостить, пользуемся поиском! Пользуемся поиском! ПОЛЬЗУЕМСЯ ПОИСКОМ!!! Так слышно меня?.. :pardon:
Интересного, конструктивного и креативного общения! ;)



Post new topic Reply to topic  [ 35 posts ]  Go to page Previous  1, 2
Author Message
 
PostPosted: 25 Oct 2016 
Генеральный thrasher
User avatar
Joined: 03 Oct 2008
Posts: 3535
Lоcаtion: Ханты-Мансийский АО
Age: 43
Name: Сергей
И желательно на торренте выложи.


Уже выложил...


Top
 Profile  
 
 
PostPosted: 25 Oct 2016 
Генеральный thrasher
User avatar
Joined: 03 Oct 2008
Posts: 3535
Lоcаtion: Ханты-Мансийский АО
Age: 43
Name: Сергей
Image

Year:2015
Style:Thrash Metal
Country:Canada
Archive:Flac+Cue+Log+Scans
Source:my CD
Size:296Mb
Label:High Roller Records

Tracklist:
01. Intro 01:48
02. Punch Drunk 03:42
03. Escape From Reality 04:05
04. Dictator 03:41
05. The Bleeder 02:24
06. Out Of Control 01:50
07. Molotov Cocktail 04:17
08. Human 04:05
09. Plastic Surgery 04:27
10. Fuck Your Skull 03:54
11. Cursed By My Thirst 05:13

"Cue"
REM GENRE "Thrash Metal"
REM DATE 2015
REM DISCID 8909390B
REM COMMENT "ExactAudioCopy v1.1"
PERFORMER "Alcoholator "
TITLE "Escape From Reality"
FILE "Alcoholator - Escape From Reality.flac" WAVE
TRACK 01 AUDIO
TITLE "Intro"
PERFORMER "Alcoholator "
INDEX 01 00:00:00
TRACK 02 AUDIO
TITLE "Punch Drunk"
PERFORMER "Alcoholator "
INDEX 01 01:48:62
INDEX 02 05:31:35
TRACK 03 AUDIO
TITLE "Escape From Reality"
PERFORMER "Alcoholator "
INDEX 01 05:31:36
TRACK 04 AUDIO
TITLE "Dictator"
PERFORMER "Alcoholator "
INDEX 00 09:37:12
INDEX 01 09:37:13
TRACK 05 AUDIO
TITLE "The Bleeder"
PERFORMER "Alcoholator "
INDEX 01 13:11:71
TRACK 06 AUDIO
TITLE "Out Of Control"
PERFORMER "Alcoholator "
INDEX 01 15:36:18
TRACK 07 AUDIO
TITLE "Molotov Cocktail"
PERFORMER "Alcoholator "
INDEX 01 17:26:69
TRACK 08 AUDIO
TITLE "Human"
PERFORMER "Alcoholator "
INDEX 01 21:44:20
TRACK 09 AUDIO
TITLE "Plastic Surgery"
PERFORMER "Alcoholator "
INDEX 01 25:49:38
TRACK 10 AUDIO
TITLE "Fuck Your Skull"
PERFORMER "Alcoholator "
INDEX 01 30:17:03
TRACK 11 AUDIO
TITLE "Cursed By My Thirst"
PERFORMER "Alcoholator "
INDEX 00 34:11:06
INDEX 01 34:11:07

"Log"
Exact Audio Copy V1.1 from 23. June 2015

Отчёт EAC об извлечении, выполненном 25. октября 2016, 9:02

Alcoholator / Escape From Reality

Дисковод: HL-DT-STDVDRAM GTA0N Adapter: 1 ID: 0

Режим чтения : Достоверность
Использование точного потока : Да
Отключение кэша аудио : Да
Использование указателей C2 : Нет

Коррекция смещения при чтении : 102
Способность читать области Lead-in и Lead-out : Нет
Заполнение пропущенных сэмплов тишиной : Да
Удаление блоков с тишиной в начале и конце : Нет
При вычислениях CRC использовались нулевые сэмплы : Да
Интерфейс : Встроенный Win32-интерфейс для Win NT/2000

Выходной формат : Пользовательский кодировщик
Выбранный битрейт : 768 kBit/s
Качество : Высокий
Добавление ID3-тега : Нет
Утилита сжатия : C:\Program Files (x86)\Exact Audio Copy\FLAC\FLAC.EXE
Дополнительные параметры : -6 -V -T "ARTIST=%artist%" -T "TITLE=%title%" -T "ALBUM=%albumtitle%" -T "DATE=%year%" -T "TRACKNUMBER=%tracknr%" -T "GENRE=%genre%" -T "COMMENT=%comment%" -T "BAND=%albuminterpret%" -T "ALBUMARTIST=%albuminterpret%" -T "COMPOSER=%composer%" %haslyrics%--tag-from-file=LYRICS="%lyricsfile%"%haslyrics% -T "DISCNUMBER=%cdnumber%" -T "TOTALDISCS=%totalcds%" -T "TOTALTRACKS=%numtracks%" %hascover%--picture="%coverfile%"%hascover% %source% -o %dest%


TOC извлечённого CD

Трек | Старт | Длительность | Начальный сектор | Конечный сектор
---------------------------------------------------------------------
1 | 0:00.00 | 1:48.62 | 0 | 8161
2 | 1:48.62 | 3:42.49 | 8162 | 24860
3 | 5:31.36 | 4:05.52 | 24861 | 43287
4 | 9:37.13 | 3:34.58 | 43288 | 59395
5 | 13:11.71 | 2:24.22 | 59396 | 70217
6 | 15:36.18 | 1:50.51 | 70218 | 78518
7 | 17:26.69 | 4:17.26 | 78519 | 97819
8 | 21:44.20 | 4:05.18 | 97820 | 116212
9 | 25:49.38 | 4:27.40 | 116213 | 136277
10 | 30:17.03 | 3:54.04 | 136278 | 153831
11 | 34:11.07 | 5:10.25 | 153832 | 177106


Характеристики диапазона извлечения и сообщения об ошибках

Выбранный диапазон

Имя файла C:\Users\магазин\Music\Alcoholator - Escape From Reality.wav

Пиковый уровень 97.0 %
Скорость извлечения 3.7 X
Качество диапазона 100.0 %
CRC копии C91EB9C3
Копирование... OK

Ошибок не произошло


AccurateRip: сводка

Трек 1 отсутствует в базе данных
Трек 2 отсутствует в базе данных
Трек 3 отсутствует в базе данных
Трек 4 отсутствует в базе данных
Трек 5 отсутствует в базе данных
Трек 6 отсутствует в базе данных
Трек 7 отсутствует в базе данных
Трек 8 отсутствует в базе данных
Трек 9 отсутствует в базе данных
Трек 10 отсутствует в базе данных
Трек 11 отсутствует в базе данных

Ни одного трека нет в базе AccurateRip

Конец отчёта

---- CUETools DB Plugin V2.1.6

[CTDB TOCID: wPE9e63w9ZwNkRp0Fbx4r2cb00s-] found
Submit result: wPE9e63w9ZwNkRp0Fbx4r2cb00s- has been confirmed
Track | CTDB Status
1 | (2/2) Accurately ripped
2 | (2/2) Accurately ripped
3 | (2/2) Accurately ripped
4 | (2/2) Accurately ripped
5 | (2/2) Accurately ripped
6 | (2/2) Accurately ripped
7 | (2/2) Accurately ripped
8 | (2/2) Accurately ripped
9 | (2/2) Accurately ripped
10 | (2/2) Accurately ripped
11 | (2/2) Accurately ripped


Escape From Reality


Last edited by thorbeorn on 25 Oct 2016, edited 1 time in total.

Top
 Profile  
 
 
PostPosted: 25 Oct 2016 
Прокъмитолист
User avatar
Joined: 12 Aug 2007
Posts: 6514
Lоcаtion: Санктъ-Петербуркъ
Age: 51
Name: Олекъ
:thanx:

_________________
прокъметол - это музыко, от которово есть прок (ы)


Top
 Profile  
 
 
PostPosted: 25 Oct 2016 
Хиппей (support team)
User avatar
Joined: 30 Jul 2007
Posts: 108896
Lоcаtion: Киев (Kyiv, UA)
Age: 45
Name: Andrey
:thanx:

mirrror: iFolder l Narod l M-Cloud

_________________


Top
 Profile E-mail  
 
 
PostPosted: 25 Oct 2016 
Генеральный thrasher
User avatar
Joined: 03 Oct 2008
Posts: 3535
Lоcаtion: Ханты-Мансийский АО
Age: 43
Name: Сергей
Однако на архивах стоит статус Split-up.Неужто развалились?!


Top
 Profile  
 
 
PostPosted: 25 Oct 2016 
консэрваторъ
Joined: 11 Aug 2007
Posts: 16319
Lоcаtion: Псков
Age: 44
Name: Сергей
Забрал, спасибо!.. Цид - наше всё!.. :lob:
https://rutracker.org/forum/viewtopic.php?t=5301895

_________________
THRASH 'EM ALL


Top
 Profile E-mail  
 
 
PostPosted: 25 Oct 2016 
консэрваторъ
Joined: 11 Aug 2007
Posts: 16319
Lоcаtion: Псков
Age: 44
Name: Сергей
Сначала в виниловом разделе увидел, теперь здесь... Спасибо, Серёга, огромное!..
Странно... кто сплитапнул на МА?.. На FB последняя запись от 21 марта... твитов тоже нету... написал парням, что б разъяснили... :vic:

_________________
THRASH 'EM ALL


Top
 Profile E-mail  
 
 
PostPosted: 25 Oct 2016 
Хиппей (support team)
User avatar
Joined: 30 Jul 2007
Posts: 108896
Lоcаtion: Киев (Kyiv, UA)
Age: 45
Name: Andrey
Альбом мощен, монолитен и даже местами оригинален :lob: :lob: :lob:

Три раза для осознания всех глубин маловато. Завтра продолжу слушать :pardon:
А то пока такая цепочка вырисовалась: Kreator + Exodus + Sodom = Alcoholator

_________________


Top
 Profile E-mail  
 
 
PostPosted: 25 Oct 2016 
Я набрал 1000 сообщений!
Joined: 09 Jul 2008
Posts: 2481
Age: 45
Name: Сергей
оригинален практически как... танкард


Top
 Profile  
 
 
PostPosted: 25 Oct 2016 
консэрваторъ
Joined: 11 Aug 2007
Posts: 16319
Lоcаtion: Псков
Age: 44
Name: Сергей
splatty wrote:
кто сплитапнул на МА?

Modified by: LannersX
Last modified on: 2016-10-25 10:33:22

_________________
THRASH 'EM ALL


Top
 Profile E-mail  
 
 
PostPosted: 26 Oct 2016 
Хиппей (support team)
User avatar
Joined: 30 Jul 2007
Posts: 108896
Lоcаtion: Киев (Kyiv, UA)
Age: 45
Name: Andrey
оригинален практически как... танкард

Кста, да, и частичка Танкарда есть. И не только в лирике.

_________________


Top
 Profile E-mail  
 
 
PostPosted: 26 Oct 2016 
Хиппей (support team)
User avatar
Joined: 30 Jul 2007
Posts: 108896
Lоcаtion: Киев (Kyiv, UA)
Age: 45
Name: Andrey
6+/10

Просто качественный и однородный (особенно как для Канады), скоростной трэшак в олдскульном стиле.
Однородный, но не однотипный. Но пока да, (или уже), ничего своего, оригинального, у группы нет :pardon:

_________________


Top
 Profile E-mail  
 
 
PostPosted: 26 Oct 2016 
консэрваторъ
Joined: 11 Aug 2007
Posts: 16319
Lоcаtion: Псков
Age: 44
Name: Сергей
А вот и ответ...
Alcoholator wrote:
Hey man! Actually the future of the band isn't exactly clear at the moment, for now I'd say we are on hiatus for an undetermined amount of time!

Надо бы статус на МА поменять на холд-он... :oops:

_________________
THRASH 'EM ALL


Top
 Profile E-mail  
 
 
PostPosted: 27 Oct 2016 
Хиппей (support team)
User avatar
Joined: 30 Jul 2007
Posts: 108896
Lоcаtion: Киев (Kyiv, UA)
Age: 45
Name: Andrey
Альбом 11 года также мной был активно вчера-сегодня заслушан.
Ничего тоже интересного там не нашёл. Чем отличается? Кавером на Эксайтер и вокалист ещё немного позвизгиванием подкашивает под Арайю :pardon:

Завтра залью к нам.

5-/10

splatty wrote:
Надо бы статус на МА поменять на холд-он... :oops:

:thanx:
Заменим ща.

_________________


Top
 Profile E-mail  
 
 
PostPosted: 29 Oct 2016 
Хиппей (support team)
User avatar
Joined: 30 Jul 2007
Posts: 108896
Lоcаtion: Киев (Kyiv, UA)
Age: 45
Name: Andrey
Alcoholator - 2011 - Coma [flac]


Image Image

mirror: iFolder l Narod l M-Cloud

Image Image Image

Image Image Image

Image Image

log
Exact Audio Copy V1.0 beta 1 from 15. November 2010

EAC extraction logfile from 4. December 2011, 21:31

ALCOHOLATOR / Coma

Used drive : Optiarc DVD RW AD-7203A Adapter: 0 ID: 1

Read mode : Secure
Utilize accurate stream : Yes
Defeat audio cache : Yes
Make use of C2 pointers : No

Read offset correction : 48
Overread into Lead-In and Lead-Out : No
Fill up missing offset samples with silence : Yes
Delete leading and trailing silent blocks : No
Null samples used in CRC calculations : Yes
Used interface : Native Win32 interface for Win NT & 2000

Used output format : User Defined Encoder
Selected bitrate : 1024 kBit/s
Quality : High
Add ID3 tag : Yes
Command line compressor : C:\Program Files (x86)\Exact Audio Copy 1.0b\FLAC\FLAC.EXE
Additional command line options : -6 -V -T "ARTIST=%a" -T "TITLE=%t" -T "ALBUM=%g" -T "DATE=%y" -T "TRACKNUMBER=%n" -T "GENRE=%m" -T "COMMENT=%e" %j--picture="%i"%j %s -o %d


TOC of the extracted CD

Track | Start | Length | Start sector | End sector
---------------------------------------------------------
1 | 0:00.00 | 2:04.60 | 0 | 9359
2 | 2:04.60 | 2:36.65 | 9360 | 21124
3 | 4:41.50 | 3:21.29 | 21125 | 36228
4 | 8:03.04 | 4:54.50 | 36229 | 58328
5 | 12:57.54 | 3:46.73 | 58329 | 75351
6 | 16:44.52 | 3:35.71 | 75352 | 91547
7 | 20:20.48 | 4:22.01 | 91548 | 111198
8 | 24:42.49 | 3:47.09 | 111199 | 128232
9 | 28:29.58 | 3:15.69 | 128233 | 142926
10 | 31:45.52 | 3:27.01 | 142927 | 158452


Range status and errors

Selected range

Filename H:\DEN@K\ALCOHOLATOR - Coma 2011\ALCOHOLATOR - Coma.wav

Peak level 97.7 %
Extraction speed 0.3 X
Range quality 100.0 %
Test CRC B193AEB4
Copy CRC B193AEB4
Copy OK

No errors occurred


AccurateRip summary

Track 1 not present in database
Track 2 not present in database
Track 3 not present in database
Track 4 not present in database
Track 5 not present in database
Track 6 not present in database
Track 7 not present in database
Track 8 not present in database
Track 9 not present in database
Track 10 not present in database

None of the tracks are present in the AccurateRip database

End of status report

==== Log checksum E08B880B4A35640231E2E6E6118B42648BF77F9C8B018E240FF70534020B3B94 ====

cue
REM GENRE "Thrash Metal"
REM DATE 2011
REM DISCID 7A08400A
REM COMMENT "ExactAudioCopy v1.0b1"
PERFORMER "ALCOHOLATOR"
TITLE "Coma"
FILE "ALCOHOLATOR - Coma.flac" WAVE
TRACK 01 AUDIO
TITLE "Intoxication 101"
PERFORMER "ALCOHOLATOR"
ISRC 000000000000
FLAGS DCP
INDEX 01 00:00:00
TRACK 02 AUDIO
TITLE "Alcoholator"
PERFORMER "ALCOHOLATOR"
ISRC 000000000000
FLAGS DCP
INDEX 01 02:04:60
TRACK 03 AUDIO
TITLE "Catastrophic Violence"
PERFORMER "ALCOHOLATOR"
ISRC 000000000000
FLAGS DCP
INDEX 01 04:41:50
TRACK 04 AUDIO
TITLE "Abduction"
PERFORMER "ALCOHOLATOR"
ISRC 000000000000
FLAGS DCP
INDEX 01 08:03:04
TRACK 05 AUDIO
TITLE "Pounding Metal (Exciter Cover)"
PERFORMER "ALCOHOLATOR"
ISRC 000000000000
FLAGS DCP
INDEX 01 12:57:54
TRACK 06 AUDIO
TITLE "The Chamber"
PERFORMER "ALCOHOLATOR"
ISRC 000000000000
FLAGS DCP
INDEX 01 16:44:52
TRACK 07 AUDIO
TITLE "Liquid Thrash"
PERFORMER "ALCOHOLATOR"
ISRC 000000000000
FLAGS DCP
INDEX 01 20:20:48
TRACK 08 AUDIO
TITLE "Drink Beer... Or Die Trying"
PERFORMER "ALCOHOLATOR"
ISRC 000000000000
FLAGS DCP
INDEX 01 24:42:49
TRACK 09 AUDIO
TITLE "Break The Wall"
PERFORMER "ALCOHOLATOR"
ISRC 000000000000
FLAGS DCP
INDEX 01 28:29:58
TRACK 10 AUDIO
TITLE "Wasted (All The Time)"
PERFORMER "ALCOHOLATOR"
ISRC 000000000000
FLAGS DCP
INDEX 01 31:45:52

_________________


Top
 Profile E-mail  
 
Display posts from previous:  Sort by  
Post new topic Reply to topic  [ 35 posts ]  Go to page Previous  1, 2

All times are UTC + 3 hours


Who is online

Users browsing this forum: No registered users and 2 guests


You cannot post new topics in this forum
You cannot reply to topics in this forum
You cannot edit your posts in this forum
You cannot delete your posts in this forum
You cannot post attachments in this forum

Search for:
Яндекс.Метрика
Powered by phpBB © 2000, 2002, 2005, 2007 phpBB Group