\m/ 80's metal \m/

Информационно-аналитический форум "80 см пыли" (In Search We Trust) "У нас никто никуда не спешит"
Me For You - http://me-4u.com
It is currently 12 Dec 2018

All times are UTC + 3 hours

Spoiler
Chat - temporary registration for foreign users (please leave your application here)





Forum rules


Уважаемые пользователи ресурса, друзья, коллеги и гости нашего форума. Данный раздел конференции создан с целью рафинации, и посвящён такому стилевому направлению в музыке, как Thrash Metal во всех его проявлениях и ипостасях, а иногда и переходящему на пограничные стили Speed, Power, Groove, Crossover, MDM и т.п.
Главное правило здесь одно: Одна группа – одна тема! Всё остальное созвучно основным нормам поведения на конференции.
Шаблон оформления тем в этом подфоруме должен быть основан на данных сайта www.metal-archives.com и выглядеть следующим образом:

Группа (Страна) - Стилевые рамки - дискография
Slayer (USA) - Thrash Metal - дискография


В теме допустимо размещение всей информации касающейся данного коллектива: анонсы любых альбомов в любых форматах, запросы любых релизов коллектива (кроме релизов текущего и прошлого годов), обсуждения, обзоры, а в остальном всё как обычно. Уважаем друг друга, не грубим, соблюдаем нормы поведения на конференции, оформляем анонсы и запросы красиво и информативно, что бы модераторы не посчитали их троллингом, и не отправили куда положено, выписав Вам предупреждение или ещё что похуже… Прежде чем что-то запросить или запостить, пользуемся поиском! Пользуемся поиском! ПОЛЬЗУЕМСЯ ПОИСКОМ!!! Так слышно меня?.. :pardon:
Интересного, конструктивного и креативного общения! ;)



Post new topic Reply to topic  [ 58 posts ]  Go to page Previous  1, 2, 3
Author Message
 
PostPosted: 15 Feb 2016 
Хиппей (support team)
User avatar
Joined: 30 Jul 2007
Posts: 108846
Lоcаtion: Киев (Kyiv, UA)
Age: 45
Name: Andrey
Немного попривык к саунду и дуболомным однообразным скоростям и воплям на новом альбоме. Слушаю, но такое ощущение, что моей головой играют в футбол :sp: А я стою, и не могу нормально пописять :lloo: :cry:

_________________


Top
 Profile E-mail  
 
 
PostPosted: 15 Feb 2016 
Хиппей (support team)
User avatar
Joined: 30 Jul 2007
Posts: 108846
Lоcаtion: Киев (Kyiv, UA)
Age: 45
Name: Andrey
splatty wrote:
завтра... надо будет стену делать, счас не дадут...

НЕ слушай на тех колонках, которые недавно починил! :(

_________________


Top
 Profile E-mail  
 
 
PostPosted: 15 Feb 2016 
Хиппей (support team)
User avatar
Joined: 30 Jul 2007
Posts: 108846
Lоcаtion: Киев (Kyiv, UA)
Age: 45
Name: Andrey
Не нашёл 11-го года в Имуле. Пришлось качать отсюда: http://rutracker.org/forum/viewtopic.php?t=4118651 :vic:

_________________


Top
 Profile E-mail  
 
 
PostPosted: 15 Feb 2016 
Хиппей (support team)
User avatar
Joined: 30 Jul 2007
Posts: 108846
Lоcаtion: Киев (Kyiv, UA)
Age: 45
Name: Andrey
Scatterbrain wrote:
IN MALICE'S WAKE [2015] [CD] Light upon the Wicked [EAC-FLAC] by Dee Alex [MeTaLMaDNeSS.TeaM].rar

Тьху, не, не моё это.
Однозначно боллбрэйкерный альбом, безвкусный, примитивный модный трэшак на грани МДМ-воплей.

3/10

_________________


Top
 Profile E-mail  
 
 
PostPosted: 15 Feb 2016 
Alive Again
User avatar
Joined: 17 Dec 2008
Posts: 4744
Lоcаtion: Курск Воронеж Оскол
Age: 44
Name: Дмитрий
Хорошая группа, в своё время её выкладывал Денис Denak, 2011 мне больше понравился, там они сохранили напор и отточили профессионализм.


Top
 Profile E-mail  
 
 
PostPosted: 15 Feb 2016 
Хиппей (support team)
User avatar
Joined: 30 Jul 2007
Posts: 108846
Lоcаtion: Киев (Kyiv, UA)
Age: 45
Name: Andrey
IN MALICE'S WAKE - The Thrashening 2011 [FLAC]

Image

mirror: iFolder l Narod l M-Cloud

Почти исключительный по всем характеристикам альбом.
Трушнейший трэшак в духе конца 80-х - лучший образчик таких групп, как Kreator & Sodom :lob: :lob: :lob:

8+/10

log
Exact Audio Copy V1.0 beta 1 from 15. November 2010

EAC extraction logfile from 27. August 2011, 18:22

IN MALICE'S WAKE / The Thrashening

Used drive : Optiarc DVD RW AD-7203A Adapter: 0 ID: 1

Read mode : Secure
Utilize accurate stream : Yes
Defeat audio cache : Yes
Make use of C2 pointers : No

Read offset correction : 48
Overread into Lead-In and Lead-Out : No
Fill up missing offset samples with silence : Yes
Delete leading and trailing silent blocks : No
Null samples used in CRC calculations : Yes
Used interface : Native Win32 interface for Win NT & 2000

Used output format : User Defined Encoder
Selected bitrate : 1024 kBit/s
Quality : High
Add ID3 tag : Yes
Command line compressor : C:\Program Files (x86)\Exact Audio Copy 1.0b\FLAC\FLAC.EXE
Additional command line options : -6 -V -T "ARTIST=%a" -T "TITLE=%t" -T "ALBUM=%g" -T "DATE=%y" -T "TRACKNUMBER=%n" -T "GENRE=%m" -T "COMMENT=%e" %j--picture="%i"%j %s -o %d


TOC of the extracted CD

Track | Start | Length | Start sector | End sector
---------------------------------------------------------
1 | 0:00.00 | 3:28.28 | 0 | 15627
2 | 3:28.28 | 3:14.29 | 15628 | 30206
3 | 6:42.57 | 4:23.19 | 30207 | 49950
4 | 11:06.01 | 3:37.74 | 49951 | 66299
5 | 14:44.00 | 5:20.05 | 66300 | 90304
6 | 20:04.05 | 3:20.21 | 90305 | 105325
7 | 23:24.26 | 4:14.39 | 105326 | 124414
8 | 27:38.65 | 4:24.52 | 124415 | 144266


Range status and errors

Selected range

Filename H:\DEN@K\IN MALICE'S WAKE - The Thrashening 2011\IN MALICE'S WAKE - The Thrashening.wav

Peak level 98.8 %
Extraction speed 0.4 X
Range quality 100.0 %
Test CRC 9EEE5B7C
Copy CRC 9EEE5B7C
Copy OK

No errors occurred


AccurateRip summary

Track 1 not present in database
Track 2 not present in database
Track 3 not present in database
Track 4 not present in database
Track 5 not present in database
Track 6 not present in database
Track 7 not present in database
Track 8 not present in database

None of the tracks are present in the AccurateRip database

End of status report

==== Log checksum 036AE99BCB85E63EACEC8A626833AB813B302FAA6A048EDC6681F44387FE5AC5 ====

cue
REM GENRE "Thrash Metal"
REM DATE 2011
REM DISCID 58078308
REM COMMENT "ExactAudioCopy v1.0b1"
PERFORMER "IN MALICE'S WAKE"
TITLE "The Thrashening"
FILE "IN MALICE'S WAKE - The Thrashening.flac" WAVE
TRACK 01 AUDIO
TITLE "Endless Possession"
PERFORMER "IN MALICE'S WAKE"
FLAGS DCP
INDEX 01 00:00:00
TRACK 02 AUDIO
TITLE "Evil By Design"
PERFORMER "IN MALICE'S WAKE"
FLAGS DCP
INDEX 01 03:28:28
TRACK 03 AUDIO
TITLE "Onslaught"
PERFORMER "IN MALICE'S WAKE"
FLAGS DCP
INDEX 01 06:42:57
TRACK 04 AUDIO
TITLE "Fuel For The Fire"
PERFORMER "IN MALICE'S WAKE"
FLAGS DCP
INDEX 01 11:06:01
TRACK 05 AUDIO
TITLE "The Crawling Chaos"
PERFORMER "IN MALICE'S WAKE"
FLAGS DCP
INDEX 01 14:44:00
TRACK 06 AUDIO
TITLE "Join Us And Fight"
PERFORMER "IN MALICE'S WAKE"
FLAGS DCP
INDEX 01 20:04:05
TRACK 07 AUDIO
TITLE "No Escape"
PERFORMER "IN MALICE'S WAKE"
FLAGS DCP
INDEX 01 23:24:26
TRACK 08 AUDIO
TITLE "Nuclear Shadow"
PERFORMER "IN MALICE'S WAKE"
FLAGS DCP
INDEX 01 27:38:65

_________________


Top
 Profile E-mail  
 
 
PostPosted: 16 Feb 2016 
консэрваторъ
Joined: 11 Aug 2007
Posts: 16314
Lоcаtion: Псков
Age: 44
Name: Сергей
Вот и дискографию подсобрали... :true: дема в мп3 здесь... :arrow: viewtopic.php?p=237471#p237471
Подсобрали, да не всё... Концертник ещё у них имеется 2014 года... :oops: Visions of Live Destruction
На тубе есть в 256, если что... https://www.youtube.com/watch?v=g2mjcaX ... xMjHwPt3Or

_________________
THRASH 'EM ALL


Top
 Profile E-mail  
 
 
PostPosted: 16 Feb 2016 
Motörheadache
User avatar
Joined: 04 Feb 2010
Posts: 1294
Lоcаtion: Впереди- горы,позади-степи
Age: 45
Name: Александр
IN MALICE'S WAKE - The Thrashening 2011 [FLAC]

Image

mirror: iFolder l Narod l M-Cloud

Почти исключительный по всем характеристикам альбом.
Трушнейший трэшак в духе конца 80-х - лучший образчик таких групп, как Kreator & Sodom :lob: :lob: :lob:

8+/10
10\10....
И вообще- +100500 :lob: :lob: :lob: :lob: :lob: :lob: :lob: :lob:

log
Exact Audio Copy V1.0 beta 1 from 15. November 2010

EAC extraction logfile from 27. August 2011, 18:22

IN MALICE'S WAKE / The Thrashening

Used drive : Optiarc DVD RW AD-7203A Adapter: 0 ID: 1

Read mode : Secure
Utilize accurate stream : Yes
Defeat audio cache : Yes
Make use of C2 pointers : No

Read offset correction : 48
Overread into Lead-In and Lead-Out : No
Fill up missing offset samples with silence : Yes
Delete leading and trailing silent blocks : No
Null samples used in CRC calculations : Yes
Used interface : Native Win32 interface for Win NT & 2000

Used output format : User Defined Encoder
Selected bitrate : 1024 kBit/s
Quality : High
Add ID3 tag : Yes
Command line compressor : C:\Program Files (x86)\Exact Audio Copy 1.0b\FLAC\FLAC.EXE
Additional command line options : -6 -V -T "ARTIST=%a" -T "TITLE=%t" -T "ALBUM=%g" -T "DATE=%y" -T "TRACKNUMBER=%n" -T "GENRE=%m" -T "COMMENT=%e" %j--picture="%i"%j %s -o %d


TOC of the extracted CD

Track | Start | Length | Start sector | End sector
---------------------------------------------------------
1 | 0:00.00 | 3:28.28 | 0 | 15627
2 | 3:28.28 | 3:14.29 | 15628 | 30206
3 | 6:42.57 | 4:23.19 | 30207 | 49950
4 | 11:06.01 | 3:37.74 | 49951 | 66299
5 | 14:44.00 | 5:20.05 | 66300 | 90304
6 | 20:04.05 | 3:20.21 | 90305 | 105325
7 | 23:24.26 | 4:14.39 | 105326 | 124414
8 | 27:38.65 | 4:24.52 | 124415 | 144266


Range status and errors

Selected range

Filename H:\DEN@K\IN MALICE'S WAKE - The Thrashening 2011\IN MALICE'S WAKE - The Thrashening.wav

Peak level 98.8 %
Extraction speed 0.4 X
Range quality 100.0 %
Test CRC 9EEE5B7C
Copy CRC 9EEE5B7C
Copy OK

No errors occurred


AccurateRip summary

Track 1 not present in database
Track 2 not present in database
Track 3 not present in database
Track 4 not present in database
Track 5 not present in database
Track 6 not present in database
Track 7 not present in database
Track 8 not present in database

None of the tracks are present in the AccurateRip database

End of status report

==== Log checksum 036AE99BCB85E63EACEC8A626833AB813B302FAA6A048EDC6681F44387FE5AC5 ====

cue
REM GENRE "Thrash Metal"
REM DATE 2011
REM DISCID 58078308
REM COMMENT "ExactAudioCopy v1.0b1"
PERFORMER "IN MALICE'S WAKE"
TITLE "The Thrashening"
FILE "IN MALICE'S WAKE - The Thrashening.flac" WAVE
TRACK 01 AUDIO
TITLE "Endless Possession"
PERFORMER "IN MALICE'S WAKE"
FLAGS DCP
INDEX 01 00:00:00
TRACK 02 AUDIO
TITLE "Evil By Design"
PERFORMER "IN MALICE'S WAKE"
FLAGS DCP
INDEX 01 03:28:28
TRACK 03 AUDIO
TITLE "Onslaught"
PERFORMER "IN MALICE'S WAKE"
FLAGS DCP
INDEX 01 06:42:57
TRACK 04 AUDIO
TITLE "Fuel For The Fire"
PERFORMER "IN MALICE'S WAKE"
FLAGS DCP
INDEX 01 11:06:01
TRACK 05 AUDIO
TITLE "The Crawling Chaos"
PERFORMER "IN MALICE'S WAKE"
FLAGS DCP
INDEX 01 14:44:00
TRACK 06 AUDIO
TITLE "Join Us And Fight"
PERFORMER "IN MALICE'S WAKE"
FLAGS DCP
INDEX 01 20:04:05
TRACK 07 AUDIO
TITLE "No Escape"
PERFORMER "IN MALICE'S WAKE"
FLAGS DCP
INDEX 01 23:24:26
TRACK 08 AUDIO
TITLE "Nuclear Shadow"
PERFORMER "IN MALICE'S WAKE"
FLAGS DCP
INDEX 01 27:38:65

_________________
Eine Nation, Ein Land, Eine Schnaps!

Наш священный долг:защищать Родину,и соблюдать правила личной гигиены....!


Top
 Profile E-mail  
 
 
PostPosted: 16 Feb 2016 
консэрваторъ
Joined: 11 Aug 2007
Posts: 16314
Lоcаtion: Псков
Age: 44
Name: Сергей
Саш, ты бы хоть козу вскинул, а не просто проквотил поста Саныча... :pardon: А, пардон, твоё мнение об альбоме в цитату попало... Теперь получается, что это Саныч даёт альбому +100500... :pardon:

_________________
THRASH 'EM ALL


Top
 Profile E-mail  
 
 
PostPosted: 16 Feb 2016 
Хиппей (support team)
User avatar
Joined: 30 Jul 2007
Posts: 108846
Lоcаtion: Киев (Kyiv, UA)
Age: 45
Name: Andrey
Сань, спасибо =))) :thanx:
Красиво ты врезался :crazy:

_________________


Top
 Profile E-mail  
 
 
PostPosted: 16 Feb 2016 
Хиппей (support team)
User avatar
Joined: 30 Jul 2007
Posts: 108846
Lоcаtion: Киев (Kyiv, UA)
Age: 45
Name: Andrey
Вот и дискографию подсобрали... :true: дема в мп3 здесь... :arrow: viewtopic.php?p=237471#p237471
Подсобрали, да не всё... Концертник ещё у них имеется 2014 года... :oops: Visions of Live Destruction
На тубе есть в 256, если что... https://www.youtube.com/watch?v=g2mjcaX ... xMjHwPt3Or

http://www.inmaliceswake.com/store.htm всего 20 кенгурячих доліров вопрос :kro:

_________________


Top
 Profile E-mail  
 
 
PostPosted: 16 Feb 2016 
ТрэшЭрос
User avatar
Joined: 18 Jul 2011
Posts: 2300
Lоcаtion: Гулькевичи
Age: 43
Name: Александр
thorbeorn wrote:
08. As Dusk Covers Day 05:50

С 00:31 по 00:43 кого-то напоминает :true: :true: :true:

_________________
Thrash no trash!!!


Top
 Profile E-mail  
 
 
PostPosted: 16 Feb 2016 
Хиппей (support team)
User avatar
Joined: 30 Jul 2007
Posts: 108846
Lоcаtion: Киев (Kyiv, UA)
Age: 45
Name: Andrey
thorbeorn wrote:
08. As Dusk Covers Day 05:50

С 00:31 по 00:43 кого-то напоминает :true: :true: :true:

Типа вступление к... Master Of Puppets? :scratch:

http://s.muzyki.net/m.php?q=-99878016_393794475

_________________


Top
 Profile E-mail  
 
 
PostPosted: 16 Feb 2016 
ТрэшЭрос
User avatar
Joined: 18 Jul 2011
Posts: 2300
Lоcаtion: Гулькевичи
Age: 43
Name: Александр
Scatterbrain wrote:
Типа вступление к... Master Of Puppets?

Ну не совсем так :crazy: Это Hit The Lights :vic:

_________________
Thrash no trash!!!


Top
 Profile E-mail  
 
 
PostPosted: 16 Feb 2016 
Хиппей (support team)
User avatar
Joined: 30 Jul 2007
Posts: 108846
Lоcаtion: Киев (Kyiv, UA)
Age: 45
Name: Andrey
:shok:

_________________


Top
 Profile E-mail  
 
 
PostPosted: 16 Feb 2016 
Хиппей (support team)
User avatar
Joined: 30 Jul 2007
Posts: 108846
Lоcаtion: Киев (Kyiv, UA)
Age: 45
Name: Andrey
Хотя, да, почти 1 в 1 вступление :meloman:



Хотя, обычно так песни завершают :crazy:

_________________


Top
 Profile E-mail  
 
 
PostPosted: 18 Feb 2016 
консэрваторъ
Joined: 11 Aug 2007
Posts: 16314
Lоcаtion: Псков
Age: 44
Name: Сергей
15-ый - железобетонная стена!.. :true:

_________________
THRASH 'EM ALL


Top
 Profile E-mail  
 
 
PostPosted: 20 Feb 2016 
Хиппей (support team)
User avatar
Joined: 30 Jul 2007
Posts: 108846
Lоcаtion: Киев (Kyiv, UA)
Age: 45
Name: Andrey
15-ый - железобетонная стена!.. :true:

Ну да, ни встать, ни пёрднуть :fingal:

_________________


Top
 Profile E-mail  
 
Display posts from previous:  Sort by  
Post new topic Reply to topic  [ 58 posts ]  Go to page Previous  1, 2, 3

All times are UTC + 3 hours


Who is online

Users browsing this forum: No registered users and 6 guests


You cannot post new topics in this forum
You cannot reply to topics in this forum
You cannot edit your posts in this forum
You cannot delete your posts in this forum
You cannot post attachments in this forum

Search for:
Яндекс.Метрика
Powered by phpBB © 2000, 2002, 2005, 2007 phpBB Group