\m/ 80's metal \m/

Информационно-аналитический форум "80 см пыли" (In Search We Trust) "У нас никто никуда не спешит"
Me For You - http://me-4u.com
It is currently 17 Dec 2018

All times are UTC + 3 hours

Spoiler
Chat - temporary registration for foreign users (please leave your application here)





Forum rules


Уважаемые пользователи ресурса, друзья, коллеги и гости нашего форума. Данный раздел конференции создан с целью рафинации, и посвящён такому стилевому направлению в музыке, как Thrash Metal во всех его проявлениях и ипостасях, а иногда и переходящему на пограничные стили Speed, Power, Groove, Crossover, MDM и т.п.
Главное правило здесь одно: Одна группа – одна тема! Всё остальное созвучно основным нормам поведения на конференции.
Шаблон оформления тем в этом подфоруме должен быть основан на данных сайта www.metal-archives.com и выглядеть следующим образом:

Группа (Страна) - Стилевые рамки - дискография
Slayer (USA) - Thrash Metal - дискография


В теме допустимо размещение всей информации касающейся данного коллектива: анонсы любых альбомов в любых форматах, запросы любых релизов коллектива (кроме релизов текущего и прошлого годов), обсуждения, обзоры, а в остальном всё как обычно. Уважаем друг друга, не грубим, соблюдаем нормы поведения на конференции, оформляем анонсы и запросы красиво и информативно, что бы модераторы не посчитали их троллингом, и не отправили куда положено, выписав Вам предупреждение или ещё что похуже… Прежде чем что-то запросить или запостить, пользуемся поиском! Пользуемся поиском! ПОЛЬЗУЕМСЯ ПОИСКОМ!!! Так слышно меня?.. :pardon:
Интересного, конструктивного и креативного общения! ;)



Post new topic Reply to topic  [ 58 posts ]  Go to page Previous  1, 2, 3  Next
Author Message
 
PostPosted: 15 Feb 2016 
Персональный статус
Joined: 19 Jul 2010
Posts: 282
Lоcаtion: Москва
Name: Вадим
Спасибо. Зачетный альбом получился, понравился. Раньше не слышал группу.


Top
 Profile E-mail  
 
 
PostPosted: 15 Feb 2016 
А может смените мне статус?..
User avatar
Joined: 28 Jul 2008
Posts: 907
Lоcаtion: Украина---Днепропетровск
Age: 44
Name: Александр
:true:

_________________
Музыка в которой я растворяюсь многих угнетает......


Top
 Profile  
 
 
PostPosted: 15 Feb 2016 
Прокъмитолист
User avatar
Joined: 12 Aug 2007
Posts: 6514
Lоcаtion: Санктъ-Петербуркъ
Age: 51
Name: Олекъ
спасибо, Серёг, но уже с ММТ успел качнуть. вы с твоим тёзкой будто сговорились - почти одновременно зарелизили :thanx:

_________________
прокъметол - это музыко, от которово есть прок (ы)


Top
 Profile  
 
 
PostPosted: 15 Feb 2016 
Генеральный thrasher
User avatar
Joined: 03 Oct 2008
Posts: 3537
Lоcаtion: Ханты-Мансийский АО
Age: 43
Name: Сергей
спасибо, Серёг, но уже с ММТ успел качнуть. вы с твоим тёзкой будто сговорились - почти одновременно зарелизили :thanx:


Он по моему и свежий выложил,Олег...У меня новый альбом есть,но я рип не делал ещё.


Top
 Profile  
 
 
PostPosted: 15 Feb 2016 
Хиппей (support team)
User avatar
Joined: 30 Jul 2007
Posts: 108950
Lоcаtion: Киев (Kyiv, UA)
Age: 45
Name: Andrey
:thanx:

mirror: iFolder l Narod l M-Cloud

_________________


Top
 Profile E-mail  
 
 
PostPosted: 15 Feb 2016 
консэрваторъ
Joined: 11 Aug 2007
Posts: 16329
Lоcаtion: Псков
Age: 44
Name: Сергей
thorbeorn wrote:
У меня новый альбом есть,но я рип не делал ещё

Нам бы всё... :oops:

_________________
THRASH 'EM ALL


Top
 Profile E-mail  
 
 
PostPosted: 15 Feb 2016 
Хиппей (support team)
User avatar
Joined: 30 Jul 2007
Posts: 108950
Lоcаtion: Киев (Kyiv, UA)
Age: 45
Name: Andrey
thorbeorn wrote:
У меня новый альбом есть,но я рип не делал ещё

Нам бы всё... :oops:

Да побольше, побольше... :kro:

_________________


Top
 Profile E-mail  
 
 
PostPosted: 15 Feb 2016 
Прокъмитолист
User avatar
Joined: 12 Aug 2007
Posts: 6514
Lоcаtion: Санктъ-Петербуркъ
Age: 51
Name: Олекъ
splatty wrote:
Нам бы всё...

дык на ММТ есть же...

_________________
прокъметол - это музыко, от которово есть прок (ы)


Top
 Profile  
 
 
PostPosted: 15 Feb 2016 
Генеральный thrasher
User avatar
Joined: 03 Oct 2008
Posts: 3537
Lоcаtion: Ханты-Мансийский АО
Age: 43
Name: Сергей
Я могу сделать,но это займёт время...А поскольку есть на MMT,значит через пару дней будет на трэкере. :benya:


Top
 Profile  
 
 
PostPosted: 15 Feb 2016 
Хиппей (support team)
User avatar
Joined: 30 Jul 2007
Posts: 108950
Lоcаtion: Киев (Kyiv, UA)
Age: 45
Name: Andrey
А дайте, плиз, ссылку на альбом на ММТ :kro:

_________________


Top
 Profile E-mail  
 
 
PostPosted: 15 Feb 2016 
Хиппей (support team)
User avatar
Joined: 30 Jul 2007
Posts: 108950
Lоcаtion: Киев (Kyiv, UA)
Age: 45
Name: Andrey
thorbeorn wrote:
Переиздание дебюта австралийцев с бонусами.

Начал слушать..
Какая прикольная и разнообразная... Сепультура :kro:

_________________


Top
 Profile E-mail  
 
 
PostPosted: 15 Feb 2016 
Генеральный thrasher
User avatar
Joined: 03 Oct 2008
Posts: 3537
Lоcаtion: Ханты-Мансийский АО
Age: 43
Name: Сергей
А дайте, плиз, ссылку на альбом на ММТ :kro:


http://www.metalmadness.org/phpBB2/view ... lices+wake


Top
 Profile  
 
 
PostPosted: 15 Feb 2016 
Хиппей (support team)
User avatar
Joined: 30 Jul 2007
Posts: 108950
Lоcаtion: Киев (Kyiv, UA)
Age: 45
Name: Andrey
:thanx: Качаю

_________________


Top
 Profile E-mail  
 
 
PostPosted: 15 Feb 2016 
консэрваторъ
Joined: 11 Aug 2007
Posts: 16329
Lоcаtion: Псков
Age: 44
Name: Сергей
Перельёшь ведь к нам?.. :oops:

_________________
THRASH 'EM ALL


Top
 Profile E-mail  
 
 
PostPosted: 15 Feb 2016 
Хиппей (support team)
User avatar
Joined: 30 Jul 2007
Posts: 108950
Lоcаtion: Киев (Kyiv, UA)
Age: 45
Name: Andrey
thorbeorn wrote:
In Malice's Wake - Eternal Nightfall 2008 (2015 Re-Issue)

Хорош альбом.
Расширенная и приукрашенная, если так можно выразиться, копия Сепультуры-89-91 :meloman:

6+/10

_________________


Top
 Profile E-mail  
 
 
PostPosted: 15 Feb 2016 
Хиппей (support team)
User avatar
Joined: 30 Jul 2007
Posts: 108950
Lоcаtion: Киев (Kyiv, UA)
Age: 45
Name: Andrey
Перельёшь ведь к нам?.. :oops:


IN MALICE'S WAKE [2015] [CD] Light upon the Wicked [EAC-FLAC] by Dee Alex [MeTaLMaDNeSS.TeaM].rar

Image Image Image

Image Image Image Image Image Image

mirror: iFolder l Narod l M-Cloud

log
Exact Audio Copy V1.0 beta 3 from 29. August 2011

EAC extraction logfile from 10. February 2016, 22:23

In Malice's Wake / Light upon the Wicked

Used drive : PIONEER DVD-RW DVR-221L Adapter: 2 ID: 0

Read mode : Secure
Utilize accurate stream : Yes
Defeat audio cache : Yes
Make use of C2 pointers : No

Read offset correction : 6
Overread into Lead-In and Lead-Out : No
Fill up missing offset samples with silence : Yes
Delete leading and trailing silent blocks : No
Null samples used in CRC calculations : Yes
Used interface : Native Win32 interface for Win NT & 2000

Used output format : Internal WAV Routines
Sample format : 44.100 Hz; 16 Bit; Stereo


TOC of the extracted CD

Track | Start | Length | Start sector | End sector
---------------------------------------------------------
1 | 0:00.00 | 2:06.26 | 0 | 9475
2 | 2:06.26 | 3:47.31 | 9476 | 26531
3 | 5:53.57 | 4:39.10 | 26532 | 47466
4 | 10:32.67 | 5:08.06 | 47467 | 70572
5 | 15:40.73 | 3:25.10 | 70573 | 85957
6 | 19:06.08 | 4:52.06 | 85958 | 107863
7 | 23:58.14 | 4:52.07 | 107864 | 129770
8 | 28:50.21 | 3:51.09 | 129771 | 147104
9 | 32:41.30 | 4:31.65 | 147105 | 167494
10 | 37:13.20 | 4:52.20 | 167495 | 189414


Range status and errors

Selected range

Filename E:\Rip [MeTaLMaDNeSS.TeaM]\In Malice's Wake - Light upon the Wicked.wav

Peak level 98.3 %
Extraction speed 6.8 X
Range quality 99.9 %
Copy CRC 41E4067B
Copy OK

No errors occurred


AccurateRip summary

Track 1 not present in database
Track 2 not present in database
Track 3 not present in database
Track 4 not present in database
Track 5 not present in database
Track 6 not present in database
Track 7 not present in database
Track 8 not present in database
Track 9 not present in database
Track 10 not present in database

None of the tracks are present in the AccurateRip database

End of status report

==== Log checksum 88CA3E2830DC495A1E0728038B7A5F9FC07837E050D9AA6765CFCEB6B2443454 ====

cue
REM GENRE "Thrash Metal"
REM DATE 2015
REM DISCID 7909DD0A
REM COMMENT "ExactAudioCopy v1.0b3"
PERFORMER "In Malice's Wake"
TITLE "Light upon the Wicked"
FILE "In Malice's Wake - Light upon the Wicked.wav" WAVE
TRACK 01 AUDIO
TITLE "Onward Human Suffering"
PERFORMER "In Malice's Wake"
INDEX 01 00:00:00
TRACK 02 AUDIO
TITLE "Bear the Cross"
PERFORMER "In Malice's Wake"
INDEX 01 02:06:26
TRACK 03 AUDIO
TITLE "In Darkness"
PERFORMER "In Malice's Wake"
INDEX 00 05:53:54
INDEX 01 05:53:57
TRACK 04 AUDIO
TITLE " Light upon the Wicked"
PERFORMER "In Malice's Wake"
INDEX 01 10:32:67
TRACK 05 AUDIO
TITLE "From Beyond"
PERFORMER "In Malice's Wake"
INDEX 00 15:40:72
INDEX 01 15:40:73
TRACK 06 AUDIO
TITLE "Hear the Howls"
PERFORMER "In Malice's Wake"
INDEX 00 19:05:07
INDEX 01 19:06:08
TRACK 07 AUDIO
TITLE "Annihilation Frost "
PERFORMER "In Malice's Wake"
INDEX 01 23:58:14
TRACK 08 AUDIO
TITLE "A Sign of the Times "
PERFORMER "In Malice's Wake"
INDEX 01 28:50:21
TRACK 09 AUDIO
TITLE "Indoctrinator"
PERFORMER "In Malice's Wake"
INDEX 01 32:41:30
TRACK 10 AUDIO
TITLE "The Halls of the Damned "
PERFORMER "In Malice's Wake"
INDEX 01 37:13:20

_________________


Top
 Profile E-mail  
 
 
PostPosted: 15 Feb 2016 
Хиппей (support team)
User avatar
Joined: 30 Jul 2007
Posts: 108950
Lоcаtion: Киев (Kyiv, UA)
Age: 45
Name: Andrey
Ого, звукан на новом альбоме. Серёге splatty точно понравится эта долбёжка :kro:

_________________


Top
 Profile E-mail  
 
 
PostPosted: 15 Feb 2016 
Хиппей (support team)
User avatar
Joined: 30 Jul 2007
Posts: 108950
Lоcаtion: Киев (Kyiv, UA)
Age: 45
Name: Andrey
Scatterbrain wrote:
IN MALICE'S WAKE [2015] [CD] Light upon the Wicked

Пардон, на третьей песне вырубил. слишком модно и рычательно. По сути, почти MDM :(
Вермишель в тарелке начала пожирать котлеты :esel:

_________________


Top
 Profile E-mail  
 
 
PostPosted: 15 Feb 2016 
Хиппей (support team)
User avatar
Joined: 30 Jul 2007
Posts: 108950
Lоcаtion: Киев (Kyiv, UA)
Age: 45
Name: Andrey
Прошвырнулся по сайтам, пролистал ревьюшки. Хвалять альбом второй, 11 года. У нас же его нету? :lloo:

_________________


Top
 Profile E-mail  
 
 
PostPosted: 15 Feb 2016 
консэрваторъ
Joined: 11 Aug 2007
Posts: 16329
Lоcаtion: Псков
Age: 44
Name: Сергей
Scatterbrain wrote:
Серёге splatty точно понравится

Благодарю!.. К тому же я его каким-то образом прозевал... :crazy:
Про 11-ый я писал в дпк и в демке 03 вскольз... альбом тот неимоверно крут... 15-ый на прослушку завтра... надо будет стену делать, счас не дадут...

_________________
THRASH 'EM ALL


Top
 Profile E-mail  
 
Display posts from previous:  Sort by  
Post new topic Reply to topic  [ 58 posts ]  Go to page Previous  1, 2, 3  Next

All times are UTC + 3 hours


Who is online

Users browsing this forum: No registered users and 2 guests


You cannot post new topics in this forum
You cannot reply to topics in this forum
You cannot edit your posts in this forum
You cannot delete your posts in this forum
You cannot post attachments in this forum

Search for:
Яндекс.Метрика
Powered by phpBB © 2000, 2002, 2005, 2007 phpBB Group