\m/ 80's metal \m/

Информационно-аналитический форум "80 см пыли" (In Search We Trust) "У нас никто никуда не спешит"
Me For You - http://me-4u.com
It is currently 13 Dec 2018

All times are UTC + 3 hours

Spoiler
Chat - temporary registration for foreign users (please leave your application here)





Forum rules


Уважаемые пользователи ресурса, друзья, коллеги и гости нашего форума. Данный раздел конференции создан с целью рафинации, и посвящён такому стилевому направлению в музыке, как Thrash Metal во всех его проявлениях и ипостасях, а иногда и переходящему на пограничные стили Speed, Power, Groove, Crossover, MDM и т.п.
Главное правило здесь одно: Одна группа – одна тема! Всё остальное созвучно основным нормам поведения на конференции.
Шаблон оформления тем в этом подфоруме должен быть основан на данных сайта www.metal-archives.com и выглядеть следующим образом:

Группа (Страна) - Стилевые рамки - дискография
Slayer (USA) - Thrash Metal - дискография


В теме допустимо размещение всей информации касающейся данного коллектива: анонсы любых альбомов в любых форматах, запросы любых релизов коллектива (кроме релизов текущего и прошлого годов), обсуждения, обзоры, а в остальном всё как обычно. Уважаем друг друга, не грубим, соблюдаем нормы поведения на конференции, оформляем анонсы и запросы красиво и информативно, что бы модераторы не посчитали их троллингом, и не отправили куда положено, выписав Вам предупреждение или ещё что похуже… Прежде чем что-то запросить или запостить, пользуемся поиском! Пользуемся поиском! ПОЛЬЗУЕМСЯ ПОИСКОМ!!! Так слышно меня?.. :pardon:
Интересного, конструктивного и креативного общения! ;)



Post new topic Reply to topic  [ 16 posts ] 
Author Message
 
PostPosted: 11 Oct 2014 
консэрваторъ
Joined: 11 Aug 2007
Posts: 16314
Lоcаtion: Псков
Age: 44
Name: Сергей
Burning Nitrum - 2012 - Pyromania (EP)

Image

1. Enter the Fire 04:00
2. Thrash Time 02:50
3. Death Is upon You 04:44
4. Old School Anthem 04:00
5. Pyromania 06:07

Ещё одни молодые трэшметаллолдскульщики из Италии, ищется их дебютный демо EP, кстати вышедший на цдр (!) на неком независимом лейбле (опять походу ночью кто-то пробрался на нуклеар бласт и штампанул 500 цопий)... Давеча упоминал о них в tnfs по поводу выхода их дебютника... Бальзамистая такая музычка, и мы как народ тяготеющий к качественному сочному продукту, от которого веет духом 80-х, запахом нашей безвозвратно ушедшей молодости, ну, просто не можем себе отказать в удовольствие поставить на этом топике следующий по порядку префикс... :true:

Burning Nitrum - Molotov (2014) Promo Video | +

P.S. А вот эта инструментальная сага таки вызвала появление мурашек, что является верным признаком того, что музыка именно та самая!.. :true:

_________________
THRASH 'EM ALL


Last edited by splatty on 30 Oct 2014, edited 1 time in total.

Top
 Profile E-mail  
 
 
PostPosted: 11 Oct 2014 
Доктор энтомологии
User avatar
Joined: 22 Jan 2009
Posts: 9481
Lоcаtion: Даугавпилс
Age: 43
Name: Алексей
Классно жарят! :true:


Top
 Profile  
 
 
PostPosted: 30 Oct 2014 
консэрваторъ
Joined: 11 Aug 2007
Posts: 16314
Lоcаtion: Псков
Age: 44
Name: Сергей
Скоро...

_________________
THRASH 'EM ALL


Top
 Profile E-mail  
 
 
PostPosted: 30 Oct 2014 
парень в очёчкXаX!
User avatar
Joined: 15 Aug 2007
Posts: 2353
Lоcаtion: UK'раина, г. ЛондАн Би-Би-Си
Age: 48
Name: Сергей
ЛосяТы ми кантарэ :true:


Top
 Profile  
 
 
PostPosted: 19 Dec 2014 
Работнечег
User avatar
Joined: 28 Aug 2007
Posts: 5599
Lоcаtion: г. Москва
Age: 29
Name: Дима
Image
Format: Flac + Log + Cue + Covers
Size: 160 Mb

FLAC

Tracklist:
1. Enter the Fire 04:00
2. Thrash Time 02:50
3. Death Is upon You 04:44
4. Old School Anthem 04:00
5. Pyromania 06:07

Альбом не слушал, но миник не сказать, что впечатлил, музыка неплохая, а вот вокал не понравился, вокалист тут скорее не поет, а либо выкрикивает слова, либо читает, вообщем 3+/5.


Top
 Profile E-mail  
 
 
PostPosted: 19 Dec 2014 
А может смените мне статус?..
User avatar
Joined: 02 Feb 2009
Posts: 999
Lоcаtion: из Тулы
Age: 44
Name: Максим
Альбом не слушал, но миник не сказать, что впечатлил, музыка неплохая, а вот вокал не понравился, вокалист тут скорее не поет, а либо выкрикивает слова, либо читает, вообщем 3+/5.

абсолютно согласен, музон то что надо а вокалист всё портит
хотел приобрести из-за работы господина оформителя, но послушав музыку в сочетании с вокалом--передумал

_________________
КМА


Top
 Profile  
 
 
PostPosted: 19 Dec 2014 
Прокъмитолист
User avatar
Joined: 12 Aug 2007
Posts: 6513
Lоcаtion: Санктъ-Петербуркъ
Age: 51
Name: Олекъ
утащил. спасибо Дим :thanx:

_________________
прокъметол - это музыко, от которово есть прок (ы)


Top
 Profile  
 
 
PostPosted: 19 Dec 2014 
Хиппей (support team)
User avatar
Joined: 30 Jul 2007
Posts: 108846
Lоcаtion: Киев (Kyiv, UA)
Age: 45
Name: Andrey
:thanx:

mirror: Narod l M-Cloud

_________________


Top
 Profile E-mail  
 
 
PostPosted: 20 Dec 2014 
консэрваторъ
Joined: 11 Aug 2007
Posts: 16314
Lоcаtion: Псков
Age: 44
Name: Сергей
Лосяш!.. :true: Всем нам благодарствую!..

_________________
THRASH 'EM ALL


Top
 Profile E-mail  
 
 
PostPosted: 28 Dec 2014 
Трешер
User avatar
Joined: 25 Feb 2011
Posts: 1062
Lоcаtion: Харьков
Age: 42
Name: Aleksandr
:thanx: Нужно будет послушать


Top
 Profile E-mail  
 
 
PostPosted: 18 Dec 2015 
Генеральный thrasher
User avatar
Joined: 03 Oct 2008
Posts: 3535
Lоcаtion: Ханты-Мансийский АО
Age: 43
Name: Сергей
Слабенький миник. :( Полнометражник однозначно лучше.


Top
 Profile  
 
 
PostPosted: 18 Dec 2015 
Генеральный thrasher
User avatar
Joined: 03 Oct 2008
Posts: 3535
Lоcаtion: Ханты-Мансийский АО
Age: 43
Name: Сергей
Image

Year:2014
Style:Thrash Metal
Country:Italy
Archive:Flac+Cue+Log+Scans
Size:383Mb
Source:my CD
Label:Punishment 18 Records

Line-Up:
Dario D'Ambrosio - drums
Dave Cillo - vocals
Francesco Vivarelli - guitars
Angelo Fiore - bass
Walter Lanotte - guitars

Tracklist:
01. Subversive Nausea (Intro) 01:02
02. Remote Of Death 05:47
03. Apocalypse Of Pain 04:05
04. High Speed Bangers 05:33
05. Living Until The End 04:27
06. Falling Into Slavery (Intro) 01:59
07. Slave Of Lust 06:39
08. Sparkling Splatter 04:29
09. Nemesis, The Death Star (Instrumental) 07:53
10. Turned To Ashes (Nothing Stands Still) 06:35

"Cue"
REM GENRE "Thrash Metal"
REM DATE 2014
REM DISCID 7C0B570A
REM COMMENT "ExactAudioCopy v0.99pb5"
PERFORMER "Burning Nitrum"
TITLE "Molotov"
FILE "Burning Nitrum - Molotov.flac" WAVE
TRACK 01 AUDIO
TITLE "Subversive Nausea (Intro)"
PERFORMER "Burning Nitrum"
FLAGS DCP
INDEX 01 00:00:00
TRACK 02 AUDIO
TITLE "Remote Of Death"
PERFORMER "Burning Nitrum"
FLAGS DCP
INDEX 01 01:01:21
TRACK 03 AUDIO
TITLE "Apocalypse Of Pain"
PERFORMER "Burning Nitrum"
FLAGS DCP
INDEX 01 06:47:35
TRACK 04 AUDIO
TITLE "High Speed Bangers"
PERFORMER "Burning Nitrum"
FLAGS DCP
INDEX 01 10:51:60
TRACK 05 AUDIO
TITLE "Lying Until The End"
PERFORMER "Burning Nitrum"
FLAGS DCP
INDEX 01 16:23:64
TRACK 06 AUDIO
TITLE "Falling Into Slavery (Intro)"
PERFORMER "Burning Nitrum"
FLAGS DCP
INDEX 01 20:50:32
TRACK 07 AUDIO
TITLE "Slave Of Lust"
PERFORMER "Burning Nitrum"
FLAGS DCP
INDEX 01 22:48:56
TRACK 08 AUDIO
TITLE "Sparkling Splatter"
PERFORMER "Burning Nitrum"
FLAGS DCP
INDEX 01 29:27:24
TRACK 09 AUDIO
TITLE "Nemesis, the Death Star"
PERFORMER "Burning Nitrum"
FLAGS DCP
INDEX 01 33:55:71
TRACK 10 AUDIO
TITLE "Turned to Ashes (Nothing Stands Still)"
PERFORMER "Burning Nitrum"
FLAGS DCP
INDEX 01 41:48:20

"Log"
Exact Audio Copy V0.99 prebeta 5 from 4. May 2009

Отчёт EAC об извлечении, выполненном 25. сентября 2014, 12:49

Burning Nitrum / Molotov

Дисковод: MATSHITADVD-RAM UJ8A0AS Adapter: 0 ID: 1

Режим чтения : Достоверность
Использование точного потока : Да
Отключение кэша аудио : Да
Использование указателей C2 : Нет

Коррекция смещения при чтении : 102
Способность читать области Lead-in и Lead-out : Нет
Заполнение пропущенных сэмплов тишиной : Да
Удаление блоков с тишиной в начале и конце : Нет
При вычислениях CRC использовались нулевые сэмплы : Да
Интерфейс : Встроенный Win32-интерфейс для Win NT/2000

Выходной формат : Пользовательский кодировщик
Выбранный битрейт : 1024 kBit/s
Качество : Высокий
Добавление ID3-тэга : Нет
Утилита сжатия : C:\Program Files\Exact Audio Copy\FLAC\FLAC.EXE
Дополнительные параметры : -6 -V -T "ARTIST=%a" -T "TITLE=%t" -T "ALBUM=%g" -T "DATE=%y" -T "TRACKNUMBER=%n" -T "GENRE=%m" -T "COMMENT=%e" %s -o %d


TOC извлечённого CD

Трек | Старт | Длительность | Начальный сектор | Конечный сектор
---------------------------------------------------------------------
1 | 0:00.00 | 1:01.21 | 0 | 4595
2 | 1:01.21 | 5:46.14 | 4596 | 30559
3 | 6:47.35 | 4:04.25 | 30560 | 48884
4 | 10:51.60 | 5:32.04 | 48885 | 73788
5 | 16:23.64 | 4:26.43 | 73789 | 93781
6 | 20:50.32 | 1:58.24 | 93782 | 102655
7 | 22:48.56 | 6:38.43 | 102656 | 132548
8 | 29:27.24 | 4:28.47 | 132549 | 152695
9 | 33:55.71 | 7:52.24 | 152696 | 188119
10 | 41:48.20 | 6:34.65 | 188120 | 217734


Характеристики диапазона извлечения и сообщения об ошибках

Выбранный диапазон

Имя файла C:\Users\эксперт\Music\Burning Nitrum - Molotov.wav

Пиковый уровень 100.0 %
Качество диапазона 100.0 %
CRC копии D70C2351
Копирование... OK

Ошибок не произошло


AccurateRip: сводка

Трек 1 нет в базе данных
Трек 2 нет в базе данных
Трек 3 нет в базе данных
Трек 4 нет в базе данных
Трек 5 нет в базе данных
Трек 6 нет в базе данных
Трек 7 нет в базе данных
Трек 8 нет в базе данных
Трек 9 нет в базе данных
Трек 10 нет в базе данных

Ни одного трека нет в базе AccurateRip

Конец отчёта


Molotov


Top
 Profile  
 
 
PostPosted: 18 Dec 2015 
Генеральный thrasher
User avatar
Joined: 03 Oct 2008
Posts: 3535
Lоcаtion: Ханты-Мансийский АО
Age: 43
Name: Сергей
Переименуйте тему в дискографию! :true: ;)


Top
 Profile  
 
 
PostPosted: 18 Dec 2015 
консэрваторъ
Joined: 11 Aug 2007
Posts: 16314
Lоcаtion: Псков
Age: 44
Name: Сергей
Сделано...

_________________
THRASH 'EM ALL


Top
 Profile E-mail  
 
 
PostPosted: 18 Dec 2015 
Alive Again
User avatar
Joined: 17 Dec 2008
Posts: 4744
Lоcаtion: Курск Воронеж Оскол
Age: 44
Name: Дмитрий
Серёга, :thanx:


Top
 Profile E-mail  
 
 
PostPosted: 19 Dec 2015 
Прокъмитолист
User avatar
Joined: 12 Aug 2007
Posts: 6513
Lоcаtion: Санктъ-Петербуркъ
Age: 51
Name: Олекъ
:thanx: :true:

_________________
прокъметол - это музыко, от которово есть прок (ы)


Top
 Profile  
 
Display posts from previous:  Sort by  
Post new topic Reply to topic  [ 16 posts ] 

All times are UTC + 3 hours


Who is online

Users browsing this forum: No registered users and 5 guests


You cannot post new topics in this forum
You cannot reply to topics in this forum
You cannot edit your posts in this forum
You cannot delete your posts in this forum
You cannot post attachments in this forum

Search for:
Яндекс.Метрика
Powered by phpBB © 2000, 2002, 2005, 2007 phpBB Group