\m/ 80's metal \m/

Информационно-аналитический форум "80 см пыли" (In Search We Trust) "У нас никто никуда не спешит"
Me For You - http://me-4u.com
It is currently 17 Dec 2018

All times are UTC + 3 hours

Spoiler
Chat - temporary registration for foreign users (please leave your application here)





Forum rules


Уважаемые пользователи ресурса, друзья, коллеги и гости нашего форума. Данный раздел конференции создан с целью рафинации, и посвящён такому стилевому направлению в музыке, как Thrash Metal во всех его проявлениях и ипостасях, а иногда и переходящему на пограничные стили Speed, Power, Groove, Crossover, MDM и т.п.
Главное правило здесь одно: Одна группа – одна тема! Всё остальное созвучно основным нормам поведения на конференции.
Шаблон оформления тем в этом подфоруме должен быть основан на данных сайта www.metal-archives.com и выглядеть следующим образом:

Группа (Страна) - Стилевые рамки - дискография
Slayer (USA) - Thrash Metal - дискография


В теме допустимо размещение всей информации касающейся данного коллектива: анонсы любых альбомов в любых форматах, запросы любых релизов коллектива (кроме релизов текущего и прошлого годов), обсуждения, обзоры, а в остальном всё как обычно. Уважаем друг друга, не грубим, соблюдаем нормы поведения на конференции, оформляем анонсы и запросы красиво и информативно, что бы модераторы не посчитали их троллингом, и не отправили куда положено, выписав Вам предупреждение или ещё что похуже… Прежде чем что-то запросить или запостить, пользуемся поиском! Пользуемся поиском! ПОЛЬЗУЕМСЯ ПОИСКОМ!!! Так слышно меня?.. :pardon:
Интересного, конструктивного и креативного общения! ;)



Post new topic Reply to topic  [ 33 posts ]  Go to page 1, 2  Next
Author Message
 
PostPosted: 14 Sep 2009 
А может смените мне статус?..
User avatar
Joined: 17 Jan 2008
Posts: 872
Lоcаtion: Пенза
Age: 41
Name: Денис
Ищу переиздание испанского Легиона.Диск вышел в 2008-ом на Dark Rails Records...

Image

Tracklist

01 Long Hair
02 Life Means This
03 Feel the Pain
04 Eternal Youth
05 We Will Rock You (Queen cover)
06 Circus of Fear
07 Unsensitive Skin
08 Nowhere to Run
09 Shit your Veins
10 La Imaginación Al Poder
11 La Ruina
12 Dimite Y Vete A Casa
13 Mili K.K. (live)
14 Bonus


Top
 Profile  
 
 
PostPosted: 18 Sep 2009 
А может смените мне статус?..
User avatar
Joined: 17 Jan 2008
Posts: 872
Lоcаtion: Пенза
Age: 41
Name: Денис
Неужто некому не попадался?Парни,но пошарьте плиз на закрытых торентах и доках..Они же почти все испанские,либо латиноамериканские..Наверняка у кого нибудь там есть....А...


Top
 Profile  
 
 
PostPosted: 18 Sep 2009 
хард н хэвщик (support team)
User avatar
Joined: 02 Jun 2008
Posts: 16880
Lоcаtion: Н.Новгород
Age: 31
Name: Артем
Денис, в гугле на раз-два нашелся :vic:
http://www.google.com/#hl=en&q=%22+Legi ... 0b1643625b

http://www.google.com/#hl=en&q=%22+LEGI ... 0b1643625b


Top
 Profile  
 
 
PostPosted: 18 Sep 2009 
А может смените мне статус?..
User avatar
Joined: 17 Jan 2008
Posts: 872
Lоcаtion: Пенза
Age: 41
Name: Денис
Похоже не нашелся..Гугловские ссылки открыть не могу..


Top
 Profile  
 
 
PostPosted: 18 Sep 2009 
хард н хэвщик (support team)
User avatar
Joined: 02 Jun 2008
Posts: 16880
Lоcаtion: Н.Новгород
Age: 31
Name: Артем
а... стоп, я думал, тебе эмпэтрятина нужна. а ты лося просишь :fingal:


Top
 Profile  
 
 
PostPosted: 14 Feb 2012 
Трешер
User avatar
Joined: 25 Feb 2011
Posts: 1062
Lоcаtion: Харьков
Age: 42
Name: Aleksandr
Присоединяюсь к этому поиску в :losik:


Top
 Profile E-mail  
 
 
PostPosted: 14 Feb 2012 
Хиппей (support team)
User avatar
Joined: 30 Jul 2007
Posts: 108957
Lоcаtion: Киев (Kyiv, UA)
Age: 45
Name: Andrey
Если до выходных никто не отреагирует, то будет лосик позже.
За качество переиздания не ручаюсь :pardon:

_________________


Top
 Profile E-mail  
 
 
PostPosted: 14 Feb 2012 
Генеральный thrasher
User avatar
Joined: 03 Oct 2008
Posts: 3537
Lоcаtion: Ханты-Мансийский АО
Age: 43
Name: Сергей
Scatterbrain wrote:
Если до выходных никто не отреагирует, то будет лосик позже.
За качество переиздания не ручаюсь :pardon:


Ждёмс!!!


Top
 Profile  
 
 
PostPosted: 18 Feb 2012 
Генеральный thrasher
User avatar
Joined: 03 Oct 2008
Posts: 3537
Lоcаtion: Ханты-Мансийский АО
Age: 43
Name: Сергей
Что там с обещанным лосиком????


Top
 Profile  
 
 
PostPosted: 19 Feb 2012 
А может смените мне статус?..
User avatar
Joined: 17 Jan 2008
Posts: 872
Lоcаtion: Пенза
Age: 41
Name: Денис
Андрей,но где же лосяшь?


Top
 Profile  
 
 
PostPosted: 23 Feb 2012 
А может смените мне статус?..
User avatar
Joined: 17 Jan 2008
Posts: 872
Lоcаtion: Пенза
Age: 41
Name: Денис
Андрей!!!Но где же обещанный подгон?


Top
 Profile  
 
 
PostPosted: 02 Mar 2012 
Хиппей (support team)
User avatar
Joined: 30 Jul 2007
Posts: 108957
Lоcаtion: Киев (Kyiv, UA)
Age: 45
Name: Andrey
А, сорри, только подобрался к топику. Хотя и сразу мог ответить, но забывал.
Звиняйте лося пока не будет. Тот источник, с которого думали рипать оказался фуфловым по качеству переизданием-пираткой :fingal:
Если что, это инфа от Спидика + мои поиски первоисточника того CDR.

_________________


Top
 Profile E-mail  
 
 
PostPosted: 02 Mar 2012 
Генеральный thrasher
User avatar
Joined: 03 Oct 2008
Posts: 3537
Lоcаtion: Ханты-Мансийский АО
Age: 43
Name: Сергей
Scatterbrain wrote:
А, сорри, только подобрался к топику. Хотя и сразу мог ответить, но забывал.
Звиняйте лося пока не будет. Тот источник, с которого думали рипать оказался фуфловым по качеству переизданием-пираткой :fingal:
Если что, это инфа от Спидика + мои поиски первоисточника того CDR.


Жаль :cry:


Top
 Profile  
 
 
PostPosted: 05 Dec 2013 
Хиппей (support team)
User avatar
Joined: 30 Jul 2007
Posts: 108957
Lоcаtion: Киев (Kyiv, UA)
Age: 45
Name: Andrey
Кстати у Макса явно есть винилы искомых альбомов http://www.thrash.su/index.php/net/reli ... 5:legion-1 :oops:

_________________


Top
 Profile E-mail  
 
 
PostPosted: 05 Dec 2013 
А может смените мне статус?..
User avatar
Joined: 24 Sep 2012
Posts: 856
Lоcаtion: Нижегородская обл.
Age: 48
Name: Вячеслав
Саныч не даёт, говорит на пластинки всем миром собирали!

_________________
Image


Top
 Profile E-mail  
 
 
PostPosted: 06 Dec 2013 
Хиппей (support team)
User avatar
Joined: 30 Jul 2007
Posts: 108957
Lоcаtion: Киев (Kyiv, UA)
Age: 45
Name: Andrey
Хы, не верю чота. А точно у него есть искомая? :lloo:

_________________


Top
 Profile E-mail  
 
 
PostPosted: 03 Sep 2014 
Генеральный thrasher
User avatar
Joined: 03 Oct 2008
Posts: 3537
Lоcаtion: Ханты-Мансийский АО
Age: 43
Name: Сергей
Image

Year:1990 (2008 Re-Issue)
Style:Thrash Metal
Country:Spain
Audio:Flac+Cue+Log+Scans
Size:434Mb
Source:my CD
Label:Dark Rails Records

Line-Up:
Jonathan Dolcet - bass,vocals
Quimi Montañés - guitars
Pep Segura - drums
Kisko Martínez - guitars

Mind Training:
01.Long Hair 04:36
02.Life Means This 03:41
03.Feel the Pain 02:37
04.Eternal Youth 04:45
05.We Will Rock You (Queen cover) 03:13
06.Circus of Fear 04:00
07.Unsensitive Skin 07:49
08.Nowhere to Run 04:00
09.Shit In Your Veins 05:20

Por La Cara:
01. Imaginación al poder 04:30
02. La Ruina 05:14
03. Dimite y vete a casa 02:41
04. Mili K.K. (Live) 05:05
05. Outro 01:24

"Mind Training Log"
Exact Audio Copy V0.99 prebeta 5 from 4. May 2009

Отчёт EAC об извлечении, выполненном 3. августа 2013, 8:40

Legion / Mind Training

Дисковод: MATSHITADVD-RAM UJ8A0AS Adapter: 0 ID: 1

Режим чтения : Достоверность
Использование точного потока : Да
Отключение кэша аудио : Да
Использование указателей C2 : Нет

Коррекция смещения при чтении : 102
Способность читать области Lead-in и Lead-out : Нет
Заполнение пропущенных сэмплов тишиной : Да
Удаление блоков с тишиной в начале и конце : Нет
При вычислениях CRC использовались нулевые сэмплы : Да
Интерфейс : Встроенный Win32-интерфейс для Win NT/2000

Выходной формат : Пользовательский кодировщик
Выбранный битрейт : 1024 kBit/s
Качество : Высокий
Добавление ID3-тэга : Нет
Утилита сжатия : C:\Program Files\Exact Audio Copy\FLAC\FLAC.EXE
Дополнительные параметры : -6 -V -T "ARTIST=%a" -T "TITLE=%t" -T "ALBUM=%g" -T "DATE=%y" -T "TRACKNUMBER=%n" -T "GENRE=%m" -T "COMMENT=%e" %s -o %d


TOC извлечённого CD

Трек | Старт | Длительность | Начальный сектор | Конечный сектор
---------------------------------------------------------------------
1 | 0:00.00 | 4:36.00 | 0 | 20699
2 | 4:36.00 | 3:41.58 | 20700 | 37332
3 | 8:17.58 | 2:37.30 | 37333 | 49137
4 | 10:55.13 | 4:45.62 | 49138 | 70574
5 | 15:41.00 | 3:16.68 | 70575 | 85342
6 | 18:57.68 | 4:00.38 | 85343 | 103380
7 | 22:58.31 | 7:49.21 | 103381 | 138576
8 | 30:47.52 | 4:00.45 | 138577 | 156621
9 | 34:48.22 | 5:20.43 | 156622 | 180664


Характеристики диапазона извлечения и сообщения об ошибках

Выбранный диапазон

Имя файла C:\Users\эксперт\Music\Legion - Mind Training.wav

Пиковый уровень 100.0 %
Качество диапазона 100.0 %
CRC копии 03AFA135
Копирование... OK

Ошибок не произошло


AccurateRip: сводка

Трек 1 нет в базе данных
Трек 2 нет в базе данных
Трек 3 нет в базе данных
Трек 4 нет в базе данных
Трек 5 нет в базе данных
Трек 6 нет в базе данных
Трек 7 нет в базе данных
Трек 8 нет в базе данных
Трек 9 нет в базе данных

Ни одного трека нет в базе AccurateRip

Конец отчёта

"Mind Training Cue"
REM GENRE "Thrash Metal"
REM DATE 1990
REM DISCID 86096809
REM COMMENT "ExactAudioCopy v0.99pb5"
PERFORMER "Legion"
TITLE "Mind Training"
FILE "Legion - Mind Training.flac" WAVE
TRACK 01 AUDIO
TITLE "Long Hair"
PERFORMER "Legion"
INDEX 01 00:00:00
TRACK 02 AUDIO
TITLE "Life Means This"
PERFORMER "Legion"
INDEX 01 04:36:00
TRACK 03 AUDIO
TITLE "Feel the Pain"
PERFORMER "Legion"
INDEX 01 08:17:58
TRACK 04 AUDIO
TITLE "Eternal Youth"
PERFORMER "Legion"
INDEX 01 10:55:13
TRACK 05 AUDIO
TITLE "We Will Rock You (Queen cover)"
PERFORMER "Legion"
INDEX 01 15:41:00
TRACK 06 AUDIO
TITLE "Circus of Fear"
PERFORMER "Legion"
INDEX 01 18:57:68
TRACK 07 AUDIO
TITLE "Unsensitive Skin"
PERFORMER "Legion"
INDEX 01 22:58:31
TRACK 08 AUDIO
TITLE "Nowhere to Run"
PERFORMER "Legion"
INDEX 01 30:47:52
TRACK 09 AUDIO
TITLE "Shit in Your Veins"
PERFORMER "Legion"
INDEX 01 34:48:22

"Por La Cara Log"
Exact Audio Copy V0.99 prebeta 5 from 4. May 2009

Отчёт EAC об извлечении, выполненном 3. августа 2013, 9:09

Legion / Por la Cara

Дисковод: MATSHITADVD-RAM UJ8A0AS Adapter: 0 ID: 1

Режим чтения : Достоверность
Использование точного потока : Да
Отключение кэша аудио : Да
Использование указателей C2 : Нет

Коррекция смещения при чтении : 102
Способность читать области Lead-in и Lead-out : Нет
Заполнение пропущенных сэмплов тишиной : Да
Удаление блоков с тишиной в начале и конце : Нет
При вычислениях CRC использовались нулевые сэмплы : Да
Интерфейс : Встроенный Win32-интерфейс для Win NT/2000

Выходной формат : Пользовательский кодировщик
Выбранный битрейт : 1024 kBit/s
Качество : Высокий
Добавление ID3-тэга : Нет
Утилита сжатия : C:\Program Files\Exact Audio Copy\FLAC\FLAC.EXE
Дополнительные параметры : -6 -V -T "ARTIST=%a" -T "TITLE=%t" -T "ALBUM=%g" -T "DATE=%y" -T "TRACKNUMBER=%n" -T "GENRE=%m" -T "COMMENT=%e" %s -o %d


TOC извлечённого CD

Трек | Старт | Длительность | Начальный сектор | Конечный сектор
---------------------------------------------------------------------
1 | 0:00.00 | 4:30.62 | 0 | 20311
2 | 4:30.62 | 5:14.39 | 20312 | 43900
3 | 9:45.26 | 2:41.12 | 43901 | 55987
4 | 12:26.38 | 5:05.50 | 55988 | 78912
5 | 17:32.13 | 1:24.23 | 78913 | 85235


Характеристики диапазона извлечения и сообщения об ошибках

Выбранный диапазон

Имя файла C:\Users\эксперт\Music\Legion - Por la Cara.wav

Пиковый уровень 100.0 %
Качество диапазона 100.0 %
CRC копии 6F260637
Копирование... OK

Ошибок не произошло


AccurateRip: сводка

Трек 1 нет в базе данных
Трек 2 нет в базе данных
Трек 3 нет в базе данных
Трек 4 нет в базе данных
Трек 5 нет в базе данных

Ни одного трека нет в базе AccurateRip

Конец отчёта

"Por La Cara Cue"
REM GENRE "Thrash Metal"
REM DATE 1990
REM DISCID 3E047005
REM COMMENT "ExactAudioCopy v0.99pb5"
PERFORMER "Legion"
TITLE "Por la Cara"
FILE "Legion - Por la Cara.flac" WAVE
TRACK 01 AUDIO
TITLE "Imaginaciуn al poder"
PERFORMER "Legion"
INDEX 01 00:00:00
TRACK 02 AUDIO
TITLE "La ruina"
PERFORMER "Legion"
INDEX 01 04:30:62
TRACK 03 AUDIO
TITLE "Dimite y vete a casa"
PERFORMER "Legion"
INDEX 01 09:45:26
TRACK 04 AUDIO
TITLE "Mili K.K. (live)"
PERFORMER "Legion"
INDEX 01 12:26:38
TRACK 05 AUDIO
TITLE "Outro"
PERFORMER "Legion"
INDEX 01 17:32:13


Legion


Top
 Profile  
 
 
PostPosted: 03 Sep 2014 
Генеральный thrasher
User avatar
Joined: 03 Oct 2008
Posts: 3537
Lоcаtion: Ханты-Мансийский АО
Age: 43
Name: Сергей
Запрос можно закрывать.


Top
 Profile  
 
 
PostPosted: 03 Sep 2014 
Прокъмитолист
User avatar
Joined: 12 Aug 2007
Posts: 6514
Lоcаtion: Санктъ-Петербуркъ
Age: 51
Name: Олекъ
Серёга, спасибо! :thanx:
хорошая команда. странно, что при переиздании не запихнули это все на один диск. но так тоже хорошо :dance:

_________________
прокъметол - это музыко, от которово есть прок (ы)


Top
 Profile  
 
 
PostPosted: 03 Sep 2014 
Хиппей (support team)
User avatar
Joined: 30 Jul 2007
Posts: 108957
Lоcаtion: Киев (Kyiv, UA)
Age: 45
Name: Andrey
:thanx:

mirror:

1990 - EP - Narod l M-Cloud
1990 - FL - Narod l M-Cloud

_________________


Top
 Profile E-mail  
 
Display posts from previous:  Sort by  
Post new topic Reply to topic  [ 33 posts ]  Go to page 1, 2  Next

All times are UTC + 3 hours


Who is online

Users browsing this forum: No registered users and 3 guests


You cannot post new topics in this forum
You cannot reply to topics in this forum
You cannot edit your posts in this forum
You cannot delete your posts in this forum
You cannot post attachments in this forum

Search for:
Яндекс.Метрика
Powered by phpBB © 2000, 2002, 2005, 2007 phpBB Group