\m/ 80's metal \m/

Информационно-аналитический форум "80 см пыли" (In Search We Trust) "У нас никто никуда не спешит"
Me For You - http://me-4u.com
It is currently 17 Feb 2019

All times are UTC + 3 hours

Spoiler
Chat - temporary registration for foreign users (please leave your application here)





Forum rules


Уважаемые пользователи ресурса, друзья, коллеги и гости нашего форума. Данный раздел конференции создан с целью рафинации, и посвящён такому стилевому направлению в музыке, как Thrash Metal во всех его проявлениях и ипостасях, а иногда и переходящему на пограничные стили Speed, Power, Groove, Crossover, MDM и т.п.
Главное правило здесь одно: Одна группа – одна тема! Всё остальное созвучно основным нормам поведения на конференции.
Шаблон оформления тем в этом подфоруме должен быть основан на данных сайта www.metal-archives.com и выглядеть следующим образом:

Группа (Страна) - Стилевые рамки - дискография
Slayer (USA) - Thrash Metal - дискография


В теме допустимо размещение всей информации касающейся данного коллектива: анонсы любых альбомов в любых форматах, запросы любых релизов коллектива (кроме релизов текущего и прошлого годов), обсуждения, обзоры, а в остальном всё как обычно. Уважаем друг друга, не грубим, соблюдаем нормы поведения на конференции, оформляем анонсы и запросы красиво и информативно, что бы модераторы не посчитали их троллингом, и не отправили куда положено, выписав Вам предупреждение или ещё что похуже… Прежде чем что-то запросить или запостить, пользуемся поиском! Пользуемся поиском! ПОЛЬЗУЕМСЯ ПОИСКОМ!!! Так слышно меня?.. :pardon:
Интересного, конструктивного и креативного общения! ;)



Post new topic Reply to topic  [ 134 posts ]  Go to page Previous  1, 2, 3, 4, 5, 6, 7  Next
Author Message
 
PostPosted: 02 Aug 2015 
Персональный статус
User avatar
Joined: 11 May 2011
Posts: 418
Lоcаtion: Omsk
Age: 28
Name: Alexander
Обложка видать вдохновлена зловещими мертвецами и фильмом нечто :crazy:

_________________
Enigma, unholy, ungodly, commander of the regeneration
Insidious and caught, implored by disgrace
Inhumation... The burial of man
Confession... Unify all evil


Top
 Profile E-mail  
 
 
PostPosted: 02 Aug 2015 
\m/ 80 см сала \m/
User avatar
Joined: 12 Mar 2012
Posts: 2589
Age: 25
Name: Nick
Походу, вся надежда на Виталия :lloo:
metaleonid wrote:
А есть Conclusion And Revival?

Чего, так и не нашелся оригинал-рип?
А то у меня где-то цид родной хот-бладовский валяется. :umnik:

_________________
1990 AUROPHON BRAINSTORM (Germany) - lossless
1994 MAUSOLEUM CLASSIX (Belgium-Germany) - lossless
1998 VA - GRIM HARVEST - Complete Metal Massacre Volumes I-XII


Top
 Profile  
 
 
PostPosted: 03 Aug 2015 
Рарник и трушник
User avatar
Joined: 25 Dec 2009
Posts: 8513
Lоcаtion: Москва
Age: 53
Name: Виталий
Ник, к своему стыду, до сих пор не нашёл, хотя всё перерыл. Уже начинаю сомневаться, что он у меня остался, может и слил, но за давностью лет, ну не помню уже.
Конечно, если найдётся, выложу сразу, но... :oops:


Top
 Profile  
 
 
PostPosted: 02 May 2016 
Хиппей (support team)
User avatar
Joined: 30 Jul 2007
Posts: 110295
Lоcаtion: Киев (Kyiv, UA)
Age: 45
Name: Andrey
Я сильно сорри, но вчера не нашел цид, уж очень он глубоко где-то спрятан. Буду искать в глубине шкафов, но добраться туда щас проблема, до генеральной уборки тока, но скоро. :vic:

Скоро не пришло ешо? :kro:

_________________


Top
 Profile E-mail  
 
 
PostPosted: 02 May 2016 
Хиппей (support team)
User avatar
Joined: 30 Jul 2007
Posts: 110295
Lоcаtion: Киев (Kyiv, UA)
Age: 45
Name: Andrey
Или мож тот покатит рип? :arrow: http://rutracker.org/forum/viewtopic.php?t=5071730

_________________


Top
 Profile E-mail  
 
 
PostPosted: 04 May 2016 
5-speed satisfactor
User avatar
Joined: 16 Feb 2009
Posts: 3679
Lоcаtion: New York, USA
Age: 40
Name: Leonid
Darkness - Conclusion & Revival 1989 (1st press Hot Blood 8721)

Image Image

Barcode: 4001985087211
Matrix / Runout: 8721 P+O-3427-A 08-89
https://www.discogs.com/Darkness-Conclu ... se/4718749

1. Conclusion and Revival 02:56
2. Soldiers 04:29
3. The Omniscient 03:50
4. Under Control 04:24
5. Bass 01:08
6. Burial 04:21
7. Predetermined Destiny 06:19
8. Price of Fame 03:44
9. All Left to Say 04:37
10. Beside My Grave 05:28
11. Faded Pictures 03:42
12. Armageddon 03:53

cue
REM DISCID B10B800C
REM COMMENT "ExactAudioCopy v1.1"
PERFORMER "Darkness"
TITLE "Darkness - Conclusion & Revival"
FILE "Darkness - Conclusion And Revival.wav" WAVE
TRACK 01 AUDIO
TITLE "Conclusion And Revival"
PERFORMER "Darkness"
INDEX 01 00:00:00
TRACK 02 AUDIO
TITLE "Soldiers"
PERFORMER "Darkness"
INDEX 00 02:56:28
INDEX 01 02:56:30
TRACK 03 AUDIO
TITLE "The Omniscient"
PERFORMER "Darkness"
INDEX 00 07:25:65
INDEX 01 07:25:68
TRACK 04 AUDIO
TITLE "Under Control"
PERFORMER "Darkness"
INDEX 00 11:15:68
INDEX 01 11:18:00
TRACK 05 AUDIO
TITLE "Bass"
PERFORMER "Darkness"
INDEX 00 15:42:45
INDEX 01 15:44:38
TRACK 06 AUDIO
TITLE "Burial"
PERFORMER "Darkness"
INDEX 00 16:52:35
INDEX 01 16:52:38
TRACK 07 AUDIO
TITLE "Predetermined Destiny"
PERFORMER "Darkness"
INDEX 00 21:13:10
INDEX 01 21:15:38
TRACK 08 AUDIO
TITLE "Price Of Fame"
PERFORMER "Darkness"
INDEX 00 27:34:45
INDEX 01 27:36:38
TRACK 09 AUDIO
TITLE "All Left To Say"
PERFORMER "Darkness"
INDEX 00 31:20:30
INDEX 01 31:22:63
TRACK 10 AUDIO
TITLE "Beside My Grave"
PERFORMER "Darkness"
INDEX 00 35:59:63
INDEX 01 36:01:50
TRACK 11 AUDIO
TITLE "Faded Pictures"
PERFORMER "Darkness"
INDEX 00 41:30:03
INDEX 01 41:32:25
TRACK 12 AUDIO
TITLE "Armageddon"
PERFORMER "Darkness"
INDEX 00 45:12:50
INDEX 01 45:14:38

log
Exact Audio Copy V1.1 from 23. June 2015

EAC extraction logfile from 2. May 2016, 12:33

Darkness / Conclusion and Revival

Used drive : Private

Read mode : Secure
Utilize accurate stream : Yes
Defeat audio cache : Yes
Make use of C2 pointers : No

Read offset correction : 0
Overread into Lead-In and Lead-Out : No
Fill up missing offset samples with silence : Yes
Delete leading and trailing silent blocks : No
Null samples used in CRC calculations : Yes
Used interface : Native Win32 interface for Win NT & 2000

Used output format : Internal WAV Routines
Sample format : 44.100 Hz; 16 Bit; Stereo


TOC of the extracted CD

Track | Start | Length | Start sector | End sector
---------------------------------------------------------
1 | 0:00.00 | 2:56.30 | 0 | 13229
2 | 2:56.30 | 4:29.38 | 13230 | 33442
3 | 7:25.68 | 3:52.07 | 33443 | 50849
4 | 11:18.00 | 4:26.38 | 50850 | 70837
5 | 15:44.38 | 1:08.00 | 70838 | 75937
6 | 16:52.38 | 4:23.00 | 75938 | 95662
7 | 21:15.38 | 6:21.00 | 95663 | 124237
8 | 27:36.38 | 3:46.25 | 124238 | 141212
9 | 31:22.63 | 4:38.62 | 141213 | 162124
10 | 36:01.50 | 5:30.50 | 162125 | 186924
11 | 41:32.25 | 3:42.13 | 186925 | 203587
12 | 45:14.38 | 3:49.52 | 203588 | 220814


Range status and errors

Selected range

Filename C:\Darkness - Conclusion & Revival.wav

Peak level 99.9 %
Extraction speed 1.8 X
Range quality 99.9 %
Copy CRC 9B284A0F
Copy OK

No errors occurred

End of status report

https://we.tl/IXeiZntXWw

_________________
Death rules! Metal to all who oppose!


Top
 Profile  
 
 
PostPosted: 04 May 2016 
Рарник и трушник
User avatar
Joined: 25 Dec 2009
Posts: 8513
Lоcаtion: Москва
Age: 53
Name: Виталий
Лёнь, спасибо! :thanx:

Но замечу, что в кривых куях тебе равных нету! :benya:
Я вообще не могу нормально потреково воспроизвести, только целиком вав-файл. Тем более закинуть на болвань.
А править куи, папки и титлы - у мну не хватает терпения. :cry:

ЗЫ: Заработало, когда wav-файл и куй переименовал с "Conclusion & Revival" на "Conclusion And Revival". :benya:


Top
 Profile  
 
 
PostPosted: 04 May 2016 
Прокъмитолист
User avatar
Joined: 12 Aug 2007
Posts: 6527
Lоcаtion: Санктъ-Петербуркъ
Age: 51
Name: Олекъ
Виталь, это же самое главное правило: название файла должно соответствовать его имени в куе. проверить и поправить - дело пары секунд :pardon:

_________________
прокъметол - это музыко, от которово есть прок (ы)


Top
 Profile  
 
 
PostPosted: 04 May 2016 
Рарник и трушник
User avatar
Joined: 25 Dec 2009
Posts: 8513
Lоcаtion: Москва
Age: 53
Name: Виталий
spiralarch wrote:
название файла должно соответствовать его имени в куе. проверить и поправить - дело пары секунд :pardon:

Да это ясен пень, Олег, самое прикольное, что в куе и это название и то прописаны. :vic:


Top
 Profile  
 
 
PostPosted: 04 May 2016 
5-speed satisfactor
User avatar
Joined: 16 Feb 2009
Posts: 3679
Lоcаtion: New York, USA
Age: 40
Name: Leonid
Это не мой рип. Тот, кто мне его дал, пожелал остаться неизвестным и просил, чтоб никаких данных об его компе в файлах не было. Ну хоть на том ему спасибо. :pardon:

_________________
Death rules! Metal to all who oppose!


Top
 Profile  
 
 
PostPosted: 06 May 2016 
Генеральный thrasher
User avatar
Joined: 03 Oct 2008
Posts: 3593
Lоcаtion: Ханты-Мансийский АО
Age: 43
Name: Сергей
Какой-то wav файл по ссылке скачивается.И чего с ним делать?


Top
 Profile  
 
 
PostPosted: 06 May 2016 
5-speed satisfactor
User avatar
Joined: 16 Feb 2009
Posts: 3679
Lоcаtion: New York, USA
Age: 40
Name: Leonid
Куй здесь в спойлере. Переименуй его как в куе указано

_________________
Death rules! Metal to all who oppose!


Top
 Profile  
 
 
PostPosted: 06 May 2016 
Рарник и трушник
User avatar
Joined: 25 Dec 2009
Posts: 8513
Lоcаtion: Москва
Age: 53
Name: Виталий
metaleonid wrote:
Переименуй его как в куе указано


"Conclusion And Revival"


Top
 Profile  
 
 
PostPosted: 06 May 2016 
Персональный статус
User avatar
Joined: 11 May 2011
Posts: 418
Lоcаtion: Omsk
Age: 28
Name: Alexander
Спасибо!
А ещё логи лучше постить в коде, так их не "колбасит".
Как-то так | +
Code:
Exact Audio Copy V1.1 from 23. June 2015

EAC extraction logfile from 2. May 2016, 12:33

Darkness / Conclusion and Revival

Used drive  : Private

Read mode               : Secure
Utilize accurate stream : Yes
Defeat audio cache      : Yes
Make use of C2 pointers : No

Read offset correction                      : 0
Overread into Lead-In and Lead-Out          : No
Fill up missing offset samples with silence : Yes
Delete leading and trailing silent blocks   : No
Null samples used in CRC calculations       : Yes
Used interface                              : Native Win32 interface for Win NT & 2000

Used output format : Internal WAV Routines
Sample format      : 44.100 Hz; 16 Bit; Stereo


TOC of the extracted CD

     Track |   Start  |  Length  | Start sector | End sector
    ---------------------------------------------------------
        1  |  0:00.00 |  2:56.30 |         0    |    13229   
        2  |  2:56.30 |  4:29.38 |     13230    |    33442   
        3  |  7:25.68 |  3:52.07 |     33443    |    50849   
        4  | 11:18.00 |  4:26.38 |     50850    |    70837   
        5  | 15:44.38 |  1:08.00 |     70838    |    75937   
        6  | 16:52.38 |  4:23.00 |     75938    |    95662   
        7  | 21:15.38 |  6:21.00 |     95663    |   124237   
        8  | 27:36.38 |  3:46.25 |    124238    |   141212   
        9  | 31:22.63 |  4:38.62 |    141213    |   162124   
       10  | 36:01.50 |  5:30.50 |    162125    |   186924   
       11  | 41:32.25 |  3:42.13 |    186925    |   203587   
       12  | 45:14.38 |  3:49.52 |    203588    |   220814   


Range status and errors

Selected range

     Filename C:\Darkness - Conclusion & Revival.wav

     Peak level 99.9 %
     Extraction speed 1.8 X
     Range quality 100.0 %
     Copy CRC 9B284A0F
     Copy OK

No errors occurred

End of status report

_________________
Enigma, unholy, ungodly, commander of the regeneration
Insidious and caught, implored by disgrace
Inhumation... The burial of man
Confession... Unify all evil


Top
 Profile E-mail  
 
 
PostPosted: 06 May 2016 
5-speed satisfactor
User avatar
Joined: 16 Feb 2009
Posts: 3679
Lоcаtion: New York, USA
Age: 40
Name: Leonid
В каком коде?

_________________
Death rules! Metal to all who oppose!


Top
 Profile  
 
 
PostPosted: 06 May 2016 
Персональный статус
User avatar
Joined: 11 May 2011
Posts: 418
Lоcаtion: Omsk
Age: 28
Name: Alexander
[code][/code]

_________________
Enigma, unholy, ungodly, commander of the regeneration
Insidious and caught, implored by disgrace
Inhumation... The burial of man
Confession... Unify all evil


Top
 Profile E-mail  
 
 
PostPosted: 06 May 2016 
5-speed satisfactor
User avatar
Joined: 16 Feb 2009
Posts: 3679
Lоcаtion: New York, USA
Age: 40
Name: Leonid
Не знал. Учту. :thanx:

_________________
Death rules! Metal to all who oppose!


Top
 Profile  
 
 
PostPosted: 04 Nov 2016 
Персональный статус
User avatar
Joined: 28 Mar 2013
Posts: 420
Lоcаtion: Russia (Bryansk)
Age: 25
Name: Michael
:thanx:

New Link: https://cloud.mail.ru/public/K58r/trXiCCNYv


Top
 Profile E-mail  
 
 
PostPosted: 05 Nov 2016 
А может смените мне статус?..
Joined: 03 Jul 2009
Posts: 853
Lоcаtion: Serbia
Name: Laki
Len & Liege Steel :thanx:


Top
 Profile E-mail  
 
 
PostPosted: 09 Nov 2016 
Генеральный thrasher
User avatar
Joined: 03 Oct 2008
Posts: 3593
Lоcаtion: Ханты-Мансийский АО
Age: 43
Name: Сергей
Eure Erben - они же Darkness.Двойной альбом ветеранов тевтонского трэша.Немецкоязычная версия проходит под вывеской Eure Erben,а англоязычная соответственно как Darkness.

Image

Year:2010
Style:Thrash Metal
Country:Germany
Archive:Flac+Cue+Log+Scans
Source:my CD
Size:368+358Mb
Label:Scare Records

CD 1:
01. Terror Für Terror 05:35
02. Deus Lo Volt 04:27
03. Amok 03:09
04. Das Dunkle Ich 04:11
05. Adrenalin 04:25
06. Die Ultrabrutale 03:58
07. Ischarioth 04:59
08. Monomensch 03:12
09. Hart Am Limit 03:34
10. Kreuz 04:46
11. Order 66 04:53

CD 2:
01. Terror For Terror 05:36
02. Deus Lo Volt 04:28
03. Amok 03:11
04. My Alter Mind 04:11
05. Adrenalin 04:25
06. The Ultra-Violence 03:58
07. Iscariot 05:03
08. Monoman 03:18
09. Reach The Limit 03:38
10. Burn Us In Hell 04:49
11. Order 66 04:55

"Cue 1"
REM GENRE "Thrash Metal"
REM DATE 2010
REM DISCID 900B200B
REM COMMENT "ExactAudioCopy v1.1"
PERFORMER "Eure Erben"
TITLE "Terror 2.0"
FILE "Eure Erben - Terror 2.0.flac" WAVE
TRACK 01 AUDIO
TITLE "Terror fur Terror"
PERFORMER "Eure Erben"
FLAGS DCP
INDEX 01 00:00:00
TRACK 02 AUDIO
TITLE "Deus Lo Volt"
PERFORMER "Eure Erben"
FLAGS DCP
INDEX 00 05:33:01
INDEX 01 05:35:02
TRACK 03 AUDIO
TITLE "Amok"
PERFORMER "Eure Erben"
FLAGS DCP
INDEX 00 10:00:10
INDEX 01 10:02:11
TRACK 04 AUDIO
TITLE "Das dunkle Ich"
PERFORMER "Eure Erben"
FLAGS DCP
INDEX 00 13:09:05
INDEX 01 13:11:05
TRACK 05 AUDIO
TITLE "Adrenalin"
PERFORMER "Eure Erben"
FLAGS DCP
INDEX 00 17:20:11
INDEX 01 17:22:11
TRACK 06 AUDIO
TITLE "Die Ultrabrutale"
PERFORMER "Eure Erben"
FLAGS DCP
INDEX 00 21:44:64
INDEX 01 21:46:64
TRACK 07 AUDIO
TITLE "Ischarioth"
PERFORMER "Eure Erben"
FLAGS DCP
INDEX 00 25:42:36
INDEX 01 25:44:36
TRACK 08 AUDIO
TITLE "Monomensch"
PERFORMER "Eure Erben"
FLAGS DCP
INDEX 00 30:45:47
INDEX 01 30:47:47
TRACK 09 AUDIO
TITLE "Hart am Limit"
PERFORMER "Eure Erben"
FLAGS DCP
INDEX 00 34:02:67
INDEX 01 34:04:67
TRACK 10 AUDIO
TITLE "Kreuz"
PERFORMER "Eure Erben"
FLAGS DCP
INDEX 00 37:40:51
INDEX 01 37:42:51
TRACK 11 AUDIO
TITLE "Order 66"
PERFORMER "Eure Erben"
FLAGS DCP
INDEX 00 42:29:56
INDEX 01 42:31:57

"Cue 2"
REM GENRE "Thrash Metal"
REM DATE 2010
REM DISCID 930B230B
REM COMMENT "ExactAudioCopy v1.1"
PERFORMER "Darkness "
TITLE "Terror 2.0"
FILE "Darkness - Terror 2.0.flac" WAVE
TRACK 01 AUDIO
TITLE "Terror for Terror"
PERFORMER "Darkness "
FLAGS DCP
INDEX 01 00:00:00
TRACK 02 AUDIO
TITLE "Deus Lo Volt"
PERFORMER "Darkness "
FLAGS DCP
INDEX 00 05:33:73
INDEX 01 05:35:73
TRACK 03 AUDIO
TITLE "Amok"
PERFORMER "Darkness "
FLAGS DCP
INDEX 00 10:01:39
INDEX 01 10:03:40
TRACK 04 AUDIO
TITLE "My Alter Mind"
PERFORMER "Darkness "
FLAGS DCP
INDEX 00 13:12:24
INDEX 01 13:14:29
TRACK 05 AUDIO
TITLE "Adrenalin"
PERFORMER "Darkness "
FLAGS DCP
INDEX 00 17:23:50
INDEX 01 17:25:50
TRACK 06 AUDIO
TITLE "The Ultra - Violence"
PERFORMER "Darkness "
FLAGS DCP
INDEX 00 21:48:17
INDEX 01 21:50:17
TRACK 07 AUDIO
TITLE "Iscariot"
PERFORMER "Darkness "
FLAGS DCP
INDEX 00 25:45:64
INDEX 01 25:47:64
TRACK 08 AUDIO
TITLE "Monoman"
PERFORMER "Darkness "
FLAGS DCP
INDEX 00 30:48:67
INDEX 01 30:50:67
TRACK 09 AUDIO
TITLE "Reach the Limits"
PERFORMER "Darkness "
FLAGS DCP
INDEX 00 34:07:21
INDEX 01 34:09:21
TRACK 10 AUDIO
TITLE "Burn Us in Hell"
PERFORMER "Darkness "
FLAGS DCP
INDEX 00 37:44:66
INDEX 01 37:46:66
TRACK 11 AUDIO
TITLE "Order 66"
PERFORMER "Darkness "
FLAGS DCP
INDEX 00 42:33:42
INDEX 01 42:35:44

"Log 1"
Exact Audio Copy V1.1 from 23. June 2015

Отчёт EAC об извлечении, выполненном 8. ноября 2016, 15:16

Eure Erben / Terror 2.0

Дисковод: HL-DT-STDVDRAM GTA0N Adapter: 1 ID: 0

Режим чтения : Достоверность
Использование точного потока : Да
Отключение кэша аудио : Да
Использование указателей C2 : Нет

Коррекция смещения при чтении : 102
Способность читать области Lead-in и Lead-out : Нет
Заполнение пропущенных сэмплов тишиной : Да
Удаление блоков с тишиной в начале и конце : Нет
При вычислениях CRC использовались нулевые сэмплы : Да
Интерфейс : Встроенный Win32-интерфейс для Win NT/2000

Выходной формат : Пользовательский кодировщик
Выбранный битрейт : 768 kBit/s
Качество : Высокий
Добавление ID3-тега : Нет
Утилита сжатия : C:\Program Files (x86)\Exact Audio Copy\FLAC\FLAC.EXE
Дополнительные параметры : -6 -V -T "ARTIST=%artist%" -T "TITLE=%title%" -T "ALBUM=%albumtitle%" -T "DATE=%year%" -T "TRACKNUMBER=%tracknr%" -T "GENRE=%genre%" -T "COMMENT=%comment%" -T "BAND=%albuminterpret%" -T "ALBUMARTIST=%albuminterpret%" -T "COMPOSER=%composer%" %haslyrics%--tag-from-file=LYRICS="%lyricsfile%"%haslyrics% -T "DISCNUMBER=%cdnumber%" -T "TOTALDISCS=%totalcds%" -T "TOTALTRACKS=%numtracks%" %hascover%--picture="%coverfile%"%hascover% %source% -o %dest%


TOC извлечённого CD

Трек | Старт | Длительность | Начальный сектор | Конечный сектор
---------------------------------------------------------------------
1 | 0:00.00 | 5:35.02 | 0 | 25126
2 | 5:35.02 | 4:27.09 | 25127 | 45160
3 | 10:02.11 | 3:08.69 | 45161 | 59329
4 | 13:11.05 | 4:11.06 | 59330 | 78160
5 | 17:22.11 | 4:24.53 | 78161 | 98013
6 | 21:46.64 | 3:57.47 | 98014 | 115835
7 | 25:44.36 | 5:03.11 | 115836 | 138571
8 | 30:47.47 | 3:17.20 | 138572 | 153366
9 | 34:04.67 | 3:37.59 | 153367 | 169700
10 | 37:42.51 | 4:49.06 | 169701 | 191381
11 | 42:31.57 | 4:56.28 | 191382 | 213609


Характеристики диапазона извлечения и сообщения об ошибках

Выбранный диапазон

Имя файла C:\Users\магазин\Music\Eure Erben - Terror 2.0.wav

Пиковый уровень 100.0 %
Скорость извлечения 3.9 X
Качество диапазона 100.0 %
CRC копии 7A7D624C
Копирование... OK

Ошибок не произошло


AccurateRip: сводка

Трек 1 : извлечено точно (доверие 1) [652F9F71] (AR v1)
Трек 2 : извлечено точно (доверие 1) [4E102D8D] (AR v1)
Трек 3 : извлечено точно (доверие 1) [C54D29F6] (AR v1)
Трек 4 : извлечено точно (доверие 1) [4C3D4037] (AR v1)
Трек 5 : извлечено точно (доверие 1) [210D6745] (AR v1)
Трек 6 : извлечено точно (доверие 1) [B0AF9DBB] (AR v1)
Трек 7 : извлечено точно (доверие 1) [4BCC5445] (AR v1)
Трек 8 : извлечено точно (доверие 1) [BA33705E] (AR v1)
Трек 9 : извлечено точно (доверие 1) [5F8F3437] (AR v1)
Трек 10 : извлечено точно (доверие 1) [E4675A82] (AR v1)
Трек 11 : извлечено точно (доверие 1) [A974A58C] (AR v1)

Все треки извлечены точно

Конец отчёта

---- CUETools DB Plugin V2.1.6

[CTDB TOCID: I6Oo_MCFamwPcKtNWJHlCQprQzw-] disk not present in database
Submit result: I6Oo_MCFamwPcKtNWJHlCQprQzw- has been uploaded

"Log 2"
Exact Audio Copy V1.1 from 23. June 2015

Отчёт EAC об извлечении, выполненном 8. ноября 2016, 15:32

Darkness / Terror 2.0

Дисковод: HL-DT-STDVDRAM GTA0N Adapter: 1 ID: 0

Режим чтения : Достоверность
Использование точного потока : Да
Отключение кэша аудио : Да
Использование указателей C2 : Нет

Коррекция смещения при чтении : 102
Способность читать области Lead-in и Lead-out : Нет
Заполнение пропущенных сэмплов тишиной : Да
Удаление блоков с тишиной в начале и конце : Нет
При вычислениях CRC использовались нулевые сэмплы : Да
Интерфейс : Встроенный Win32-интерфейс для Win NT/2000

Выходной формат : Пользовательский кодировщик
Выбранный битрейт : 768 kBit/s
Качество : Высокий
Добавление ID3-тега : Нет
Утилита сжатия : C:\Program Files (x86)\Exact Audio Copy\FLAC\FLAC.EXE
Дополнительные параметры : -6 -V -T "ARTIST=%artist%" -T "TITLE=%title%" -T "ALBUM=%albumtitle%" -T "DATE=%year%" -T "TRACKNUMBER=%tracknr%" -T "GENRE=%genre%" -T "COMMENT=%comment%" -T "BAND=%albuminterpret%" -T "ALBUMARTIST=%albuminterpret%" -T "COMPOSER=%composer%" %haslyrics%--tag-from-file=LYRICS="%lyricsfile%"%haslyrics% -T "DISCNUMBER=%cdnumber%" -T "TOTALDISCS=%totalcds%" -T "TOTALTRACKS=%numtracks%" %hascover%--picture="%coverfile%"%hascover% %source% -o %dest%


TOC извлечённого CD

Трек | Старт | Длительность | Начальный сектор | Конечный сектор
---------------------------------------------------------------------
1 | 0:00.00 | 5:35.73 | 0 | 25197
2 | 5:35.73 | 4:27.42 | 25198 | 45264
3 | 10:03.40 | 3:10.64 | 45265 | 59578
4 | 13:14.29 | 4:11.21 | 59579 | 78424
5 | 17:25.50 | 4:24.42 | 78425 | 98266
6 | 21:50.17 | 3:57.47 | 98267 | 116088
7 | 25:47.64 | 5:03.03 | 116089 | 138816
8 | 30:50.67 | 3:18.29 | 138817 | 153695
9 | 34:09.21 | 3:37.45 | 153696 | 170015
10 | 37:46.66 | 4:48.53 | 170016 | 191668
11 | 42:35.44 | 4:55.33 | 191669 | 213826


Характеристики диапазона извлечения и сообщения об ошибках

Выбранный диапазон

Имя файла C:\Users\магазин\Music\Darkness - Terror 2.0.wav

Пиковый уровень 100.0 %
Скорость извлечения 3.9 X
Качество диапазона 100.0 %
CRC копии F8EF0753
Копирование... OK

Ошибок не произошло


AccurateRip: сводка

Трек 1 : извлечено точно (доверие 1) [65A6613E] (AR v1)
Трек 2 : извлечено точно (доверие 1) [49BB0F07] (AR v1)
Трек 3 : извлечено точно (доверие 1) [8D52D5CE] (AR v1)
Трек 4 : извлечено точно (доверие 1) [C23BBA04] (AR v1)
Трек 5 : извлечено точно (доверие 1) [A05482D6] (AR v1)
Трек 6 : извлечено точно (доверие 1) [B85B2750] (AR v1)
Трек 7 : извлечено точно (доверие 1) [65C352DE] (AR v1)
Трек 8 : извлечено точно (доверие 1) [6AACA1DC] (AR v1)
Трек 9 : извлечено точно (доверие 1) [C2A7C633] (AR v1)
Трек 10 : извлечено точно (доверие 1) [49DF7C2E] (AR v1)
Трек 11 : извлечено точно (доверие 1) [69ADB551] (AR v1)

Все треки извлечены точно

Конец отчёта

---- CUETools DB Plugin V2.1.6

[CTDB TOCID: pCxNuC0HaeC33pZmEDE2hG9WClI-] disk not present in database
Submit result: pCxNuC0HaeC33pZmEDE2hG9WClI- has been uploaded


Eure Erben
Darkness


Top
 Profile  
 
Display posts from previous:  Sort by  
Post new topic Reply to topic  [ 134 posts ]  Go to page Previous  1, 2, 3, 4, 5, 6, 7  Next

All times are UTC + 3 hours


Who is online

Users browsing this forum: No registered users and 3 guests


You cannot post new topics in this forum
You cannot reply to topics in this forum
You cannot edit your posts in this forum
You cannot delete your posts in this forum
You cannot post attachments in this forum

Search for:
Яндекс.Метрика
Powered by phpBB © 2000, 2002, 2005, 2007 phpBB Group