\m/ 80's metal \m/

Информационно-аналитический форум "80 см пыли" (In Search We Trust) "У нас никто никуда не спешит"
Me For You - http://me-4u.com
It is currently 23 Sep 2020

All times are UTC + 3 hours

Spoiler
Chat - temporary registration for foreign users (please leave your application here)





Forum rules


Уважаемые пользователи ресурса, друзья, коллеги и гости нашего форума. Данный раздел конференции создан с целью рафинации, и посвящён такому стилевому направлению в музыке, как Thrash Metal во всех его проявлениях и ипостасях, а иногда и переходящему на пограничные стили Speed, Power, Groove, Crossover, MDM и т.п.
Главное правило здесь одно: Одна группа – одна тема! Всё остальное созвучно основным нормам поведения на конференции.
Шаблон оформления тем в этом подфоруме должен быть основан на данных сайта www.metal-archives.com и выглядеть следующим образом:

Группа (Страна) - Стилевые рамки - дискография
Slayer (USA) - Thrash Metal - дискография


В теме допустимо размещение всей информации касающейся данного коллектива: анонсы любых альбомов в любых форматах, запросы любых релизов коллектива (кроме релизов текущего и прошлого годов), обсуждения, обзоры, а в остальном всё как обычно. Уважаем друг друга, не грубим, соблюдаем нормы поведения на конференции, оформляем анонсы и запросы красиво и информативно, что бы модераторы не посчитали их троллингом, и не отправили куда положено, выписав Вам предупреждение или ещё что похуже… Прежде чем что-то запросить или запостить, пользуемся поиском! Пользуемся поиском! ПОЛЬЗУЕМСЯ ПОИСКОМ!!! Так слышно меня?.. :pardon:
Интересного, конструктивного и креативного общения! ;)

Image



Post new topic Reply to topic  [ 508 posts ]  Go to page Previous  1 ... 8, 9, 10, 11, 12, 13, 14 ... 26  Next
Author Message
 
PostPosted: 11 Jan 2010 
.
User avatar
Joined: 25 Aug 2007
Posts: 568
Lоcаtion: Москва
Age: 108
Name: Kostolom
metaleonid wrote:
Kostolom wrote:
На щелчки между песнями наплевать.


Как наплевать? Мне это на нервы действует.


Мне не действует. :)


Top
 Profile  
 
 
PostPosted: 12 Jan 2010 
Анатолий
User avatar
Joined: 18 Oct 2008
Posts: 3916
Lоcаtion: Армавир
Age: 43
Name: Анатолий
metaleonid wrote:
SoundForge & GoldWave.


С этими знаком слабо, но думаю что принцип не отличается.

В личке всё распишу.


Top
 Profile E-mail  
 
 
PostPosted: 12 Jan 2010 
5-speed satisfactor
User avatar
Joined: 16 Feb 2009
Posts: 3898
Lоcаtion: New York, USA
Age: 42
Name: Leonid
Спасибо.

_________________
Death rules! Metal to all who oppose!


Top
 Profile  
 
 
PostPosted: 30 Jan 2010 
А может смените мне статус?..
User avatar
Joined: 17 Jan 2008
Posts: 901
Lоcаtion: Пенза
Age: 43
Name: Денис
Razor - Executioner's Song (1985)

Audio: Flac+Cue+Log+Scans
Size: 292 Mb

Image

log
EAC extraction logfile from 29. March 2009, 1:36 for CD
Razor / Executioner's Song

Used drive : TSSTcorpDVD+-RW TS-H653B Adapter: 1 ID: 0
Read mode : Secure with NO C2, accurate stream, disable cache
Read offset correction : 6
Overread into Lead-In and Lead-Out : No

Used output format : Internal WAV Routines
44.100 Hz; 16 Bit; Stereo

Other options :
Fill up missing offset samples with silence : Yes
Delete leading and trailing silent blocks : No
Installed external ASPI interface


Range status and errors
Selected range
Filename D:\Music\Razor - Executioner's Song.wav

Peak level 98.8 %
Range quality 100.0 %
CRC 63A02F94
Copy OK

No errors occured

End of status report

cue
REM GENRE "Thrash Metal"
REM DATE 1985
REM DISCID 7808CF0B
REM COMMENT "ExactAudioCopy v0.95b4"
PERFORMER "Razor"
TITLE "Executioner's Song"
FILE "Razor - Executioner's Song.wav" WAVE
TRACK 01 AUDIO
TITLE "Take This Torch"
PERFORMER "Razor"
INDEX 01 00:00:00
TRACK 02 AUDIO
TITLE "Fast and Loud"
PERFORMER "Razor"
INDEX 01 03:18:25
TRACK 03 AUDIO
TITLE "City of Damnation"
PERFORMER "Razor"
INDEX 00 07:37:37
INDEX 01 07:38:65
TRACK 04 AUDIO
TITLE "Escape the Fire"
PERFORMER "Razor"
INDEX 01 11:23:50
TRACK 05 AUDIO
TITLE "March of Death"
PERFORMER "Razor"
INDEX 01 14:59:72
TRACK 06 AUDIO
TITLE "Distant Thunder"
PERFORMER "Razor"
INDEX 01 18:44:47
TRACK 07 AUDIO
TITLE "Hot Metal"
PERFORMER "Razor"
INDEX 01 22:49:45
TRACK 08 AUDIO
TITLE "Gatecrasher"
PERFORMER "Razor"
INDEX 00 25:09:27
INDEX 01 25:10:50
TRACK 09 AUDIO
TITLE "Deathrace"
PERFORMER "Razor"
INDEX 01 28:11:22
TRACK 10 AUDIO
TITLE "Time Bomb"
PERFORMER "Razor"
INDEX 01 31:41:07
TRACK 11 AUDIO
TITLE "The End"
PERFORMER "Razor"
INDEX 01 35:27:05


Tracklist:

1. Take This Torch
2. Fast and Loud
3. City of Damnation
4. Escape the Fire
5. March of Death
6. Distant Thunder
7. Hot Metal
8. Gatecrasher
9. Deathrace
10. Time Bomb
11. The End

http://www.megaupload.com/?d=B5B850DV

Razor - Evil Invaders (1985)

Audio: Flac+Cue+Log+Scans
Size: 310 Mb

Image

log
EAC extraction logfile from 29. March 2009, 2:12 for CD
Razor / Evil Invaders

Used drive : TSSTcorpDVD+-RW TS-H653B Adapter: 1 ID: 0
Read mode : Secure with NO C2, accurate stream, disable cache
Read offset correction : 6
Overread into Lead-In and Lead-Out : No

Used output format : Internal WAV Routines
44.100 Hz; 16 Bit; Stereo

Other options :
Fill up missing offset samples with silence : Yes
Delete leading and trailing silent blocks : No
Installed external ASPI interface


Range status and errors
Selected range
Filename D:\Music\Razor - Evil Invaders.wav

Peak level 98.8 %
Range quality 100.0 %
CRC 1AB5D27E
Copy OK

No errors occured

End of status report

cue
REM GENRE "Thrash Metal"
REM DATE 1985
REM DISCID 8F08E90A
REM COMMENT "ExactAudioCopy v0.95b4"
PERFORMER "Razor"
TITLE "Evil Invaders"
FILE "Razor - Evil Invaders.wav" WAVE
TRACK 01 AUDIO
TITLE "Nowhere Fast"
PERFORMER "Razor"
INDEX 01 00:00:00
TRACK 02 AUDIO
TITLE "Cross Me Fool"
PERFORMER "Razor"
INDEX 01 04:11:35
TRACK 03 AUDIO
TITLE "Legacy Of Doom"
PERFORMER "Razor"
INDEX 01 07:25:15
TRACK 04 AUDIO
TITLE "Evil Invaders"
PERFORMER "Razor"
INDEX 01 10:47:35
TRACK 05 AUDIO
TITLE "Iron Hammer"
PERFORMER "Razor"
INDEX 01 14:37:60
TRACK 06 AUDIO
TITLE "Instant Death"
PERFORMER "Razor"
INDEX 01 18:15:57
TRACK 07 AUDIO
TITLE "Cut Throat"
PERFORMER "Razor"
INDEX 01 21:12:45
TRACK 08 AUDIO
TITLE "Speed Merchants"
PERFORMER "Razor"
INDEX 01 25:24:40
TRACK 09 AUDIO
TITLE "Tortured Skull"
PERFORMER "Razor"
INDEX 01 29:08:62
TRACK 10 AUDIO
TITLE "Thrashdance"
PERFORMER "Razor"
INDEX 01 34:43:12


Tracklist:

1. Nowhere Fast
2. Cross Me Fool
3. Legacy of Doom
4. Evil Invaders
5. Iron Hammer
6. Instant Death
7. Cut Throat
8. Speed Merchants
9. Tortured Skull
10. Thrashdance

http://www.megaupload.com/?d=JDMCR7IP

Razor - Malicious Intent (1986)

Audio: Flac+Cue+Log+Scans
Size: 276 Mb

Image

log
EAC extraction logfile from 29. March 2009, 2:34 for CD
Razor / Malicious Intent

Used drive : TSSTcorpDVD+-RW TS-H653B Adapter: 1 ID: 0
Read mode : Secure with NO C2, accurate stream, disable cache
Read offset correction : 6
Overread into Lead-In and Lead-Out : No

Used output format : Internal WAV Routines
44.100 Hz; 16 Bit; Stereo

Other options :
Fill up missing offset samples with silence : Yes
Delete leading and trailing silent blocks : No
Installed external ASPI interface


Range status and errors
Selected range
Filename D:\Music\Razor - Malicious Intent.wav

Peak level 98.8 %
Range quality 100.0 %
CRC 6BA292F6
Copy OK

No errors occured

End of status report

cue
REM GENRE "Thrash Metal"
REM DATE 1986
REM DISCID 8D08BC0C
REM COMMENT "ExactAudioCopy v0.95b4"
PERFORMER "Razor"
TITLE "Malicious Intent"
FILE "Razor - Malicious Intent.flac" WAVE
TRACK 01 AUDIO
TITLE "Tear Me To Piece"
PERFORMER "Razor"
INDEX 01 00:00:00
TRACK 02 AUDIO
TITLE "Night Attack"
PERFORMER "Razor"
INDEX 01 02:58:65
TRACK 03 AUDIO
TITLE "Grindstone"
PERFORMER "Razor"
INDEX 01 05:35:32
TRACK 04 AUDIO
TITLE "Cage The Ragers"
PERFORMER "Razor"
INDEX 01 08:37:70
TRACK 05 AUDIO
TITLE "Malicious Intent"
PERFORMER "Razor"
INDEX 01 12:05:35
TRACK 06 AUDIO
TITLE "Rebel Onslaught"
PERFORMER "Razor"
INDEX 01 16:40:25
TRACK 07 AUDIO
TITLE "A.O.D."
PERFORMER "Razor"
INDEX 01 19:59:35
TRACK 08 AUDIO
TITLE "Challenge The Eagle"
PERFORMER "Razor"
INDEX 01 23:04:35
TRACK 09 AUDIO
TITLE "Stand Before Kings"
PERFORMER "Razor"
INDEX 01 26:29:17
TRACK 10 AUDIO
TITLE "High Speed Metal"
PERFORMER "Razor"
INDEX 01 29:15:35
TRACK 11 AUDIO
TITLE "K.M.A."
PERFORMER "Razor"
INDEX 01 32:49:15
TRACK 12 AUDIO
TITLE "Mosh"
PERFORMER "Razor"
INDEX 01 35:38:00


Tracklist:

1. Tear Me to Pieces
2. Night Attack
3. Grindstone
4. Cage the Ragers
5. Malicious Intent
6. Rebel Onslaught
7. A.O.D.
8. Challenge the Eagles
9. Stand Before Kings
10. High Speed Metal
11. K.M.A.
12. Mosh (bonus)

http://www.megaupload.com/?d=I6FM55KJ

Спасибо человеку(к сожалению не помню,у кого это слил) сделавший рип этих довольно редких переизданий....


Last edited by klod77 on 30 Jan 2010, edited 1 time in total.

Top
 Profile  
 
 
PostPosted: 30 Jan 2010 
Хиппей (support team)
User avatar
Joined: 30 Jul 2007
Posts: 119331
Lоcаtion: Киев (Kyiv, UA)
Age: 47
Name: Andrey
Ого. Спасибо! :true:

_________________


Top
 Profile E-mail  
 
 
PostPosted: 30 Jan 2010 
5-speed satisfactor
User avatar
Joined: 16 Feb 2009
Posts: 3898
Lоcаtion: New York, USA
Age: 42
Name: Leonid
Они в 2002ом разве вышли? Я думал в 1997-ом. Не знал, что они редкие?

_________________
Death rules! Metal to all who oppose!


Top
 Profile  
 
 
PostPosted: 30 Jan 2010 
5-speed satisfactor
User avatar
Joined: 16 Feb 2009
Posts: 3898
Lоcаtion: New York, USA
Age: 42
Name: Leonid
Что это:

http://www.osmoseproductions.com/liste/ ... &search=GO!
http://shop-hellsheadbangers.com/item.asp?PID=4918

Бутлег?

_________________
Death rules! Metal to all who oppose!


Top
 Profile  
 
 
PostPosted: 06 Dec 2010 
Thrasher
User avatar
Joined: 07 Oct 2007
Posts: 2782
Lоcаtion: Russia, Moscow
Age: 36
Name: Drunk & Evil
продолжим потихоньку

заимелось на двд-р'ках

Razor - Rivolli Club - Toronto, Canada 05-08-89 00:51:43 1.68 GB A-/A-
Razor - Concert Hall - Toronto, Canada 29-12-1989 00:38:00 0.94 GB B+/A-
Razor - Polish Hall - London, Canada 16-03-1990 01:04:37 1.55 GB A-/A-
Razor - Roxannes Night Club - Hull, Canada 04-09-1990 00:47:04 1.14 GB A-/A-
Razor - Lee's Palace - Toronto, Canada 08-07-99 00:38:57 1.26 GB A-/A-

+ ожидается

Razor - Dallas Rock Bar - Hamilton, Canada 17-12-89 01:17:50 1 GEN 1.88 GB B+/A-
Razor - Concert Hall - Toronto, Canada 29-12-89 00:38:01 AUD VHS 0.94 GB B+/A-
Razor - Highlands - Cambridge, Canada 22-02-90 01:33:30 1 GEN 2.27 GB A-/A
Razor - Spectrum - Toronto, Canada 25-03-90 01:20:56 1 GEN 2.67 GB A-/A-
Razor - Hensall Tavern - Hensall, Canada 16-05-90 01:10:03 1 GEN 3.64 GB A-/A-
Razor - Cleveland, OH 17-08-90 00:41:57 AUD VHS 2.69 GB B+/A-
Razor - Croation Hall - Timmins, Canada 02-08-92 00:49:18 AUD MASTER 4.03 GB A-/A-

_________________
ВОДКА, БАБЫ И БЛЮЗ / 40° till death... :bodun:
One time we saw some hookers, but when we got closer, we realised it was Mötley Crüe. ©


Top
 Profile  
 
 
PostPosted: 16 Mar 2011 
Работнечег
User avatar
Joined: 28 Aug 2007
Posts: 6363
Lоcаtion: г. Москва
Age: 31
Name: Дима
Нашлось здесь


Top
 Profile E-mail  
 
 
PostPosted: 25 Mar 2011 
Rara avis
User avatar
Joined: 27 Jan 2009
Posts: 5692
Name: .
-=KazgorotH=- wrote:
church
кат род у мни есть, очень интерсуют Baphomet (Bra)

http://lockjaw-yappy.blogspot.com/2011/ ... s-reh.html


Top
 Profile E-mail  
 
 
PostPosted: 25 Mar 2011 
Rara avis
User avatar
Joined: 27 Jan 2009
Posts: 5692
Name: .
-=KazgorotH=- wrote:
Для начал, вот что выдает М-А:
5.Desaster (Ger)-Souls Of Infernity-2. Cross Me Fool (Razor cover)

http://metalunder666.blogspot.com/2009/ ... -2001.html


Top
 Profile E-mail  
 
 
PostPosted: 25 Mar 2011 
Rara avis
User avatar
Joined: 27 Jan 2009
Posts: 5692
Name: .
-=KazgorotH=- wrote:
6.Hypocrisy (Swe)-The Final Chapter-11. Evil Invaders (Razor cover)

http://united-metal.ru/metal/death/1309 ... t-320.html


Top
 Profile E-mail  
 
 
PostPosted: 25 Mar 2011 
Rara avis
User avatar
Joined: 27 Jan 2009
Posts: 5692
Name: .
Insect Warfare - http://metalhordes.blogspot.com/2007/12 ... -thru.html
Mandatory (Ger)-...Where They Bleed - http://cintasdecromo.blogspot.com/2010/ ... 7-mcd.html
Mandatory (Ger)-Exiled in Pain - http://musiconmediafire.blogspot.com/20 ... -pain.html
Megiddo - http://uhrwerkturm.blogspot.com/2008/04 ... whore.html


Top
 Profile E-mail  
 
 
PostPosted: 25 Mar 2011 
Thrasher
User avatar
Joined: 07 Oct 2007
Posts: 2782
Lоcаtion: Russia, Moscow
Age: 36
Name: Drunk & Evil
:true: :true: :true: :true:

вот так подгончик!!! спасибо большое!

_________________
ВОДКА, БАБЫ И БЛЮЗ / 40° till death... :bodun:
One time we saw some hookers, but when we got closer, we realised it was Mötley Crüe. ©


Top
 Profile  
 
 
PostPosted: 07 Apr 2011 
Работнечег
User avatar
Joined: 28 Aug 2007
Posts: 6363
Lоcаtion: г. Москва
Age: 31
Name: Дима
Итого осталось найти 11.Spewgore-If You Know What's Good For You-2. Evil Invaders (Razor Cover), правильно я понимаю? :oops:


Top
 Profile E-mail  
 
 
PostPosted: 29 Jul 2011 
Зарегился вот...
Joined: 08 Apr 2011
Posts: 7
Lоcаtion: Россия
Age: 47
Name: Михаил
RAZOR (Can)- Norwalk,CT 1988 xvid

Может кому надо: http://www.megaupload.com/?d=A9585CPY


Top
 Profile E-mail  
 
 
PostPosted: 29 Jul 2011 
хард н хэвщик (support team)
User avatar
Joined: 02 Jun 2008
Posts: 16881
Lоcаtion: Н.Новгород
Age: 33
Name: Артем
угу, щас одмин проснется, увидит топик, будет сильно ругаться :oops:


Top
 Profile  
 
 
PostPosted: 29 Jul 2011 
хард н хэвщик (support team)
User avatar
Joined: 02 Jun 2008
Posts: 16881
Lоcаtion: Н.Новгород
Age: 33
Name: Артем
michan wrote:
Откудa: Россия111973

а это, что за циферки ? на почтовый индекс вроде не похоже :vic:


Top
 Profile  
 
 
PostPosted: 30 Jul 2011 
Хиппей (support team)
User avatar
Joined: 30 Jul 2007
Posts: 119331
Lоcаtion: Киев (Kyiv, UA)
Age: 47
Name: Andrey
Yopona Mat'... :shok:

Михаил, это чего было? :fingal:

_________________


Top
 Profile E-mail  
 
 
PostPosted: 31 Jul 2011 
Зарегился вот...
Joined: 08 Apr 2011
Posts: 7
Lоcаtion: Россия
Age: 47
Name: Михаил
В чём проблема?


Top
 Profile E-mail  
 
Display posts from previous:  Sort by  
Post new topic Reply to topic  [ 508 posts ]  Go to page Previous  1 ... 8, 9, 10, 11, 12, 13, 14 ... 26  Next

All times are UTC + 3 hours


Who is online

Users browsing this forum: No registered users and 2 guests


You cannot post new topics in this forum
You cannot reply to topics in this forum
You cannot edit your posts in this forum
You cannot delete your posts in this forum
You cannot post attachments in this forum

Search for:
Яндекс.Метрика
Powered by phpBB © 2000, 2002, 2005, 2007 phpBB Group