\m/ 80's metal \m/

Информационно-аналитический форум "80 см пыли" (In Search We Trust) "У нас никто никуда не спешит"
Me For You - http://me-4u.com
It is currently 25 Feb 2020

All times are UTC + 3 hours

Spoiler
Chat - temporary registration for foreign users (please leave your application here)





Forum rules


Уважаемые пользователи ресурса, друзья, коллеги и гости нашего форума. Данный раздел конференции создан с целью рафинации, и посвящён такому стилевому направлению в музыке, как Thrash Metal во всех его проявлениях и ипостасях, а иногда и переходящему на пограничные стили Speed, Power, Groove, Crossover, MDM и т.п.
Главное правило здесь одно: Одна группа – одна тема! Всё остальное созвучно основным нормам поведения на конференции.
Шаблон оформления тем в этом подфоруме должен быть основан на данных сайта www.metal-archives.com и выглядеть следующим образом:

Группа (Страна) - Стилевые рамки - дискография
Slayer (USA) - Thrash Metal - дискография


В теме допустимо размещение всей информации касающейся данного коллектива: анонсы любых альбомов в любых форматах, запросы любых релизов коллектива (кроме релизов текущего и прошлого годов), обсуждения, обзоры, а в остальном всё как обычно. Уважаем друг друга, не грубим, соблюдаем нормы поведения на конференции, оформляем анонсы и запросы красиво и информативно, что бы модераторы не посчитали их троллингом, и не отправили куда положено, выписав Вам предупреждение или ещё что похуже… Прежде чем что-то запросить или запостить, пользуемся поиском! Пользуемся поиском! ПОЛЬЗУЕМСЯ ПОИСКОМ!!! Так слышно меня?.. :pardon:
Интересного, конструктивного и креативного общения! ;)

Image



Post new topic Reply to topic  [ 327 posts ]  Go to page Previous  1, 2, 3, 4, 5, 6, 7 ... 17  Next
Author Message
 
PostPosted: 18 Mar 2010 
Анатолий
User avatar
Joined: 18 Oct 2008
Posts: 3736
Lоcаtion: Армавир
Age: 42
Name: Анатолий
iezuit

Можно будет рассчитывать на релизы?


Top
 Profile E-mail  
 
 
PostPosted: 18 Mar 2010 
ыыыы
User avatar
Joined: 17 May 2009
Posts: 952
Lоcаtion: Пушкино, МО
Age: 41
Name: Дмитрий
думаю, получится

_________________
Витасу до Даймонда как Алсу до Руссоса | При переразмещении - спрашивать разрешение!!


Top
 Profile  
 
 
PostPosted: 18 Mar 2010 
Анатолий
User avatar
Joined: 18 Oct 2008
Posts: 3736
Lоcаtion: Армавир
Age: 42
Name: Анатолий
Был бы весьма признателен!


Top
 Profile E-mail  
 
 
PostPosted: 19 Mar 2010 
ыыыы
User avatar
Joined: 17 May 2009
Posts: 952
Lоcаtion: Пушкино, МО
Age: 41
Name: Дмитрий
Anthrax 1987 / I'm The Man - Japan

Image


Жанр: Thrash Metal
Происхождение исполнителя: США
Год издания: 1988
Год издания данного носителя: 1987
Страна-производитель носителя: Япония
Тип релиза: image+.cue
Аудио кодек: FLAC
Тип рипа: image+.cue
Битрейт аудио: lossless
Продолжительность: 28:01
Рип: Собственный
Лейбл: ISLAND/POLYSTAR
Каталоговый номер: P22D-20051
Матрица: P22D20051 B8212J (SANYO)

Треклист:
1. I'm the Man (censored radio version) 03:05
2. I'm the Man 03:04 (Def uncensored version)
3. Sabbath Bloody Sabbath (Black Sabbath cover) 05:48
4. I'm the Man (live) (Extremely Def ill uncensored version) 04:40
5. Caught in a Mosh (live) 05:34
6. I Am the Law (live) 05:50


"Куй"
REM DISCID 4E069006
REM COMMENT "ExactAudioCopy v0.95b4"
PERFORMER "Anthrax"
TITLE "I'm The Man [P22D-20051]"
FILE "Anthrax - I'm The Man [P22D-20051].flac" WAVE
TRACK 01 AUDIO
TITLE "I'm The Man (Censored Radio Version)"
PERFORMER "Anthrax"
INDEX 01 00:00:00
TRACK 02 AUDIO
TITLE "I'm The Man (Def Uncensored Version)"
PERFORMER "Anthrax"
INDEX 00 03:02:72
INDEX 01 03:04:40
TRACK 03 AUDIO
TITLE "Sabbath Bloody Sabbath"
PERFORMER "Anthrax"
INDEX 00 06:07:57
INDEX 01 06:08:52
TRACK 04 AUDIO
TITLE "I'm The Man - Live (Extremely Def Iii Uncensored Version)"
PERFORMER "Anthrax"
INDEX 00 11:54:57
INDEX 01 11:56:57
TRACK 05 AUDIO
TITLE "Caught In A Mosh - Live"
PERFORMER "Anthrax"
INDEX 00 16:35:65
INDEX 01 16:36:22
TRACK 06 AUDIO
TITLE "I Am The Law - Live"
PERFORMER "Anthrax"
INDEX 01 22:10:17

"Лог"
EAC extraction logfile from 13. January 2010, 21:52 for CD
Anthrax / I'm The Man [P22D-20051]

Used drive : ASUS DRW-2014S1 Adapter: 0 ID: 0
Read mode : Secure with NO C2, accurate stream, disable cache
Read offset correction : 6
Overread into Lead-In and Lead-Out : No

Used output format : Internal WAV Routines
44.100 Hz; 16 Bit; Stereo

Other options :
Fill up missing offset samples with silence : Yes
Delete leading and trailing silent blocks : No
Installed external ASPI interface


Range status and errors
Selected range
Filename Y:\Музыка\Anthrax\1988 I'm The Man\Anthrax - I'm The Man [P22D-20051].wav

Peak level 99.2 %
Range quality 100.0 %
CRC BAEF86F2
Copy OK

No errors occured

End of status report


7" EP contains only tracks 2 and 3.
Tracklist for 12" EP, cassette, and CD version is shown below.

Produced by: Eddie Kramer, Paul Hammingson and Anthrax
Executive Producer: Jon Zazula
Mastered by: George Marino at Sterling Sound, N.Y.C.
Photography: Mark Weiss
Live tracks recorded July 11, 1987 at the Arcadia Theater in Dallas, Texas on
the "Amongst the Living Tour".

Написанному в куе и логе "1988 г." - не верить. Это ошибка базы, альбом выпущен в 1987 году.


Megaupload
Фото

_________________
Витасу до Даймонда как Алсу до Руссоса | При переразмещении - спрашивать разрешение!!


Top
 Profile  
 
 
PostPosted: 19 Mar 2010 
ыыыы
User avatar
Joined: 17 May 2009
Posts: 952
Lоcаtion: Пушкино, МО
Age: 41
Name: Дмитрий
Anthrax 1987 / Among The Living - Japan

Image


Жанр: Thrash Metal
Происхождение исполнителя: США
Год издания: 1987
Год издания данного носителя: 1987
Страна-производитель носителя: Япония
Тип релиза: image+.cue
Аудио кодек: FLAC
Тип рипа: image+.cue
Битрейт аудио: lossless
Продолжительность: 50:24
Рип: Собственный
Лейбл: ISLAND/POLYSTAR
Каталоговый номер: P35D-20032
Матрица: P35D20032 C8113K (SANYO)

Треклист:
1. Among the Living 05:16
2. Caught in a Mosh 05:00
3. I Am the Law 05:54
4. Efilnikufesin (N.F.L.) 04:55
5. A Skeleton in the Closet 05:29
6. Indians 05:41
7. One World 05:55
8. A.D.I. / Horror of It All 07:49
9. Imitation of Life 04:23

"Куй"
REM GENRE "Thrash Metal"
REM DATE 1987
REM DISCID 890BCF09
REM COMMENT "ExactAudioCopy v0.99pb5"
PERFORMER "Anthrax"
TITLE "Among The Living [P35D-20032]"
FILE "Anthrax - Among The Living [P35D-20032].flac" WAVE
TRACK 01 AUDIO
TITLE "Among The Living"
PERFORMER "Anthrax"
INDEX 01 00:00:00
TRACK 02 AUDIO
TITLE "Caught In A Mosh"
PERFORMER "Anthrax"
INDEX 01 05:16:27
TRACK 03 AUDIO
TITLE "I Am The Law"
PERFORMER "Anthrax"
INDEX 01 10:16:40
TRACK 04 AUDIO
TITLE "Efilnikufesin (N.F.L.)"
PERFORMER "Anthrax"
INDEX 01 16:10:42
TRACK 05 AUDIO
TITLE "A Skeleton In The Closet"
PERFORMER "Anthrax"
INDEX 01 21:05:40
TRACK 06 AUDIO
TITLE "Indians"
PERFORMER "Anthrax"
INDEX 01 26:34:22
TRACK 07 AUDIO
TITLE "One World"
PERFORMER "Anthrax"
INDEX 01 32:15:45
TRACK 08 AUDIO
TITLE "A.D.I. - Horror Of It All"
PERFORMER "Anthrax"
INDEX 00 38:10:15
INDEX 01 38:11:07
TRACK 09 AUDIO
TITLE "Imitation Of Life"
PERFORMER "Anthrax"
INDEX 01 46:00:32

"Лог"
Exact Audio Copy V0.99 prebeta 5 from 4. May 2009

Отчёт EAC об извлечении, выполненном 21. февраля 2010, 1:07

Anthrax / Among The Living [P35D-20032]

Дисковод: ASUS DRW-2014S1 Adapter: 0 ID: 0

Режим чтения : Достоверность
Использование точного потока : Да
Отключение кэша аудио : Да
Использование указателей C2 : Нет

Коррекция смещения при чтении : 6
Способность читать области Lead-in и Lead-out : Нет
Заполнение пропущенных сэмплов тишиной : Да
Удаление блоков с тишиной в начале и конце : Нет
При вычислениях CRC использовались нулевые сэмплы : Да
Интерфейс : Установленный внешний ASPI-интерфейс

Выходной формат : Пользовательский кодировщик
Выбранный битрейт : 128 kBit/s
Качество : Высокий
Добавление ID3-тэга : Нет
Утилита сжатия : C:\Program Files\Exact Audio Copy\Flac\flac.exe
Дополнительные параметры : -6 -V -T "artist=%a" -T "title=%t" -T "album=%g" -T "date=%y" -T "tracknumber=%n" -T "genre=%m" -T "comment=EAC 0.99beta5 / FLAC 1.1.0 q6" %s


TOC извлечённого CD

Трек | Старт | Длительность | Начальный сектор | Конечный сектор
---------------------------------------------------------------------
1 | 0:00.00 | 5:16.27 | 0 | 23726
2 | 5:16.27 | 5:00.13 | 23727 | 46239
3 | 10:16.40 | 5:54.02 | 46240 | 72791
4 | 16:10.42 | 4:54.73 | 72792 | 94914
5 | 21:05.40 | 5:28.57 | 94915 | 119571
6 | 26:34.22 | 5:41.23 | 119572 | 145169
7 | 32:15.45 | 5:55.37 | 145170 | 171831
8 | 38:11.07 | 7:49.25 | 171832 | 207031
9 | 46:00.32 | 4:23.35 | 207032 | 226791


Характеристики диапазона извлечения и сообщения об ошибках

Выбранный диапазон

Имя файла Y:\Музыка\Anthrax\1987 Among The Living\Anthrax - Among The Living [P35D-20032].wav

Пиковый уровень 93.3 %
Качество диапазона 100.0 %
CRC копии C1F07F31
Копирование... OK

Ошибок не произошло


AccurateRip: сводка

Трек 1 нет в базе данных
Трек 2 нет в базе данных
Трек 3 нет в базе данных
Трек 4 нет в базе данных
Трек 5 нет в базе данных
Трек 6 нет в базе данных
Трек 7 нет в базе данных
Трек 8 нет в базе данных
Трек 9 нет в базе данных

Ни одного трека нет в базе AccurateRip

Конец отчёта


Состав:
Joey Belladonna: Vocals
Dan Spitz: Lead Guitar
Scott Ian: Rhythm Guitar, Vocals
Frank Bello: Bass
Charlie Benante: Drums

Megaupload
Фото

_________________
Витасу до Даймонда как Алсу до Руссоса | При переразмещении - спрашивать разрешение!!


Top
 Profile  
 
 
PostPosted: 19 Mar 2010 
Хиппей (support team)
User avatar
Joined: 30 Jul 2007
Posts: 117587
Lоcаtion: Киев (Kyiv, UA)
Age: 46
Name: Andrey
:true: :true: :true:

_________________


Top
 Profile E-mail  
 
 
PostPosted: 19 Mar 2010 
Хиппей (support team)
User avatar
Joined: 30 Jul 2007
Posts: 117587
Lоcаtion: Киев (Kyiv, UA)
Age: 46
Name: Andrey
iezuit wrote:
Anthrax 1987 / I'm The Man - Japan

и за этот :thanx:

_________________


Top
 Profile E-mail  
 
 
PostPosted: 20 Mar 2010 
ыыыы
User avatar
Joined: 17 May 2009
Posts: 952
Lоcаtion: Пушкино, МО
Age: 41
Name: Дмитрий
Anthrax 1988 / State Of Euphoria - Japan

Image


Жанр: Thrash Metal
Происхождение исполнителя: США
Год издания: 1988
Год издания данного носителя: 1990 (2-е)
Страна-производитель носителя: Япония
Аудио кодек: FLAC
Тип рипа: image+.cue
Битрейт аудио: lossless
Продолжительность: 46:58
Рип: Собственный
Лейбл: ISLAND/POLYSTAR
Каталоговый номер: PSCD-1047
Матрица: PSCD-1047-A1D 11 V (JVC)

Треклист:
1. Be All, End All 06:24
2. Out of Sight, Out of Mind 05:13
3. Make Me Laugh 05:42
4. Antisocial (Trust cover) 04:26
5. Who Cares Wins 07:36
6. Now It's Dark 05:36
7. Schism 05:29
8. Misery Loves Company 05:41
9. 13 00:51
10. Finale 05:49

"Куй"
REM GENRE "Heavy Metal"
REM DATE 1988
REM DISCID 940C600A
REM COMMENT "ExactAudioCopy v0.95b4"
CATALOG 0000000000000
PERFORMER "ANTHRAX"
TITLE "State Of Euphoria [PSCD-1047]"
FILE "ANTHRAX - State Of Euphoria [PSCD-1047].flac" WAVE
TRACK 01 AUDIO
TITLE "Be All, End All"
PERFORMER "ANTHRAX"
INDEX 00 00:00:00
INDEX 01 00:00:37
TRACK 02 AUDIO
TITLE "Out Of Sight, Out Of Mind"
PERFORMER "ANTHRAX"
INDEX 00 06:22:37
INDEX 01 06:24:12
TRACK 03 AUDIO
TITLE "Make Me Laugh"
PERFORMER "ANTHRAX"
INDEX 00 11:37:39
INDEX 01 11:37:40
TRACK 04 AUDIO
TITLE "Antisocial"
PERFORMER "ANTHRAX"
INDEX 01 17:19:17
TRACK 05 AUDIO
TITLE "Who Cares Wins"
PERFORMER "ANTHRAX"
INDEX 00 21:43:67
INDEX 01 21:45:12
TRACK 06 AUDIO
TITLE "Now It's Dark"
PERFORMER "ANTHRAX"
INDEX 01 29:21:00
TRACK 07 AUDIO
TITLE "Schism"
PERFORMER "ANTHRAX"
INDEX 01 34:57:00
TRACK 08 AUDIO
TITLE "Misery Loves Company"
PERFORMER "ANTHRAX"
INDEX 01 40:25:67
TRACK 09 AUDIO
TITLE "13"
PERFORMER "ANTHRAX"
INDEX 01 46:07:07
TRACK 10 AUDIO
TITLE "Finale"
PERFORMER "ANTHRAX"
INDEX 01 46:58:42

"Лог"
EAC extraction logfile from 14. November 2009, 13:45 for CD
ANTHRAX / State Of Euphoria [PSCD-1047]

Used drive : ASUS DRW-2014S1 Adapter: 0 ID: 0
Read mode : Secure with NO C2, accurate stream, disable cache
Read offset correction : 6
Overread into Lead-In and Lead-Out : No

Used output format : Internal WAV Routines
44.100 Hz; 16 Bit; Stereo

Other options :
Fill up missing offset samples with silence : Yes
Delete leading and trailing silent blocks : No
Installed external ASPI interface


Range status and errors
Selected range
Filename Y:\Музыка\Anthrax\1988 State Of Euphoria\ANTHRAX - State Of Euphoria [PSCD-1047].wav

Peak level 97.7 %
Range quality 100.0 %
CRC 683B901A
Copy OK

No errors occured

End of status report


Состав:
Joey Belladonna: vocals
Scott Ian: guitars
Dan Spitz: guitars
Frank Bello: bass
Charlie Benante: drums

Megaupload
Фото

В куе поменяйте вав на флак.

_________________
Витасу до Даймонда как Алсу до Руссоса | При переразмещении - спрашивать разрешение!!


Top
 Profile  
 
 
PostPosted: 20 Mar 2010 
Хиппей (support team)
User avatar
Joined: 30 Jul 2007
Posts: 117587
Lоcаtion: Киев (Kyiv, UA)
Age: 46
Name: Andrey
Спасибо! :true:

_________________


Top
 Profile E-mail  
 
 
PostPosted: 20 Mar 2010 
Анатолий
User avatar
Joined: 18 Oct 2008
Posts: 3736
Lоcаtion: Армавир
Age: 42
Name: Анатолий
iezuit

Ох! Спасибище ОГРОМНОЕ! :thanx: :thanx: :thanx:

Я люблю Anthrax!!! :true: :true: :true:


Top
 Profile E-mail  
 
 
PostPosted: 20 Mar 2010 
Анатолий
User avatar
Joined: 18 Oct 2008
Posts: 3736
Lоcаtion: Армавир
Age: 42
Name: Анатолий
Quote:
Anthrax 1987 / I'm The Man - Japan

Да уж... и такой Anthrax я тоже люблю! Спасибо!!! :thanx:


Top
 Profile E-mail  
 
 
PostPosted: 20 Mar 2010 
ыыыы
User avatar
Joined: 17 May 2009
Posts: 952
Lоcаtion: Пушкино, МО
Age: 41
Name: Дмитрий
Anthrax 1985 / Armed & Dangerous - Japan

Image


Жанр: Thrash Metal
Происхождение исполнителя: США
Год издания: 1985
Год издания данного носителя: 1992
Страна-производитель носителя: Япония
Аудио кодек: FLAC
Тип рипа: image+.cue
Битрейт аудио: lossless
Продолжительность: 27:01
Рип: Собственный
Лейбл: MEGAFORCE/POLYSTAR
Каталоговый номер: PSCW-1102
Матрица: PSCW-1102 MT 1A1 + (DENON)

Треклист:
1. Armed and Dangerous 06:06
2. Raise Hell 04:03
3. God Save the Queen (Sex Pistols cover) 03:02
4. Metal Thrashing Mad (live) 02:51
5. Panic (live) 03:45
6. Soldiers of Metal 03:08
7. Howling Furies 04:06

"Куй"
REM GENRE "Thrash/Speed Metal"
REM DATE 1985
REM DISCID 66065507
REM COMMENT "ExactAudioCopy v0.99pb5"
CATALOG 4988023018065
PERFORMER "Anthrax"
TITLE "Armed & Dangerous [PSCW-1102]"
FILE "Anthrax - Armed & Dangerous [PSCW-1102].flac" WAVE
TRACK 01 AUDIO
TITLE "Armed And Dangerous (Studio)"
PERFORMER "Anthrax"
ISRC 000000000000
INDEX 01 00:00:00
TRACK 02 AUDIO
TITLE "Raise Hell (Studio)"
PERFORMER "Anthrax"
ISRC 000000000000
INDEX 00 06:05:00
INDEX 01 06:06:37
TRACK 03 AUDIO
TITLE "God Save The Queen (Studio - Non Lp)"
PERFORMER "Anthrax"
ISRC 000000000000
INDEX 00 10:07:57
INDEX 01 10:09:10
TRACK 04 AUDIO
TITLE "Metal Thrashing Mad (Live)"
PERFORMER "Anthrax"
ISRC 000000000000
INDEX 00 13:10:42
INDEX 01 13:11:10
TRACK 05 AUDIO
TITLE "Panic (Live)"
PERFORMER "Anthrax"
ISRC 000000000000
INDEX 00 16:01:02
INDEX 01 16:02:05
TRACK 06 AUDIO
TITLE "Soldiers Of Metal (Collector's Rare Track)"
PERFORMER "Anthrax"
ISRC 000000000000
INDEX 00 19:46:25
INDEX 01 19:47:15
TRACK 07 AUDIO
TITLE "Howling Furies (Collector's Rare Track)"
PERFORMER "Anthrax"
ISRC 000000000000
INDEX 00 22:53:15
INDEX 01 22:55:30

"Лог"
Exact Audio Copy V0.99 prebeta 5 from 4. May 2009

Отчёт EAC об извлечении, выполненном 6. марта 2010, 11:44

Anthrax / Armed & Dangerous [PSCW-1102]

Дисковод: MATSHITADVD-RAM UJ-850S Adapter: 0 ID: 0

Режим чтения : Достоверность
Использование точного потока : Да
Отключение кэша аудио : Да
Использование указателей C2 : Нет

Коррекция смещения при чтении : 102
Способность читать области Lead-in и Lead-out : Нет
Заполнение пропущенных сэмплов тишиной : Да
Удаление блоков с тишиной в начале и конце : Нет
При вычислениях CRC использовались нулевые сэмплы : Нет
Интерфейс : Установленный внешний ASPI-интерфейс

Выходной формат : Пользовательский кодировщик
Выбранный битрейт : 128 kBit/s
Качество : Высокий
Добавление ID3-тэга : Нет
Утилита сжатия : C:\Program Files\Exact Audio Copy\Flac\flac.exe
Дополнительные параметры : -6 -V -T "artist=%a" -T "title=%t" -T "album=%g" -T "date=%y" -T "tracknumber=%n" -T "genre=%m" -T "comment=EAC 0.9beta4 / FLAC 1.1.0 q6" %s


TOC извлечённого CD

Трек | Старт | Длительность | Начальный сектор | Конечный сектор
---------------------------------------------------------------------
1 | 0:00.00 | 6:06.37 | 0 | 27486
2 | 6:06.37 | 4:02.48 | 27487 | 45684
3 | 10:09.10 | 3:02.00 | 45685 | 59334
4 | 13:11.10 | 2:50.70 | 59335 | 72154
5 | 16:02.05 | 3:45.10 | 72155 | 89039
6 | 19:47.15 | 3:08.15 | 89040 | 103154
7 | 22:55.30 | 4:05.70 | 103155 | 121599


Характеристики диапазона извлечения и сообщения об ошибках

Выбранный диапазон

Имя файла Z:\Музыка\Anthrax\1985 Armed And Dangerous\Anthrax - Armed & Dangerous [PSCW-1102].wav

Пиковый уровень 100.0 %
Качество диапазона 100.0 %
CRC копии 5B65DE66
Копирование... OK

Ошибок не произошло


AccurateRip: сводка

Трек 1 нет в базе данных
Трек 2 нет в базе данных
Трек 3 нет в базе данных
Трек 4 нет в базе данных
Трек 5 нет в базе данных
Трек 6 нет в базе данных
Трек 7 нет в базе данных

Ни одного трека нет в базе AccurateRip

Конец отчёта


Состав:
Joey Belladonna: vocals
Scott Ian: guitar
Dan Spitz: guitar
Frank Bello: bass
Charlie Benante: drums

Megaupload
Фото

_________________
Витасу до Даймонда как Алсу до Руссоса | При переразмещении - спрашивать разрешение!!


Top
 Profile  
 
 
PostPosted: 20 Mar 2010 
Анатолий
User avatar
Joined: 18 Oct 2008
Posts: 3736
Lоcаtion: Армавир
Age: 42
Name: Анатолий
Quote:
Anthrax 1988 / State Of Euphoria - Japan

Ну что тут скажешь... СПАСИБО!!! :thanx: :thanx: :thanx:

''Be All, End All" - мега вещь! Эх... были времена... Верните мне Anthrax! :dash:


Top
 Profile E-mail  
 
 
PostPosted: 20 Mar 2010 
Анатолий
User avatar
Joined: 18 Oct 2008
Posts: 3736
Lоcаtion: Армавир
Age: 42
Name: Анатолий
Quote:
Anthrax 1985 / Armed & Dangerous - Japan

iezuit, добил... окончательно и безповоротно! :meloman:

Спасибо огромное за труд и за отзывчивость! :thanx: :thanx: :thanx:

Можешь кое-что посмотреть в буклете?


Top
 Profile E-mail  
 
 
PostPosted: 20 Mar 2010 
труъ антисионист
User avatar
Joined: 01 Aug 2007
Posts: 4544
Lоcаtion: Откуда и большинство из нас
Age: 39
Name: Дядя Вова
А я себе прес Ислондовский от 2005 года такой купил.

_________________
Image
Image


Top
 Profile  
 
 
PostPosted: 20 Mar 2010 
ыыыы
User avatar
Joined: 17 May 2009
Posts: 952
Lоcаtion: Пушкино, МО
Age: 41
Name: Дмитрий
Privateer
Могу))

_________________
Витасу до Даймонда как Алсу до Руссоса | При переразмещении - спрашивать разрешение!!


Top
 Profile  
 
 
PostPosted: 20 Mar 2010 
труъ антисионист
User avatar
Joined: 01 Aug 2007
Posts: 4544
Lоcаtion: Откуда и большинство из нас
Age: 39
Name: Дядя Вова
Glot wrote:
А я себе прес Ислондовский от 2005 года такой купил.

Тьху, совсем в антраксах запутался, я Spreading the Deasease себе взял :crazy:

_________________
Image
Image


Top
 Profile  
 
 
PostPosted: 20 Mar 2010 
ыыыы
User avatar
Joined: 17 May 2009
Posts: 952
Lоcаtion: Пушкино, МО
Age: 41
Name: Дмитрий
Glot
Тоже неплохо )) а я своими глазами :shok: видел амерский первопресс Spreading the Deasease в 95-м у одного чувака :nunu:

_________________
Витасу до Даймонда как Алсу до Руссоса | При переразмещении - спрашивать разрешение!!


Top
 Profile  
 
 
PostPosted: 20 Mar 2010 
ыыыы
User avatar
Joined: 17 May 2009
Posts: 952
Lоcаtion: Пушкино, МО
Age: 41
Name: Дмитрий
Мда. Ловлю себя на мысли, что если бы услышал Metal Thrashing Mad в несознательном возрасте, то получил бы крен головы :nunu: :true:

_________________
Витасу до Даймонда как Алсу до Руссоса | При переразмещении - спрашивать разрешение!!


Top
 Profile  
 
 
PostPosted: 20 Mar 2010 
Анатолий
User avatar
Joined: 18 Oct 2008
Posts: 3736
Lоcаtion: Армавир
Age: 42
Name: Анатолий
Quote:
4. Metal Thrashing Mad (live) 02:51
5. Panic (live) 03:45
6. Soldiers of Metal 03:08
7. Howling Furies 04:06


Что пишут на счёт вот этих композиций?

Две последние взяты с сингла? Neil Turbin на вокале?


Top
 Profile E-mail  
 
Display posts from previous:  Sort by  
Post new topic Reply to topic  [ 327 posts ]  Go to page Previous  1, 2, 3, 4, 5, 6, 7 ... 17  Next

All times are UTC + 3 hours


Who is online

Users browsing this forum: No registered users and 2 guests


You cannot post new topics in this forum
You cannot reply to topics in this forum
You cannot edit your posts in this forum
You cannot delete your posts in this forum
You cannot post attachments in this forum

Search for:
Яндекс.Метрика
Powered by phpBB © 2000, 2002, 2005, 2007 phpBB Group