\m/ 80's metal \m/

Информационно-аналитический форум "80 см пыли" (In Search We Trust) "У нас никто никуда не спешит"
Me For You - http://me-4u.com
It is currently 09 Aug 2020

All times are UTC + 3 hours

Spoiler
Chat - temporary registration for foreign users (please leave your application here)





Forum rules


Уважаемые пользователи ресурса, друзья, коллеги и гости нашего форума. Данный раздел конференции создан с целью рафинации, и посвящён такому стилевому направлению в музыке, как Thrash Metal во всех его проявлениях и ипостасях, а иногда и переходящему на пограничные стили Speed, Power, Groove, Crossover, MDM и т.п.
Главное правило здесь одно: Одна группа – одна тема! Всё остальное созвучно основным нормам поведения на конференции.
Шаблон оформления тем в этом подфоруме должен быть основан на данных сайта www.metal-archives.com и выглядеть следующим образом:

Группа (Страна) - Стилевые рамки - дискография
Slayer (USA) - Thrash Metal - дискография


В теме допустимо размещение всей информации касающейся данного коллектива: анонсы любых альбомов в любых форматах, запросы любых релизов коллектива (кроме релизов текущего и прошлого годов), обсуждения, обзоры, а в остальном всё как обычно. Уважаем друг друга, не грубим, соблюдаем нормы поведения на конференции, оформляем анонсы и запросы красиво и информативно, что бы модераторы не посчитали их троллингом, и не отправили куда положено, выписав Вам предупреждение или ещё что похуже… Прежде чем что-то запросить или запостить, пользуемся поиском! Пользуемся поиском! ПОЛЬЗУЕМСЯ ПОИСКОМ!!! Так слышно меня?.. :pardon:
Интересного, конструктивного и креативного общения! ;)

Image



Post new topic Reply to topic  [ 20 posts ] 
Author Message
 
PostPosted: 17 Jan 2011 
А может смените мне статус?..
User avatar
Joined: 28 Oct 2009
Posts: 662
Lоcаtion: Sweden
Age: 33
Name: Emil
Looking for a rip from the "Thee Almighty" CD by Midevil!. http://metal-archives.com/band.php?id=821

Midevil (USA) - Thee Almighty (1996)

Image

Tracklist:
1. The Sounds Of Infinity II 01:02
2. My Sanity 06:23
3. Thee Almighty 05:28
4. Life´s Casualties 08:10
5. Sign Of The Times 04:56
6. Sinbound 04:38
7. Last Breath 05:11

_________________
http://strappadometalblog.blogspot.com | http://heavymetalrarities.com/forum


Top
 Profile E-mail  
 
 
PostPosted: 17 Jan 2011 
Я набрал 1000 сообщений!
User avatar
Joined: 02 Feb 2009
Posts: 1000
Lоcаtion: из Тулы
Age: 46
Name: Максим
вот ссылочкаFLAС

_________________
КМА


Top
 Profile  
 
 
PostPosted: 17 Jan 2011 
А может смените мне статус?..
User avatar
Joined: 28 Oct 2009
Posts: 662
Lоcаtion: Sweden
Age: 33
Name: Emil
Thankyou so much!!! :true: :true:

_________________
http://strappadometalblog.blogspot.com | http://heavymetalrarities.com/forum


Top
 Profile E-mail  
 
 
PostPosted: 26 Oct 2019 
консэрваторъ
User avatar
Joined: 11 Aug 2007
Posts: 17638
Lоcаtion: Псков
Age: 46
Name: Сергей
На самом деле группа в 96-ом играла на стыке хэви/трэш, и играла очень душевно!.. Числится ативной, на FB чего-то контактов не видать... :vic:

Переиздания двух полноформатников с демкой и ипихой в бонусах...
:arrov: https://heavenandhellrecords.bandcamp.c ... ed-edition
:arrov: https://heavenandhellrecords.bandcamp.c ... ed-edition

_________________
THRASH 'EM ALL


Top
 Profile E-mail  
 
 
PostPosted: 29 Oct 2019 
Работнечег
User avatar
Joined: 28 Aug 2007
Posts: 6357
Lоcаtion: г. Москва
Age: 31
Name: Дима
Было 2 первопрессных диска, рипну неспеша, как найду :oops:


Top
 Profile E-mail  
 
 
PostPosted: 01 Nov 2019 
Хиппей (support team)
User avatar
Joined: 30 Jul 2007
Posts: 119119
Lоcаtion: Киев (Kyiv, UA)
Age: 47
Name: Andrey
На самом деле группа в 96-ом играла на стыке хэви/трэш, и играла очень душевно!.. Числится ативной, на FB чего-то контактов не видать... :vic:

Переиздания двух полноформатников с демкой и ипихой в бонусах...
:arrov: https://heavenandhellrecords.bandcamp.c ... ed-edition
:arrov: https://heavenandhellrecords.bandcamp.c ... ed-edition

Норм. Серёг, это ты из "запросов" сюда группа тихонько перетащил?

_________________


Top
 Profile E-mail  
 
 
PostPosted: 01 Nov 2019 
Хиппей (support team)
User avatar
Joined: 30 Jul 2007
Posts: 119119
Lоcаtion: Киев (Kyiv, UA)
Age: 47
Name: Andrey
Хотя, зачем я это спрашивал. Пардон :pardon:

Image

Image

_________________


Top
 Profile E-mail  
 
 
PostPosted: 01 Nov 2019 
консэрваторъ
User avatar
Joined: 11 Aug 2007
Posts: 17638
Lоcаtion: Псков
Age: 46
Name: Сергей
Угу пусть в ТТМ будет, постепенно добавим сюда и первопрасхи и ремы сего года...

_________________
THRASH 'EM ALL


Top
 Profile E-mail  
 
 
PostPosted: 03 Jul 2020 
Работнечег
User avatar
Joined: 28 Aug 2007
Posts: 6357
Lоcаtion: г. Москва
Age: 31
Name: Дима
Midevil - Thee Almighty (1996) FLAC

Image

Year: 1996
Label: Independent
Country: USA
Bitrate: Flac + Cue + Log + Covers
Size: 246 Mb

Line-Up:
Scott Vesely - Bass, Keyboards
Eugene Plascak - Drums
Joe Mitchell - Guitars (lead)
Jon Pamblanco - Vocals, Guitars (rhythm)


Tracklist:
1. The Sounds of Infinity II 01:02
2. My Sanity 06:23
3. Thee Almighty 05:28
4. Life's Casualties 08:10
5. Funky and the Melon 01:06
6. Sign of the Times 04:56
7. Sinbound 04:38
8. The Red-Purple Didi-Up's 00:30
9. Last Breath 05:11

LOG
Exact Audio Copy V1.3 from 2. September 2016

EAC extraction logfile from 9. May 2020, 15:28

Midevil / Thee Almighty

Used drive : ASUS DRW-2014L1 Adapter: 1 ID: 0

Read mode : Secure
Utilize accurate stream : Yes
Defeat audio cache : Yes
Make use of C2 pointers : No

Read offset correction : 6
Overread into Lead-In and Lead-Out : No
Fill up missing offset samples with silence : Yes
Delete leading and trailing silent blocks : No
Null samples used in CRC calculations : Yes
Used interface : Native Win32 interface for Win NT & 2000

Used output format : User Defined Encoder
Selected bitrate : 768 kBit/s
Quality : High
Add ID3 tag : No
Command line compressor : C:\Program Files (x86)\Exact Audio Copy\FLAC\FLAC.EXE
Additional command line options : -6 -V -T "ARTIST=%artist%" -T "TITLE=%title%" -T "ALBUM=%albumtitle%" -T "DATE=%year%" -T "TRACKNUMBER=%tracknr%" -T "GENRE=%genre%" -T "COMMENT=%comment%" -T "BAND=%albuminterpret%" -T "ALBUMARTIST=%albuminterpret%" -T "COMPOSER=%composer%" %haslyrics%--tag-from-file=LYRICS="%lyricsfile%"%haslyrics% -T "DISCNUMBER=%cdnumber%" -T "TOTALDISCS=%totalcds%" -T "TOTALTRACKS=%numtracks%" %hascover%--picture="%coverfile%"%hascover% %source% -o %dest%


TOC of the extracted CD

Track | Start | Length | Start sector | End sector
---------------------------------------------------------
1 | 0:00.00 | 1:02.13 | 0 | 4662
2 | 1:02.13 | 6:23.03 | 4663 | 33390
3 | 7:25.16 | 5:28.61 | 33391 | 58051
4 | 12:54.02 | 8:09.41 | 58052 | 94767
5 | 21:03.43 | 1:06.37 | 94768 | 99754
6 | 22:10.05 | 4:54.47 | 99755 | 121851
7 | 27:04.52 | 4:37.11 | 121852 | 142637
8 | 31:41.63 | 0:30.31 | 142638 | 144918
9 | 32:12.19 | 5:07.05 | 144919 | 167948


Range status and errors

Selected range

Filename D:\Lossless Rip\Midevil - Thee Almighty (1996)\Midevil - Thee Almighty.wav

Peak level 94.4 %
Extraction speed 7.5 X
Range quality 99.9 %
Copy CRC 00DD73E7
Copy OK

No errors occurred

End of status report

CUE
REM GENRE "Heavy Metal"
REM DATE 1996
REM DISCID 7308BF09
REM COMMENT "ExactAudioCopy v1.3"
PERFORMER "Midevil"
TITLE "Thee Almighty"
REM COMPOSER ""
FILE "Midevil - Thee Almighty.flac" WAVE
TRACK 01 AUDIO
TITLE "The Sounds Of Infinity II"
PERFORMER "Midevil"
REM COMPOSER ""
FLAGS DCP
INDEX 01 00:00:00
TRACK 02 AUDIO
TITLE "My Sanity"
PERFORMER "Midevil"
REM COMPOSER ""
FLAGS DCP
INDEX 01 01:02:13
TRACK 03 AUDIO
TITLE "Thee Almighty"
PERFORMER "Midevil"
REM COMPOSER ""
FLAGS DCP
INDEX 01 07:25:16
TRACK 04 AUDIO
TITLE "Life's Casualties"
PERFORMER "Midevil"
REM COMPOSER ""
FLAGS DCP
INDEX 01 12:54:02
TRACK 05 AUDIO
TITLE "Funky And The Melon"
PERFORMER "Midevil"
REM COMPOSER ""
FLAGS DCP
INDEX 00 21:01:00
INDEX 01 21:03:43
TRACK 06 AUDIO
TITLE "Sign Of The Times"
PERFORMER "Midevil"
REM COMPOSER ""
FLAGS DCP
INDEX 01 22:10:05
TRACK 07 AUDIO
TITLE "Sinbound"
PERFORMER "Midevil"
REM COMPOSER ""
FLAGS DCP
INDEX 00 27:02:07
INDEX 01 27:04:52
TRACK 08 AUDIO
TITLE "The Red-Purple Didi-Up's"
PERFORMER "Midevil"
REM COMPOSER ""
FLAGS DCP
INDEX 00 31:39:19
INDEX 01 31:41:63
TRACK 09 AUDIO
TITLE "Last Breath"
PERFORMER "Midevil"
REM COMPOSER ""
FLAGS DCP
INDEX 01 32:12:19


https://yadi.sk/d/Jkow3wqKkFCcdQ

Неплохой притрэшованный мрачноватый хэви, но ожидал немного большего.


Top
 Profile E-mail  
 
 
PostPosted: 04 Jul 2020 
спирт 100%
User avatar
Joined: 22 Sep 2008
Posts: 4579
Age: 49
Name: Саня
:thanx:


Top
 Profile  
 
 
PostPosted: 04 Jul 2020 
А может смените мне статус?..
User avatar
Joined: 24 Dec 2008
Posts: 660
Age: 46
Name: Дмитрий
Спасибо!


Top
 Profile  
 
 
PostPosted: 04 Jul 2020 
Анатолий
User avatar
Joined: 18 Oct 2008
Posts: 3861
Lоcаtion: Армавир
Age: 43
Name: Анатолий
:thanx: :true:


Top
 Profile E-mail  
 
 
PostPosted: 23 Jul 2020 
Работнечег
User avatar
Joined: 28 Aug 2007
Posts: 6357
Lоcаtion: г. Москва
Age: 31
Name: Дима
Midevil - Expiration Date (1997) FLAC

Image

Year: 1997
Label: Independent
Country: USA
Bitrate: Flac + Cue + Log + Covers
Size: 246 Mb

Line-Up:
Scott Vesely - Bass, Keyboards
Eugene Plascak - Drums
Joe Mitchell - Guitars (lead)
Jon Pamblanco - Vocals, Guitars (rhythm)


Tracklist:
1. The Sounds of Infinity 01:39
2. Expiration Date 04:53
3. Be Afraid 04:56
4. This World 04:30
5. The Game 05:55
6. Hands Across the Void 04:47
7. Zonk 07:59

LOG
Exact Audio Copy V1.3 from 2. September 2016

EAC extraction logfile from 9. May 2020, 14:47

Midevil / Expiration Date

Used drive : ASUS DRW-2014L1 Adapter: 1 ID: 0

Read mode : Secure
Utilize accurate stream : Yes
Defeat audio cache : Yes
Make use of C2 pointers : No

Read offset correction : 6
Overread into Lead-In and Lead-Out : No
Fill up missing offset samples with silence : Yes
Delete leading and trailing silent blocks : No
Null samples used in CRC calculations : Yes
Used interface : Native Win32 interface for Win NT & 2000

Used output format : User Defined Encoder
Selected bitrate : 768 kBit/s
Quality : High
Add ID3 tag : No
Command line compressor : C:\Program Files (x86)\Exact Audio Copy\FLAC\FLAC.EXE
Additional command line options : -6 -V -T "ARTIST=%artist%" -T "TITLE=%title%" -T "ALBUM=%albumtitle%" -T "DATE=%year%" -T "TRACKNUMBER=%tracknr%" -T "GENRE=%genre%" -T "COMMENT=%comment%" -T "BAND=%albuminterpret%" -T "ALBUMARTIST=%albuminterpret%" -T "COMPOSER=%composer%" %haslyrics%--tag-from-file=LYRICS="%lyricsfile%"%haslyrics% -T "DISCNUMBER=%cdnumber%" -T "TOTALDISCS=%totalcds%" -T "TOTALTRACKS=%numtracks%" %hascover%--picture="%coverfile%"%hascover% %source% -o %dest%


TOC of the extracted CD

Track | Start | Length | Start sector | End sector
---------------------------------------------------------
1 | 0:00.00 | 1:39.33 | 0 | 7457
2 | 1:39.33 | 4:53.34 | 7458 | 29466
3 | 6:32.67 | 4:56.43 | 29467 | 51709
4 | 11:29.35 | 4:30.71 | 51710 | 72030
5 | 16:00.31 | 5:55.74 | 72031 | 98729
6 | 21:56.30 | 4:47.38 | 98730 | 120292
7 | 26:43.68 | 8:00.13 | 120293 | 156305


Range status and errors

Selected range

Filename D:\Lossless Rip\Midevil - Expiration Date (1997)\Midevil - Expiration Date.wav

Peak level 96.6 %
Extraction speed 6.6 X
Range quality 99.9 %
Copy CRC 0579D569
Copy OK

No errors occurred

End of status report

CUE
REM GENRE "Heavy Metal"
REM DATE 1997
REM DISCID 4E082407
REM COMMENT "ExactAudioCopy v1.3"
PERFORMER "Midevil"
TITLE "Expiration Date"
REM COMPOSER ""
FILE "Midevil - Expiration Date.flac" WAVE
TRACK 01 AUDIO
TITLE "The Sounds Of Infinity"
PERFORMER "Midevil"
REM COMPOSER ""
FLAGS DCP
INDEX 01 00:00:00
TRACK 02 AUDIO
TITLE "Expiration Date"
PERFORMER "Midevil"
REM COMPOSER ""
FLAGS DCP
INDEX 01 01:39:33
TRACK 03 AUDIO
TITLE "Be Afraid"
PERFORMER "Midevil"
REM COMPOSER ""
FLAGS DCP
INDEX 01 06:32:67
TRACK 04 AUDIO
TITLE "This World"
PERFORMER "Midevil"
REM COMPOSER ""
FLAGS DCP
INDEX 01 11:29:35
TRACK 05 AUDIO
TITLE "The Game"
PERFORMER "Midevil"
REM COMPOSER ""
FLAGS DCP
INDEX 01 16:00:31
TRACK 06 AUDIO
TITLE "Hands Across The Void"
PERFORMER "Midevil"
REM COMPOSER ""
FLAGS DCP
INDEX 01 21:56:30
TRACK 07 AUDIO
TITLE "Zonk"
PERFORMER "Midevil"
REM COMPOSER ""
FLAGS DCP
INDEX 01 26:43:68


Yadi

Понравился больше первого, советую!


Top
 Profile E-mail  
 
 
PostPosted: 23 Jul 2020 
Хиппей (support team)
User avatar
Joined: 30 Jul 2007
Posts: 119119
Lоcаtion: Киев (Kyiv, UA)
Age: 47
Name: Andrey
:thanx: :thanx:

mirrors:

1996 - Telega l Ur-Files l M-Cloud l Uloz l Narod

1997 - Telega l Ur-Files l M-Cloud l Uloz l Narod

_________________


Top
 Profile E-mail  
 
 
PostPosted: 23 Jul 2020 
Анатолий
User avatar
Joined: 18 Oct 2008
Posts: 3861
Lоcаtion: Армавир
Age: 43
Name: Анатолий
:thanx: :true:


Top
 Profile E-mail  
 
 
PostPosted: 23 Jul 2020 
Прокъмитолист
User avatar
Joined: 12 Aug 2007
Posts: 6755
Lоcаtion: Санктъ-Петербуркъ
Age: 52
Name: Олекъ
:thanx:

_________________
прокъметол - это музыко, от которово есть прок (ы)


Top
 Profile  
 
 
PostPosted: 26 Jul 2020 
Хиппей (support team)
User avatar
Joined: 30 Jul 2007
Posts: 119119
Lоcаtion: Киев (Kyiv, UA)
Age: 47
Name: Andrey
church wrote:
Неплохой притрэшованный мрачноватый хэви, но ожидал немного большего.

Соглашусь. Только наоборот - группа весьма юморная =)
Ребятки выплыли немного не в то время. Музыка так себя, как сказал Димка - хэви-трэш с небольшой долей альтернативки. Добавлю, что довольно простецкий музон и заметно весьма влияние той же Металлики середины 90-х. Но.. слава кыргызам, вокал хоть оригинален (не косит под Хэта) и пацаны пытаются замутить что-то своё, а не тупо копируют чужие наработки.
Надеюсь второй альбом уже будет более собранным.

4/10

_________________


Top
 Profile E-mail  
 
 
PostPosted: 26 Jul 2020 
Хиппей (support team)
User avatar
Joined: 30 Jul 2007
Posts: 119119
Lоcаtion: Киев (Kyiv, UA)
Age: 47
Name: Andrey
Почитал ревьюшку на М-А на полный альбом, улыбнулся.. :pardon: https://www.metal-archives.com/reviews/ ... ghty/2196/

_________________


Top
 Profile E-mail  
 
 
PostPosted: 29 Jul 2020 
А может смените мне статус?..
User avatar
Joined: 24 Dec 2008
Posts: 660
Age: 46
Name: Дмитрий
:thanx:


Top
 Profile  
 
 
PostPosted: 30 Jul 2020 
Хиппей (support team)
User avatar
Joined: 30 Jul 2007
Posts: 119119
Lоcаtion: Киев (Kyiv, UA)
Age: 47
Name: Andrey
church wrote:
Midevil - Expiration Date (1997)

Да, этот альбом намного лучше. Тот же хэви-трэш, но уже боле собранный и качественный.
Но, ушло собственное лицо и коллектив похож стал на очередного так себе подражателя около-Металлики :pardon:

6/10

А первый альбом после нескольких прослушиваний мне понравился :meloman:

_________________


Top
 Profile E-mail  
 
Display posts from previous:  Sort by  
Post new topic Reply to topic  [ 20 posts ] 

All times are UTC + 3 hours


Who is online

Users browsing this forum: No registered users and 2 guests


You cannot post new topics in this forum
You cannot reply to topics in this forum
You cannot edit your posts in this forum
You cannot delete your posts in this forum
You cannot post attachments in this forum

Search for:
Яндекс.Метрика
Powered by phpBB © 2000, 2002, 2005, 2007 phpBB Group