\m/ 80's metal \m/

Информационно-аналитический форум "80 см пыли" (In Search We Trust) "У нас никто никуда не спешит"
Железнодорожная биржа - RailAgent
It is currently 16 Dec 2017

All times are UTC + 3 hours

Spoiler
Chat - temporary registration for foreign users (please leave your application here)





Forum rules


Уважаемые пользователи ресурса, друзья, коллеги и гости нашего форума. Данный раздел конференции создан с целью рафинации, и посвящён такому стилевому направлению в музыке, как Thrash Metal во всех его проявлениях и ипостасях, а иногда и переходящему на пограничные стили Speed, Power, Groove, Crossover, MDM и т.п.
Главное правило здесь одно: Одна группа – одна тема! Всё остальное созвучно основным нормам поведения на конференции.
Шаблон оформления тем в этом подфоруме должен быть основан на данных сайта www.metal-archives.com и выглядеть следующим образом:

Группа (Страна) - Стилевые рамки - дискография
Slayer (USA) - Thrash Metal - дискография


В теме допустимо размещение всей информации касающейся данного коллектива: анонсы любых альбомов в любых форматах, запросы любых релизов коллектива (кроме релизов текущего и прошлого годов), обсуждения, обзоры, а в остальном всё как обычно. Уважаем друг друга, не грубим, соблюдаем нормы поведения на конференции, оформляем анонсы и запросы красиво и информативно, что бы модераторы не посчитали их троллингом, и не отправили куда положено, выписав Вам предупреждение или ещё что похуже… Прежде чем что-то запросить или запостить, пользуемся поиском! Пользуемся поиском! ПОЛЬЗУЕМСЯ ПОИСКОМ!!! Так слышно меня?.. :pardon:
Интересного, конструктивного и креативного общения! ;)



Post new topic Reply to topic  [ 10 posts ] 
Author Message
 
PostPosted: 06 Dec 2017 
Генеральный thrasher
User avatar
Joined: 03 Oct 2008
Posts: 3255
Lоcаtion: Ханты-Мансийский АО
Age: 42
Name: Сергей
Image

Year:2015
Style:Thrash Metal
Country:Czech Republic
Archive:Flac+Cue+Log+Scans
Source:my CD
Size:222Mb
Label:Support Underground

Tracklist:
01. Instru-Mental 03:21
02. Oldschool Nostalgia 03:25
03. Lawless Vindication 03:48
04. Laid To Waste 03:23
05. Counterattack 04:00
06. Evil Imperialist 03:14
07. Moshed To Death 02:46
08. Ripped To Shreds 04:28

"Log"
Exact Audio Copy V1.1 from 23. June 2015

Отчёт EAC об извлечении, выполненном 4. декабря 2017, 11:15

Laid To Waste / Counterattack

Дисковод: HL-DT-STDVDRAM GTA0N Adapter: 1 ID: 0

Режим чтения : Достоверность
Использование точного потока : Да
Отключение кэша аудио : Да
Использование указателей C2 : Нет

Коррекция смещения при чтении : 102
Способность читать области Lead-in и Lead-out : Нет
Заполнение пропущенных сэмплов тишиной : Да
Удаление блоков с тишиной в начале и конце : Нет
При вычислениях CRC использовались нулевые сэмплы : Да
Интерфейс : Встроенный Win32-интерфейс для Win NT/2000

Выходной формат : Пользовательский кодировщик
Выбранный битрейт : 768 kBit/s
Качество : Высокий
Добавление ID3-тега : Нет
Утилита сжатия : C:\Program Files (x86)\Exact Audio Copy\FLAC\FLAC.EXE
Дополнительные параметры : -V -8 -T "Date=%year%" -T "Genre=%genre%" %source%


TOC извлечённого CD

Трек | Старт | Длительность | Начальный сектор | Конечный сектор
---------------------------------------------------------------------
1 | 0:00.00 | 3:20.47 | 0 | 15046
2 | 3:20.47 | 3:24.67 | 15047 | 30413
3 | 6:45.39 | 3:47.68 | 30414 | 47506
4 | 10:33.32 | 3:23.07 | 47507 | 62738
5 | 13:56.39 | 4:00.26 | 62739 | 80764
6 | 17:56.65 | 3:14.00 | 80765 | 95314
7 | 21:10.65 | 2:46.35 | 95315 | 107799
8 | 23:57.25 | 4:27.40 | 107800 | 127864


Характеристики диапазона извлечения и сообщения об ошибках

Выбранный диапазон

Имя файла C:\Users\магазин\Music\Laid To Waste - Counterattack.wav

Пиковый уровень 100.0 %
Скорость извлечения 3.5 X
Качество диапазона 100.0 %
CRC теста 4E6D3AE5
CRC копии 4E6D3AE5
Копирование... OK

Ошибок не произошло


AccurateRip: сводка

Трек 1 отсутствует в базе данных
Трек 2 отсутствует в базе данных
Трек 3 отсутствует в базе данных
Трек 4 отсутствует в базе данных
Трек 5 отсутствует в базе данных
Трек 6 отсутствует в базе данных
Трек 7 отсутствует в базе данных
Трек 8 отсутствует в базе данных

Ни одного трека нет в базе AccurateRip

Конец отчёта

---- CUETools DB Plugin V2.1.6

[CTDB TOCID: IMj5pbeWcuVWkJxs0rXmQEZ6grE-] found
Submit result: already submitted
Track | CTDB Status
1 | (1/1) Accurately ripped
2 | (1/1) Accurately ripped
3 | (1/1) Accurately ripped
4 | (1/1) Accurately ripped
5 | (1/1) Accurately ripped
6 | (1/1) Accurately ripped
7 | (1/1) Accurately ripped
8 | (1/1) Accurately ripped


Counterattack

Image

Year:2017
Style:Thrash Metal
Country:Czech Republic
Archive:Flac+Cue+Log+Scans
Source:my CD
Size:240Mb
Label:Support Underground

Tracklist:
01. Reborn 04:47
02. Mental Decay 03:35
03. The Breaking Wheel 03:35
04. Blood Of The Innocent 03:10
05. Bells Of Return 04:10
06. The Strangler 03:22
07. Violence Be The Cure 04:16
08. Collateral Damage 05:12

"Log"
Exact Audio Copy V1.1 from 23. June 2015

Отчёт EAC об извлечении, выполненном 4. декабря 2017, 11:36

Laid To Waste / Mental Decay

Дисковод: HL-DT-STDVDRAM GTA0N Adapter: 1 ID: 0

Режим чтения : Достоверность
Использование точного потока : Да
Отключение кэша аудио : Да
Использование указателей C2 : Нет

Коррекция смещения при чтении : 102
Способность читать области Lead-in и Lead-out : Нет
Заполнение пропущенных сэмплов тишиной : Да
Удаление блоков с тишиной в начале и конце : Нет
При вычислениях CRC использовались нулевые сэмплы : Да
Интерфейс : Встроенный Win32-интерфейс для Win NT/2000

Выходной формат : Пользовательский кодировщик
Выбранный битрейт : 768 kBit/s
Качество : Высокий
Добавление ID3-тега : Нет
Утилита сжатия : C:\Program Files (x86)\Exact Audio Copy\FLAC\FLAC.EXE
Дополнительные параметры : -V -8 -T "Date=%year%" -T "Genre=%genre%" %source%


TOC извлечённого CD

Трек | Старт | Длительность | Начальный сектор | Конечный сектор
---------------------------------------------------------------------
1 | 0:00.00 | 4:47.00 | 0 | 21524
2 | 4:47.00 | 3:35.00 | 21525 | 37649
3 | 8:22.00 | 3:34.38 | 37650 | 53737
4 | 11:56.38 | 3:10.00 | 53738 | 67987
5 | 15:06.38 | 4:10.00 | 67988 | 86737
6 | 19:16.38 | 3:22.00 | 86738 | 101887
7 | 22:38.38 | 4:15.38 | 101888 | 121050
8 | 26:54.01 | 5:12.00 | 121051 | 144450


Характеристики диапазона извлечения и сообщения об ошибках

Выбранный диапазон

Имя файла C:\Users\магазин\Music\Laid To Waste - Mental Decay.wav

Пиковый уровень 100.0 %
Скорость извлечения 3.6 X
Качество диапазона 100.0 %
CRC теста 7EA1B6B5
CRC копии 7EA1B6B5
Копирование... OK

Ошибок не произошло


AccurateRip: сводка

Трек 1 отсутствует в базе данных
Трек 2 отсутствует в базе данных
Трек 3 отсутствует в базе данных
Трек 4 отсутствует в базе данных
Трек 5 отсутствует в базе данных
Трек 6 отсутствует в базе данных
Трек 7 отсутствует в базе данных
Трек 8 отсутствует в базе данных

Ни одного трека нет в базе AccurateRip

Конец отчёта

---- CUETools DB Plugin V2.1.6

[CTDB TOCID: 3Z9cigaJP8kVlxoflJ_WXKAR1h8-] found
Submit result: already submitted
Track | CTDB Status
1 | (3/3) Accurately ripped
2 | (3/3) Accurately ripped
3 | (3/3) Accurately ripped
4 | (3/3) Accurately ripped
5 | (3/3) Accurately ripped
6 | (3/3) Accurately ripped
7 | (3/3) Accurately ripped
8 | (3/3) Accurately ripped


Mental Decay


Top
 Profile  
 
 
PostPosted: 06 Dec 2017 
Прокъмитолист
User avatar
Joined: 12 Aug 2007
Posts: 6256
Lоcаtion: Санктъ-Петербуркъ
Age: 50
Name: Олекъ
Серёга, спасибо! :thanx:

_________________
прокъметол - это музыко, от которово есть прок (ы)


Top
 Profile  
 
 
PostPosted: 06 Dec 2017 
консэрваторъ
Joined: 11 Aug 2007
Posts: 14422
Lоcаtion: Псков
Age: 43
Name: Сергей
МА :arrov: https://www.metal-archives.com/bands/La ... 3540399455 на всякий пожарный...

_________________
THRASH 'EM ALL


Top
 Profile E-mail  
 
 
PostPosted: 06 Dec 2017 
Хиппей (support team)
User avatar
Joined: 30 Jul 2007
Posts: 97141
Lоcаtion: Киев (Kyiv, UA)
Age: 44
Name: Andrey
thorbeorn wrote:
Counterattack

:thanx:

_________________


Top
 Profile E-mail  
 
 
PostPosted: 06 Dec 2017 
Хиппей (support team)
User avatar
Joined: 30 Jul 2007
Posts: 97141
Lоcаtion: Киев (Kyiv, UA)
Age: 44
Name: Andrey
thorbeorn wrote:
Mental Decay

:thanx:

_________________


Top
 Profile E-mail  
 
 
PostPosted: 06 Dec 2017 
Доктор энтомологии
User avatar
Joined: 22 Jan 2009
Posts: 8545
Lоcаtion: Даугавпилс
Age: 42
Name: Алексей
картинки альбомов искусственный разум сгенерировал?
...нет серъезного отношения к этому творчеству в зачатке :cry:


Top
 Profile  
 
 
PostPosted: 07 Dec 2017 
консэрваторъ
Joined: 11 Aug 2007
Posts: 14422
Lоcаtion: Псков
Age: 43
Name: Сергей
Чего, Лёш, совсем музыка не понравилась?..

_________________
THRASH 'EM ALL


Top
 Profile E-mail  
 
 
PostPosted: 07 Dec 2017 
Доктор энтомологии
User avatar
Joined: 22 Jan 2009
Posts: 8545
Lоcаtion: Даугавпилс
Age: 42
Name: Алексей
не, Серёг, не слухал пока ваще, картинками любуюся :dance:


Top
 Profile  
 
 
PostPosted: 07 Dec 2017 
Хиппей (support team)
User avatar
Joined: 30 Jul 2007
Posts: 97141
Lоcаtion: Киев (Kyiv, UA)
Age: 44
Name: Andrey
Вторую картинку в топик к Ван Гогу хочется забрать, но.. что-то смущает :scratch:

_________________


Top
 Profile E-mail  
 
 
PostPosted: 07 Dec 2017 
Доктор энтомологии
User avatar
Joined: 22 Jan 2009
Posts: 8545
Lоcаtion: Даугавпилс
Age: 42
Name: Алексей
надо слушать а не нюхать :dance:


Top
 Profile  
 
Display posts from previous:  Sort by  
Post new topic Reply to topic  [ 10 posts ] 

All times are UTC + 3 hours


Who is online

Users browsing this forum: No registered users and 2 guests


You cannot post new topics in this forum
You cannot reply to topics in this forum
You cannot edit your posts in this forum
You cannot delete your posts in this forum
You cannot post attachments in this forum

Search for:
Яндекс.Метрика
Powered by phpBB © 2000, 2002, 2005, 2007 phpBB Group