\m/ 80's metal \m/

Информационно-аналитический форум "80 см пыли" (In Search We Trust) "У нас никто никуда не спешит"
Железнодорожная биржа - RailAgent
It is currently 22 Oct 2017

All times are UTC + 3 hours

Spoiler
Chat - temporary registration for foreign users (please leave your application here)





Forum rules


Уважаемые пользователи ресурса, друзья, коллеги и гости нашего форума. Данный раздел конференции создан с целью рафинации, и посвящён такому стилевому направлению в музыке, как Thrash Metal во всех его проявлениях и ипостасях, а иногда и переходящему на пограничные стили Speed, Power, Groove, Crossover, MDM и т.п.
Главное правило здесь одно: Одна группа – одна тема! Всё остальное созвучно основным нормам поведения на конференции.
Шаблон оформления тем в этом подфоруме должен быть основан на данных сайта www.metal-archives.com и выглядеть следующим образом:

Группа (Страна) - Стилевые рамки - дискография
Slayer (USA) - Thrash Metal - дискография


В теме допустимо размещение всей информации касающейся данного коллектива: анонсы любых альбомов в любых форматах, запросы любых релизов коллектива (кроме релизов текущего и прошлого годов), обсуждения, обзоры, а в остальном всё как обычно. Уважаем друг друга, не грубим, соблюдаем нормы поведения на конференции, оформляем анонсы и запросы красиво и информативно, что бы модераторы не посчитали их троллингом, и не отправили куда положено, выписав Вам предупреждение или ещё что похуже… Прежде чем что-то запросить или запостить, пользуемся поиском! Пользуемся поиском! ПОЛЬЗУЕМСЯ ПОИСКОМ!!! Так слышно меня?.. :pardon:
Интересного, конструктивного и креативного общения! ;)



Post new topic Reply to topic  [ 3 posts ] 
Author Message
 
PostPosted: 11 Aug 2017 
Генеральный thrasher
User avatar
Joined: 03 Oct 2008
Posts: 3186
Lоcаtion: Ханты-Мансийский АО
Age: 42
Name: Сергей
Трэшующие итальянцы...Дебютник можно забрать на трэкере или у Оксаны.

Image

Year:2016
Style:Thrash Metal
Country:Italy
Archive:Flac+Cue+Log+Scans
Source:my CD
Size:341Mb
Label:White Tower Records

Tracklist:
01. The Aftermath 01:28
02. A World In Ruin 05:35
03. Plague 05:47
04. Dealing With Death 04:50
05. Military Operation Slaughter 04:47
06. The Great Race Of Yith 01:17
07. The Shadow Of Time 04:45
08. Karkinos 03:35
09. Teotihuacan 05:13
10. Dreams Lost in War 07:13

"Cue"
REM GENRE "Thrash Metal"
REM DATE 2016
REM DISCID 700A730A
REM COMMENT "ExactAudioCopy v1.1"
PERFORMER "Rising Dark"
TITLE "A World In Ruin"
FILE "Rising Dark - A World In Ruin.flac" WAVE
TRACK 01 AUDIO
TITLE "The Aftermath"
PERFORMER "Rising Dark"
INDEX 01 00:00:00
TRACK 02 AUDIO
TITLE "A World In Ruin"
PERFORMER "Rising Dark"
INDEX 01 01:28:00
TRACK 03 AUDIO
TITLE "Plague"
PERFORMER "Rising Dark"
INDEX 01 07:03:61
TRACK 04 AUDIO
TITLE "Dealing With Death"
PERFORMER "Rising Dark"
INDEX 01 12:51:13
TRACK 05 AUDIO
TITLE "Military Operation Slaughter"
PERFORMER "Rising Dark"
INDEX 01 17:41:63
TRACK 06 AUDIO
TITLE "The Great Race Of Yith"
PERFORMER "Rising Dark"
INDEX 01 22:29:57
TRACK 07 AUDIO
TITLE "The Shadow Of Time"
PERFORMER "Rising Dark"
INDEX 01 23:46:69
TRACK 08 AUDIO
TITLE "Karkinos"
PERFORMER "Rising Dark"
INDEX 01 28:32:65
TRACK 09 AUDIO
TITLE "Teotihuacan"
PERFORMER "Rising Dark"
INDEX 01 32:08:44
TRACK 10 AUDIO
TITLE "Dreams Lost In War"
PERFORMER "Rising Dark"
INDEX 01 37:22:08

"Log"
Exact Audio Copy V1.1 from 23. June 2015

Отчёт EAC об извлечении, выполненном 7. августа 2017, 16:07

Rising Dark / A World In Ruin

Дисковод: HL-DT-STDVDRAM GTA0N Adapter: 1 ID: 0

Режим чтения : Достоверность
Использование точного потока : Да
Отключение кэша аудио : Да
Использование указателей C2 : Нет

Коррекция смещения при чтении : 102
Способность читать области Lead-in и Lead-out : Нет
Заполнение пропущенных сэмплов тишиной : Да
Удаление блоков с тишиной в начале и конце : Нет
При вычислениях CRC использовались нулевые сэмплы : Да
Интерфейс : Встроенный Win32-интерфейс для Win NT/2000

Выходной формат : Пользовательский кодировщик
Выбранный битрейт : 768 kBit/s
Качество : Высокий
Добавление ID3-тега : Нет
Утилита сжатия : C:\Program Files (x86)\Exact Audio Copy\FLAC\FLAC.EXE
Дополнительные параметры : -V -8 -T "Date=%year%" -T "Genre=%genre%" %source%


TOC извлечённого CD

Трек | Старт | Длительность | Начальный сектор | Конечный сектор
---------------------------------------------------------------------
1 | 0:00.00 | 1:28.00 | 0 | 6599
2 | 1:28.00 | 5:35.61 | 6600 | 31785
3 | 7:03.61 | 5:47.27 | 31786 | 57837
4 | 12:51.13 | 4:50.50 | 57838 | 79637
5 | 17:41.63 | 4:47.69 | 79638 | 101231
6 | 22:29.57 | 1:17.12 | 101232 | 107018
7 | 23:46.69 | 4:45.71 | 107019 | 128464
8 | 28:32.65 | 3:35.54 | 128465 | 144643
9 | 32:08.44 | 5:13.39 | 144644 | 168157
10 | 37:22.08 | 7:13.45 | 168158 | 200677


Характеристики диапазона извлечения и сообщения об ошибках

Выбранный диапазон

Имя файла C:\Users\магазин\Music\Rising Dark - A World In Ruin.wav

Пиковый уровень 100.0 %
Скорость извлечения 3.6 X
Качество диапазона 100.0 %
CRC теста 57084AC4
CRC копии 57084AC4
Копирование... OK

Ошибок не произошло


AccurateRip: сводка

Трек 1 отсутствует в базе данных
Трек 2 отсутствует в базе данных
Трек 3 отсутствует в базе данных
Трек 4 отсутствует в базе данных
Трек 5 отсутствует в базе данных
Трек 6 отсутствует в базе данных
Трек 7 отсутствует в базе данных
Трек 8 отсутствует в базе данных
Трек 9 отсутствует в базе данных
Трек 10 отсутствует в базе данных

Ни одного трека нет в базе AccurateRip

Конец отчёта

---- CUETools DB Plugin V2.1.6

[CTDB TOCID: eNSA6OalO4rYv0Q1iX7YgEHdWOc-] disk not present in database
Submit result: eNSA6OalO4rYv0Q1iX7YgEHdWOc- has been uploaded


A World In Ruin


Top
 Profile  
 
 
PostPosted: 11 Aug 2017 
консэрваторъ
Joined: 11 Aug 2007
Posts: 13985
Lоcаtion: Псков
Age: 43
Name: Сергей
Image

https://www.metal-archives.com/bands/Ri ... 3540271614

А демку в 160 на арее...

_________________
THRASH 'EM ALL


Top
 Profile E-mail  
 
 
PostPosted: 11 Aug 2017 
Прокъмитолист
User avatar
Joined: 12 Aug 2007
Posts: 6175
Lоcаtion: Санктъ-Петербуркъ
Age: 50
Name: Олекъ
:thanx:

_________________
прокъметол - это музыко, от которово есть прок (ы)


Top
 Profile  
 
Display posts from previous:  Sort by  
Post new topic Reply to topic  [ 3 posts ] 

All times are UTC + 3 hours


Who is online

Users browsing this forum: No registered users and 2 guests


You cannot post new topics in this forum
You cannot reply to topics in this forum
You cannot edit your posts in this forum
You cannot delete your posts in this forum
You cannot post attachments in this forum

Search for:
Яндекс.Метрика
Powered by phpBB © 2000, 2002, 2005, 2007 phpBB Group