\m/ 80's metal \m/

Информационно-аналитический форум "80 см пыли" (In Search We Trust) "У нас никто никуда не спешит"
Me For You - http://me-4u.com
It is currently 31 Mar 2020

All times are UTC + 3 hours

Spoiler
Chat - temporary registration for foreign users (please leave your application here)





Forum rules


Image

Сюда складываем аудио рипы с магнитных лент...



Post new topic Reply to topic  [ 28 posts ]  Go to page 1, 2  Next
Author Message
 
PostPosted: 06 Aug 2019 
Рарник и трушник
User avatar
Joined: 25 Dec 2009
Posts: 9097
Lоcаtion: Москва
Age: 54
Name: Виталий
Tombstone (Italy)
Nagual (Demo) - 1993

Image

1. Fuck to police 07:27
2. Scent of Freedom 03:50
3. Springtime 03:58
4. The Grace 03:31
5. The Crevasse 05:33
6. To Be in Love 04:12
7. Trend of Passion 03:32
8. The Witchcraft 05:30

Type: Demo
Release date: 1993
Catalog ID: N/A
Label: Independent
Format: Cassette

Rick Tormento Bass
Rick Forsenna Vocals
Isma La Strega Guitars
Dany Drums

Image

Команда здесь играет слегка сыроватый и немного грубоватый, но неплохой спид-хеви-павер, всего понемногу. Раритет! Качество вполне себе неплохое.
Спасибо Диме church за кассету.

Flac 16/44: https://yadi.sk/d/VzjjLs0GLRUJIg


Top
 Profile  
 
 
PostPosted: 07 Aug 2019 
5-speed satisfactor
User avatar
Joined: 16 Feb 2009
Posts: 3853
Warnings: 1
Lоcаtion: New York, USA
Age: 41
Name: Leonid
:thanx:

А ты и не заливай, а отправь нам с Димой. Посмотрим будет ли интерес?

_________________
Death rules! Metal to all who oppose!


Top
 Profile  
 
 
PostPosted: 07 Aug 2019 
Рарник и трушник
User avatar
Joined: 25 Dec 2009
Posts: 9097
Lоcаtion: Москва
Age: 54
Name: Виталий
Умну аплинк очень плохешный, я качать люблю, а лить не люблю. :pardon:
Насчёт интереса - а какая разница? Щас время такое, что интереса нет к рокинроллу, тока к репу. Но мы-то ещё есть! :benya:
Тем паче, рип с кассеты, только ты да я из чифирщиков умеют головки крутить. :benya: Пусть будет.


Top
 Profile  
 
 
PostPosted: 28 Jan 2020 
Рарник и трушник
User avatar
Joined: 25 Dec 2009
Posts: 9097
Lоcаtion: Москва
Age: 54
Name: Виталий
Материал залит в качестве RAW (нечищенный), по просьбе Димы.
ЗЫ. У меня давление повышается от долгого сидения за компом, потому серьёзно ограничил очистные мероприятия. :pardon:


Top
 Profile  
 
 
PostPosted: 28 Jan 2020 
Работнечег
User avatar
Joined: 28 Aug 2007
Posts: 6195
Lоcаtion: г. Москва
Age: 31
Name: Дима
:thanx:
Здоровье важнее! Спасибо за рип!


Top
 Profile E-mail  
 
 
PostPosted: 28 Jan 2020 
Прокъмитолист
User avatar
Joined: 12 Aug 2007
Posts: 6697
Lоcаtion: Санктъ-Петербуркъ
Age: 52
Name: Олекъ
:thanx:

_________________
прокъметол - это музыко, от которово есть прок (ы)


Top
 Profile  
 
 
PostPosted: 28 Jan 2020 
Хиппей (support team)
User avatar
Joined: 30 Jul 2007
Posts: 118455
Lоcаtion: Киев (Kyiv, UA)
Age: 46
Name: Andrey
:thanx:

_________________


Top
 Profile E-mail  
 
 
PostPosted: 28 Jan 2020 
Хиппей (support team)
User avatar
Joined: 30 Jul 2007
Posts: 118455
Lоcаtion: Киев (Kyiv, UA)
Age: 46
Name: Andrey
Vitaly65 wrote:
Материал залит в качестве RAW (нечищенный), по просьбе Димы.

А первая ссылка была на какое качество? :scratch:

Vitaly65 wrote:
ЗЫ. У меня давление повышается от долгого сидения за компом, потому серьёзно ограничил очистные мероприятия.
:pardon:

А если брать ноутбук и лёжа работать?

_________________


Top
 Profile E-mail  
 
 
PostPosted: 28 Jan 2020 
спирт 100%
User avatar
Joined: 22 Sep 2008
Posts: 4526
Age: 48
Name: Саня
Спасибо! :thanx:


Top
 Profile  
 
 
PostPosted: 29 Jan 2020 
Рарник и трушник
User avatar
Joined: 25 Dec 2009
Posts: 9097
Lоcаtion: Москва
Age: 54
Name: Виталий
Scatterbrain wrote:
А первая ссылка была на какое качество? :scratch:

А её не было.
Щас и есть первая ссылка. :pardon:
Scatterbrain wrote:
А если брать ноутбук

А умну он и так взят. :pardon:
Scatterbrain wrote:
и лёжа работать?

Дык вить, давление в другую сторону скакнёт. :pardon:


Top
 Profile  
 
 
PostPosted: 29 Jan 2020 
Хиппей (support team)
User avatar
Joined: 30 Jul 2007
Posts: 118455
Lоcаtion: Киев (Kyiv, UA)
Age: 46
Name: Andrey
Vitaly65 wrote:
Щас и есть первая ссылка.

Ок, уже понял по второй теме, такой же =)

Vitaly65 wrote:
Дык вить, давление в другую сторону скакнёт.

С хреналь? :shok:
Выставь кровать, чтобы не было нагрузки на спину и всё.

_________________


Top
 Profile E-mail  
 
 
PostPosted: 31 Jan 2020 
Работнечег
User avatar
Joined: 28 Aug 2007
Posts: 6195
Lоcаtion: г. Москва
Age: 31
Name: Дима
Переименуйте только файлы в Tombstone - Nagual (Demo) Side A и Tombstone - Nagual (Demo) Side B

Tombstone - Nagual (Demo) Side A.СUE
PERFORMER "Tombstone"
TITLE "Nagual (Demo)"
FILE "Tombstone - Nagual (Demo) Side A.flac" WAVE
TRACK 01 AUDIO
TITLE "Fuck To Police"
PERFORMER "Tombstone"
INDEX 01 00:00:00
TRACK 02 AUDIO
TITLE "Scent of Freedom"
PERFORMER "Tombstone"
INDEX 01 07:37:00
TRACK 03 AUDIO
TITLE "Springtime"
PERFORMER "Tombstone"
INDEX 01 11:39:00
TRACK 04 AUDIO
TITLE "The Grace"
PERFORMER "Tombstone"
INDEX 01 15:50:00


Tombstone - Nagual (Demo) Side B.СUE
PERFORMER "Tombstone"
TITLE "Nagual (Demo)"
FILE "Tombstone - Nagual (Demo) Side B.flac" WAVE
TRACK 01 AUDIO
TITLE "The Crevasse"
PERFORMER "Tombstone"
INDEX 01 00:00:00
TRACK 02 AUDIO
TITLE "To Be In Love"
PERFORMER "Tombstone"
INDEX 01 05:45:00
TRACK 03 AUDIO
TITLE "Trend Of Passion"
PERFORMER "Tombstone"
INDEX 01 10:08:00
TRACK 04 AUDIO
TITLE "The Witchcraft"
PERFORMER "Tombstone"
INDEX 01 13:51:00


Довольно середняковая демка получилась, вроде всё неплохо, но особо запоминающихся песен нет, больше для коллекции :smile: Виталию еще раз спасибо!


Top
 Profile E-mail  
 
 
PostPosted: 31 Jan 2020 
Прокъмитолист
User avatar
Joined: 12 Aug 2007
Posts: 6697
Lоcаtion: Санктъ-Петербуркъ
Age: 52
Name: Олекъ
church
Димк, лучше вот так:

Tombstone - Nagual (Demo).cue
Code:
REM GENRE "Heavy Metal"
REM DATE 1993
PERFORMER "Tombstone"
TITLE "Nagual (Demo)"
FILE "Side_A.flac" WAVE
  TRACK 01 AUDIO
    TITLE "Fuck To Police"
    PERFORMER "Tombstone"
    INDEX 01 00:00:00
  TRACK 02 AUDIO
    TITLE "Scent Of Freedom"
    PERFORMER "Tombstone"
    INDEX 01 07:37:00
  TRACK 03 AUDIO
    TITLE "Springtime"
    PERFORMER "Tombstone"
    INDEX 01 11:39:00
  TRACK 04 AUDIO
    TITLE "The Grace"
    PERFORMER "Tombstone"
    INDEX 01 15:50:00
FILE "Side_B.flac" WAVE
  TRACK 05 AUDIO
    TITLE "The Crevasse"
    PERFORMER "Tombstone"
    INDEX 01 00:00:00
  TRACK 06 AUDIO
    TITLE "To Be In Love"
    PERFORMER "Tombstone"
    INDEX 01 05:45:00
  TRACK 07 AUDIO
    TITLE "Trend Of Passion"
    PERFORMER "Tombstone"
    INDEX 01 10:08:00
  TRACK 08 AUDIO
    TITLE "The Witchcraft"
    PERFORMER "Tombstone"
    INDEX 01 13:51:00

_________________
прокъметол - это музыко, от которово есть прок (ы)


Top
 Profile  
 
 
PostPosted: 01 Feb 2020 
Хиппей (support team)
User avatar
Joined: 30 Jul 2007
Posts: 118455
Lоcаtion: Киев (Kyiv, UA)
Age: 46
Name: Andrey
spiralarch wrote:
Tombstone - Nagual (Demo).cue

:thanx:

_________________


Top
 Profile E-mail  
 
 
PostPosted: 03 Feb 2020 
Работнечег
User avatar
Joined: 28 Aug 2007
Posts: 6195
Lоcаtion: г. Москва
Age: 31
Name: Дима
church
Димк, лучше вот так:

Tombstone - Nagual (Demo).cue
Code:
REM GENRE "Heavy Metal"
REM DATE 1993
PERFORMER "Tombstone"
TITLE "Nagual (Demo)"
FILE "Side_A.flac" WAVE
  TRACK 01 AUDIO
    TITLE "Fuck To Police"
    PERFORMER "Tombstone"
    INDEX 01 00:00:00
  TRACK 02 AUDIO
    TITLE "Scent Of Freedom"
    PERFORMER "Tombstone"
    INDEX 01 07:37:00
  TRACK 03 AUDIO
    TITLE "Springtime"
    PERFORMER "Tombstone"
    INDEX 01 11:39:00
  TRACK 04 AUDIO
    TITLE "The Grace"
    PERFORMER "Tombstone"
    INDEX 01 15:50:00
FILE "Side_B.flac" WAVE
  TRACK 05 AUDIO
    TITLE "The Crevasse"
    PERFORMER "Tombstone"
    INDEX 01 00:00:00
  TRACK 06 AUDIO
    TITLE "To Be In Love"
    PERFORMER "Tombstone"
    INDEX 01 05:45:00
  TRACK 07 AUDIO
    TITLE "Trend Of Passion"
    PERFORMER "Tombstone"
    INDEX 01 10:08:00
  TRACK 08 AUDIO
    TITLE "The Witchcraft"
    PERFORMER "Tombstone"
    INDEX 01 13:51:00

Согласен, спасибо! :thanx:


Top
 Profile E-mail  
 
 
PostPosted: 04 Feb 2020 
Рарник и трушник
User avatar
Joined: 25 Dec 2009
Posts: 9097
Lоcаtion: Москва
Age: 54
Name: Виталий
Как вы это делаете? Я до сих пор не умею делать разбивки (метки с куем) на едином файле. Я его режу на треки, и тока потом делаю лося с куем. :fingal:


Top
 Profile  
 
 
PostPosted: 04 Feb 2020 
Прокъмитолист
User avatar
Joined: 12 Aug 2007
Posts: 6697
Lоcаtion: Санктъ-Петербуркъ
Age: 52
Name: Олекъ
Виталь, ну, как я понимаю, Димка просто "на глаз" выставил метки окончания/начала треков (в куе видно, что сделано это с точностью до секунды). а я просто слепил два куя в один.

_________________
прокъметол - это музыко, от которово есть прок (ы)


Top
 Profile  
 
 
PostPosted: 04 Feb 2020 
Работнечег
User avatar
Joined: 28 Aug 2007
Posts: 6195
Lоcаtion: г. Москва
Age: 31
Name: Дима
Ну да, есть ли способ выставлять по милисекундам я не знаю, и насколько это нужно так точно делать, тоже большой вопрос


Top
 Profile E-mail  
 
 
PostPosted: 04 Feb 2020 
Прокъмитолист
User avatar
Joined: 12 Aug 2007
Posts: 6697
Lоcаtion: Санктъ-Петербуркъ
Age: 52
Name: Олекъ
Дим, если порезать файл по кую, и при этом все порежется нормально (конец трека не отрежется или наоборот - начало), то все сделал правильно. я не проверял, но думаю, что все окей )

_________________
прокъметол - это музыко, от которово есть прок (ы)


Top
 Profile  
 
 
PostPosted: 04 Feb 2020 
Рарник и трушник
User avatar
Joined: 25 Dec 2009
Posts: 9097
Lоcаtion: Москва
Age: 54
Name: Виталий
Скан вкладыша кассеты подгрузил. :pardon:


Top
 Profile  
 
Display posts from previous:  Sort by  
Post new topic Reply to topic  [ 28 posts ]  Go to page 1, 2  Next

All times are UTC + 3 hours


Who is online

Users browsing this forum: No registered users and 1 guest


You cannot post new topics in this forum
You cannot reply to topics in this forum
You cannot edit your posts in this forum
You cannot delete your posts in this forum
You cannot post attachments in this forum

Search for:
Яндекс.Метрика
cron
Powered by phpBB © 2000, 2002, 2005, 2007 phpBB Group