\m/ 80's metal \m/

Информационно-аналитический форум "80 см пыли" (In Search We Trust) "У нас никто никуда не спешит"
Me For You - http://me-4u.com
It is currently 08 Apr 2020

All times are UTC + 3 hours

Spoiler
Chat - temporary registration for foreign users (please leave your application here)





Forum rules


Image

Сюда складываем аудио рипы с магнитных лент...



Post new topic Reply to topic  [ 7 posts ] 
Author Message
 
PostPosted: 06 Aug 2019 
Рарник и трушник
User avatar
Joined: 25 Dec 2009
Posts: 9099
Lоcаtion: Москва
Age: 54
Name: Виталий
W.O.M.P. (Watts Of Music Power)
Can You Hear Me? (Demo)
Image

Image

01. Can You Hear Me?
02. Layla
03. Papers Concience
04. Hurricane

Lory Bruno - Guitars
Zendo Melo - Guitars
Anna Fabbri - Vocals
Wish Golin - Bass
Roberto Forlini - Drums

Метал-музыка с женским вокалом - настоящее музыкальное сокровище!
Можно найти потрясающий женский вокал в таких поджанрах металла, как хеви-метал, пауэр-метал, прогрессивный металл и даже в дэт-или блэк-метал.
Но Thrash Metal с женским вокалом - явление довольно редкое.
Итак, это фантастическая трэш-метал группа из Монтегаббионе, Терни, Италия.
Эта группа была основана в 1990 году благодаря усилиям великой женщины-гитариста Лори Бруно.
Группа определяет свой собственный музыкальный стиль как Thrash-Tribal-Noise-Metal.
Эта группа является одной из немногих, которая исполняет превосходный Thrash Metal с женским фронтальным вокалом.


Спасибо Диме church за кассету.
Flac 16/44: https://yadi.sk/d/iMP6taII8WZ5iA


Top
 Profile  
 
 
PostPosted: 06 Aug 2019 
Partisanen - nicht kapitulieren!!
User avatar
Joined: 25 Dec 2011
Posts: 7321
Lоcаtion: партизанские леса
Age: 47
Name: Владимир
картинки не видны... :( :vic:
Image

_________________
One more beer and Heavy Metal and I'm just fine!
старовер, куле... слово "блин" - до сих пор через Ъ говорю


Top
 Profile E-mail  
 
 
PostPosted: 08 Aug 2019 
консэрваторъ
User avatar
Joined: 11 Aug 2007
Posts: 17582
Lоcаtion: Псков
Age: 46
Name: Сергей
Уже видны...
По группе в сети инфы почти ноль... :vic:

W.O.M.P (Watts Of Music Power) - Madness Manipulators. (1994) | +

Здесь чистый прог-нойз (с вокалом через примочку)... :scratch:
Vitaly65 wrote:
превосходный Thrash Metal

Виталий, извини, но при всём уважение... :oops:

_________________
THRASH 'EM ALL


Top
 Profile E-mail  
 
 
PostPosted: 08 Aug 2019 
Рарник и трушник
User avatar
Joined: 25 Dec 2009
Posts: 9099
Lоcаtion: Москва
Age: 54
Name: Виталий
splatty wrote:
Виталий, извини, но при всём уважение...

Серёг, ничего. Во-первых, это не я там играю и пою. Во-вторых слямзил рецензию там же, где ты видос нашёл, гугель так оттранслейтил. :pardon:
Определим стиль точнее, когда залью и послушаешь. :pardon:


Top
 Profile  
 
 
PostPosted: 28 Jan 2020 
Рарник и трушник
User avatar
Joined: 25 Dec 2009
Posts: 9099
Lоcаtion: Москва
Age: 54
Name: Виталий
Материал залит в качестве RAW (нечищенный), по просьбе Димы.


Top
 Profile  
 
 
PostPosted: 28 Jan 2020 
Работнечег
User avatar
Joined: 28 Aug 2007
Posts: 6197
Lоcаtion: г. Москва
Age: 31
Name: Дима
По музыке это оказался хэви, рип отличный. Для такого ноунэйма музыка неплохая, женский вокал вполне неплох, музыка бодрая, хорошие соляки :true: Больше всего понравились первая и последние песни.

Окуёвил данный релиз:
CUE
PERFORMER "W.O.M.P."
TITLE "Can You Hear Me"
FILE "W.O.M.P. - Can You Hear Me.flac" WAVE
TRACK 01 AUDIO
TITLE "Can You Hear Me"
PERFORMER "W.O.M.P."
INDEX 01 00:00:00
TRACK 02 AUDIO
TITLE "Layla"
PERFORMER "W.O.M.P."
INDEX 01 03:04:00
TRACK 03 AUDIO
TITLE "Papers Concience"
PERFORMER "W.O.M.P."
INDEX 01 07:37:00
TRACK 04 AUDIO
TITLE "Hurricane"
PERFORMER "W.O.M.P."
INDEX 01 12:24:00


Top
 Profile E-mail  
 
 
PostPosted: 28 Jan 2020 
Прокъмитолист
User avatar
Joined: 12 Aug 2007
Posts: 6698
Lоcаtion: Санктъ-Петербуркъ
Age: 52
Name: Олекъ
:thanx:

_________________
прокъметол - это музыко, от которово есть прок (ы)


Top
 Profile  
 
Display posts from previous:  Sort by  
Post new topic Reply to topic  [ 7 posts ] 

All times are UTC + 3 hours


Who is online

Users browsing this forum: No registered users and 1 guest


You cannot post new topics in this forum
You cannot reply to topics in this forum
You cannot edit your posts in this forum
You cannot delete your posts in this forum
You cannot post attachments in this forum

Search for:
Яндекс.Метрика
cron
Powered by phpBB © 2000, 2002, 2005, 2007 phpBB Group