\m/ 80's metal \m/

Информационно-аналитический форум "80 см пыли" (In Search We Trust) "У нас никто никуда не спешит"
Me For You - http://me-4u.com
It is currently 23 Sep 2018

All times are UTC + 3 hours

Spoiler
Chat - temporary registration for foreign users (please leave your application here)





Forum rules


Image

Сюда складываем аудио рипы с магнитных лент...



Post new topic Reply to topic  [ 59 posts ]  Go to page Previous  1, 2, 3  Next
Author Message
 
PostPosted: 08 Oct 2017 
Рарник и трушник
User avatar
Joined: 25 Dec 2009
Posts: 8063
Lоcаtion: Москва
Age: 53
Name: Виталий
Curare (Germany)
Accident on a Dancefloor Demo
Image
Country of origin: Germany
Location: Konstanz, Baden-Württemberg
Status: Split-up
Formed in: 1989
Genre: Thrash Metal (with death-metal influence)

Side A
1. Peaceeater
2. Imperfect Personality
3. Another Nice Song
Side B
4. Mr.Nice
5. Wrong Side of Civilization
6. Spill Your Mask
7. I.O.U. *

Recorded in January 1994.
Type: Demo
Release date: 1994
Catalog ID: N/A
Label: Independent
Format: Cassette

Robby Schmid - Guitars (ex-Wicca)
Ralf Winzer Garcia - Bass
Marco Gregor - Vocals (lead)
Martin Schlegel - Guitars
Frank Crivellari - Drums

Оцифровано с кассеты по просьбе Димы church.
https://yadi.sk/d/F1xH7O9D3NaFPK

PS. Не слышал поздних альбомов группы, но термин "мелодик трэш-метал", как написано на метал-архивах, к этому демо не применим.

ImageImage


Last edited by Vitaly65 on 08 Nov 2017, edited 1 time in total.

Top
 Profile  
 
 
PostPosted: 26 Oct 2017 
Хиппей (support team)
User avatar
Joined: 30 Jul 2007
Posts: 106473
Lоcаtion: Киев (Kyiv, UA)
Age: 45
Name: Andrey
Curare - 1991 - Just A Scratch (EP) [flac]

ImageImage

mirror: Depos l Narod l M-Cloud l Drop

Image Image

Норм миник. Ранее группа играла чуть более весёлую и понятную музычку :meloman:
Heavy-Thrash тоже, но пока ещё без хардкоровых заметных сбивок.

6+/10

log
Exact Audio Copy V0.99 prebeta 5 from 4. May 2009

EAC extraction logfile from 29. January 2010, 20:31

CURARE / Just a scratch

Used drive : PIONEER DVD-RW DVR-215 Adapter: 7 ID: 3

Read mode : Secure
Utilize accurate stream : Yes
Defeat audio cache : Yes
Make use of C2 pointers : No

Read offset correction : 48
Overread into Lead-In and Lead-Out : No
Fill up missing offset samples with silence : Yes
Delete leading and trailing silent blocks : No
Null samples used in CRC calculations : No
Used interface : Native Win32 interface for Win NT & 2000

Used output format : Internal WAV Routines
Sample format : 44.100 Hz; 16 Bit; Stereo


TOC of the extracted CD

Track | Start | Length | Start sector | End sector
---------------------------------------------------------
1 | 0:00.33 | 6:48.15 | 33 | 30647
2 | 6:48.48 | 7:17.20 | 30648 | 63442
3 | 14:05.68 | 6:17.00 | 63443 | 91717
4 | 20:22.68 | 6:12.05 | 91718 | 119622


Range status and errors

Selected range

Filename F:\EAC WORK\TEST COMPARATIVO\CURARE - Just a scratch.wav

Peak level 96.4 %
Range quality 100.0 %
Copy CRC 781689C3
Copy OK

No errors occurred


AccurateRip summary

Track 1 not present in database
Track 2 not present in database
Track 3 not present in database
Track 4 not present in database

None of the tracks are present in the AccurateRip database

End of status report

------------------------------------------------------------

Exact Audio Copy V0.99 prebeta 5 from 4. May 2009

EAC extraction logfile from 31. January 2010, 12:38

CURARE / Just a scratch

Used drive : PLEXTOR BD-R PX-B940SA Adapter: 7 ID: 2

Read mode : Secure
Utilize accurate stream : Yes
Defeat audio cache : Yes
Make use of C2 pointers : No

Read offset correction : 667
Overread into Lead-In and Lead-Out : No
Fill up missing offset samples with silence : Yes
Delete leading and trailing silent blocks : No
Null samples used in CRC calculations : Yes
Used interface : Native Win32 interface for Win NT & 2000

Used output format : Internal WAV Routines
Sample format : 44.100 Hz; 16 Bit; Stereo


TOC of the extracted CD

Track | Start | Length | Start sector | End sector
---------------------------------------------------------
1 | 0:00.33 | 6:48.15 | 33 | 30647
2 | 6:48.48 | 7:17.20 | 30648 | 63442
3 | 14:05.68 | 6:17.00 | 63443 | 91717
4 | 20:22.68 | 6:12.05 | 91718 | 119622


Range status and errors

Selected range

Copy aborted

End of status report

cue
REM DATE 1991
REM DISCID 23063A04
REM COMMENT "ExactAudioCopy v0.99pb5"
PERFORMER "CURARE"
TITLE "Just a scratch"
FILE "CURARE - Just a scratch.flac" WAVE
TRACK 01 AUDIO
TITLE "Generations talk"
PERFORMER "CURARE"
INDEX 00 00:00:00
INDEX 01 00:00:33
TRACK 02 AUDIO
TITLE "Place and time"
PERFORMER "CURARE"
INDEX 00 06:47:10
INDEX 01 06:48:48
TRACK 03 AUDIO
TITLE "Distrust a change"
PERFORMER "CURARE"
INDEX 00 14:04:15
INDEX 01 14:05:68
TRACK 04 AUDIO
TITLE "Fabula de antigua hora"
PERFORMER "CURARE"
INDEX 00 20:21:16
INDEX 01 20:22:68

_________________


Top
 Profile E-mail  
 
 
PostPosted: 26 Oct 2017 
Хиппей (support team)
User avatar
Joined: 30 Jul 2007
Posts: 106473
Lоcаtion: Киев (Kyiv, UA)
Age: 45
Name: Andrey
Теперь встал :ok: вопрос - делить топик на всю дискографию и отдельно тему по рипу с кассеты? :cry:

_________________


Top
 Profile E-mail  
 
 
PostPosted: 26 Oct 2017 
Хиппей (support team)
User avatar
Joined: 30 Jul 2007
Posts: 106473
Lоcаtion: Киев (Kyiv, UA)
Age: 45
Name: Andrey
По ходу, и дальше группа не сильно изменила стилистику, лишь чутка добавив грувастости незначительной и ещё больше хардкоровости :kro:

CURARE - Moments before Detonation 1995 album - track 1. - Raw Conversation | +

_________________


Top
 Profile E-mail  
 
 
PostPosted: 26 Oct 2017 
консэрваторъ
Joined: 11 Aug 2007
Posts: 15919
Lоcаtion: Псков
Age: 44
Name: Сергей
Scatterbrain wrote:
вопрос - делить топик на всю дискографию и отдельно тему по рипу с кассеты

Ты шо... одна группа - одна тема!.. :oldman:

_________________
THRASH 'EM ALL


Top
 Profile E-mail  
 
 
PostPosted: 26 Oct 2017 
Хиппей (support team)
User avatar
Joined: 30 Jul 2007
Posts: 106473
Lоcаtion: Киев (Kyiv, UA)
Age: 45
Name: Andrey
Scatterbrain wrote:
вопрос - делить топик на всю дискографию и отдельно тему по рипу с кассеты

Ты шо... одна группа - одна тема!.. :oldman:

Не, никак нет. Нельзя куриц не делить на несушек и наседок :nea:

Винил-рипы и кассетные идут всё же отдельно :dance:
Ещё явно у нас тута и бобинные появятся :kro:
Ну а в общей теме, которая будет в "Бухте", уже кроспостингами будут указаны ссылки на такие рипы :pardon:

_________________


Top
 Profile E-mail  
 
 
PostPosted: 26 Oct 2017 
Рарник и трушник
User avatar
Joined: 25 Dec 2009
Posts: 8063
Lоcаtion: Москва
Age: 53
Name: Виталий
Правильно! :lob:


Top
 Profile  
 
 
PostPosted: 27 Oct 2017 
Хиппей (support team)
User avatar
Joined: 30 Jul 2007
Posts: 106473
Lоcаtion: Киев (Kyiv, UA)
Age: 45
Name: Andrey
Curare - Generations Talk

Первый трэк с миника очень порадовал. Некая помесь в дуже ранних Rage и спокойного варианта Kreator'a :meloman: :lob: :lob: :lob:

Позже залью на ютуб, а то его там нет и это срамота.


зы. Кто-то может подсказать мелкую софтинку по созданию видео из картинок и мп3? :cry:

_________________


Top
 Profile E-mail  
 
 
PostPosted: 06 Nov 2017 
Работнечег
User avatar
Joined: 28 Aug 2007
Posts: 5409
Lоcаtion: г. Москва
Age: 29
Name: Дима
Curare - Just A Scratch EP (1991)

Image

Label: Rail Records
Genre: Thrash Metal
Country: Germany
Format: Flac + Log + Cue + Covers
Size: 200 Mb

Line-Up:
Robby Schmid - Guitars
Mario Schmid - Drums
Martin Schlegel - Guitars
Falk Dirla - Vocals, Bass


Tracklist:
1. Generations Talk 06:48
2. Place and Time 07:17
3. Distrust a Change 06:17
4. Fabula de Antigua Hora 06:12

LOG
Exact Audio Copy V0.99 prebeta 5 from 4. May 2009

EAC extraction logfile from 25. October 2017, 21:21

Curare / Just A Scratch EP

Used drive : PIONEER DVD-RW DVR-221 Adapter: 2 ID: 1

Read mode : Secure
Utilize accurate stream : Yes
Defeat audio cache : Yes
Make use of C2 pointers : No

Read offset correction : 6
Overread into Lead-In and Lead-Out : No
Fill up missing offset samples with silence : Yes
Delete leading and trailing silent blocks : No
Null samples used in CRC calculations : Yes
Used interface : Native Win32 interface for Win NT & 2000

Used output format : User Defined Encoder
Selected bitrate : 32 kBit/s
Quality : High
Add ID3 tag : No
Command line compressor : C:\Program Files\Exact Audio Copy\Flac\flac.exe
Additional command line options : -6 -V %s


TOC of the extracted CD

Track | Start | Length | Start sector | End sector
---------------------------------------------------------
1 | 0:00.33 | 6:48.15 | 33 | 30647
2 | 6:48.48 | 7:17.20 | 30648 | 63442
3 | 14:05.68 | 6:17.00 | 63443 | 91717
4 | 20:22.68 | 6:12.05 | 91718 | 119622


Range status and errors

Selected range

Filename D:\Музыка\Lossless\Curare - Just A Scratch EP (1991)\Curare - Just A Scratch EP.wav

Peak level 96.4 %
Range quality 99.9 %
Copy CRC 5F3F22F9
Copy OK

No errors occurred


AccurateRip summary

Track 1 cannot be verified as accurate (confidence 2) [3C8945A7], AccurateRip returned [FB5A6C71]
Track 2 cannot be verified as accurate (confidence 2) [B056EC78], AccurateRip returned [4C9A1CA1]
Track 3 cannot be verified as accurate (confidence 2) [B1475596], AccurateRip returned [22135CDD]
Track 4 cannot be verified as accurate (confidence 2) [ABCBDB90], AccurateRip returned [B2FB7B63]

No tracks could be verified as accurate
You may have a different pressing from the one(s) in the database

End of status report

CUE
REM GENRE "Thrash Metal"
REM DATE 1991
REM DISCID 23063A04
REM COMMENT "ExactAudioCopy v0.99pb5"
PERFORMER "Curare"
TITLE "Just A Scratch EP"
FILE "Curare - Just A Scratch EP.flac" WAVE
TRACK 01 AUDIO
TITLE "Generations Talk"
PERFORMER "Curare"
INDEX 00 00:00:00
INDEX 01 00:00:33
TRACK 02 AUDIO
TITLE "Place And Time"
PERFORMER "Curare"
INDEX 00 06:47:10
INDEX 01 06:48:48
TRACK 03 AUDIO
TITLE "Distrust A Change"
PERFORMER "Curare"
INDEX 00 14:04:15
INDEX 01 14:05:68
TRACK 04 AUDIO
TITLE "Fabula De Antigua Hora"
PERFORMER "Curare"
INDEX 00 20:21:15
INDEX 01 20:22:68


Yadi

Собственно Андрюха уже выкладывал рип с трекера, но я еще до этого рипнул, решил выложить, пусть будет 2 варианта, заодно и послушал сам :true:
Продолжение следует..


Top
 Profile E-mail  
 
 
PostPosted: 06 Nov 2017 
Прокъмитолист
User avatar
Joined: 12 Aug 2007
Posts: 6472
Lоcаtion: Санктъ-Петербуркъ
Age: 50
Name: Олекъ
:thanx:

_________________
прокъметол - это музыко, от которово есть прок (ы)


Top
 Profile  
 
 
PostPosted: 06 Nov 2017 
Хиппей (support team)
User avatar
Joined: 30 Jul 2007
Posts: 106473
Lоcаtion: Киев (Kyiv, UA)
Age: 45
Name: Andrey
:thanx:

_________________


Top
 Profile E-mail  
 
 
PostPosted: 06 Nov 2017 
Хиппей (support team)
User avatar
Joined: 30 Jul 2007
Posts: 106473
Lоcаtion: Киев (Kyiv, UA)
Age: 45
Name: Andrey
Дим, а я темы слеплю затем, ага?

_________________


Top
 Profile E-mail  
 
 
PostPosted: 06 Nov 2017 
Работнечег
User avatar
Joined: 28 Aug 2007
Posts: 5409
Lоcаtion: г. Москва
Age: 29
Name: Дима
Если хочешь, то слепляй. Я просто так понял единого мнения в одном топике делать или нет, не было, поэтому решил отдельной сделать, а так всё равно.


Top
 Profile E-mail  
 
 
PostPosted: 06 Nov 2017 
Хиппей (support team)
User avatar
Joined: 30 Jul 2007
Posts: 106473
Lоcаtion: Киев (Kyiv, UA)
Age: 45
Name: Andrey
church wrote:
Я просто так понял единого мнения в одном топике делать или нет, не было, поэтому решил отдельной сделать, а так всё равно.

Дим, по лосям с диска единая тема, по кассетным рипам и по винилам - тоже по каждой теме по группе. И по видео отдельная тема (запросы и анонсы). Так же в МузОборзе ещё тема с ревьюшками и новостями А если, вдруг, группа заиграет трэш.. то тогда спрашивай у Серёги, что будет дальше :crazy:

Вот Кураре на данной минике играет почти трэш, давай теперь понаблюдаем, куда твоя тема уйдём дальше? :tro:

_________________


Top
 Profile E-mail  
 
 
PostPosted: 07 Nov 2017 
консэрваторъ
Joined: 11 Aug 2007
Posts: 15919
Lоcаtion: Псков
Age: 44
Name: Сергей
church wrote:
а так всё равно

Тогда пока вливаю в эту, а дальше посмотрим...

_________________
THRASH 'EM ALL


Top
 Profile E-mail  
 
 
PostPosted: 08 Nov 2017 
Рарник и трушник
User avatar
Joined: 25 Dec 2009
Posts: 8063
Lоcаtion: Москва
Age: 53
Name: Виталий
Добавил сканы кассетные демки. :pardon:


Top
 Profile  
 
 
PostPosted: 08 Nov 2017 
Хиппей (support team)
User avatar
Joined: 30 Jul 2007
Posts: 106473
Lоcаtion: Киев (Kyiv, UA)
Age: 45
Name: Andrey
Добавил сканы кассетные демки. :pardon:

:thanx:

_________________


Top
 Profile E-mail  
 
 
PostPosted: 11 Nov 2017 
Работнечег
User avatar
Joined: 28 Aug 2007
Posts: 5409
Lоcаtion: г. Москва
Age: 29
Name: Дима
Спасибо за коврики! :thanx: Рипнул 1995, скоро будет.


Top
 Profile E-mail  
 
 
PostPosted: 22 Nov 2017 
Работнечег
User avatar
Joined: 28 Aug 2007
Posts: 5409
Lоcаtion: г. Москва
Age: 29
Name: Дима
Curare - Moments Before Detonation (1995)

Image

Label: Independent
Genre: Thrash Metal with Hardcore influence
Country: Germany
Format: Flac + Log + Cue + Covers
Size: 330 Mb

Line-Up:
Robby Schmid - Guitars (Salvation of Suffer, Wicca, ex-Public Code)
Sascha Kaisler - Drums (ex-Co:ßmik)
Ralf Winzer Garcia - Bass (Poltergeist, Requiem, Wolf Counsel, Piranha (live), ex-Uppercut, Neolithic Regression, Scopeshow, ex-Arise, ex-Bonedust, ex-Tinta Leal, ex-Wildsoar)
Marco Gregor - Vocals (ex-Public Code, ex-Introit)


Tracklist:
1. Raw Conversation 04:16
2. Inside My Head 03:49
3. Push! 04:23
4. Accident Dance 02:56
5. What's Up Now? 02:23
6. The Death Waltz 01:16
7. Moments Before Detonation 04:38
8. Violence & Force (Exciter cover) 04:04
9. Bumble Bee 04:38
10. Peaceeater 10:47

LOG
Exact Audio Copy V0.99 prebeta 5 from 4. May 2009

EAC extraction logfile from 11. November 2017, 16:54

Curare / Moments Before Detonation

Used drive : PIONEER DVD-RW DVR-221 Adapter: 2 ID: 1

Read mode : Secure
Utilize accurate stream : Yes
Defeat audio cache : Yes
Make use of C2 pointers : No

Read offset correction : 6
Overread into Lead-In and Lead-Out : No
Fill up missing offset samples with silence : Yes
Delete leading and trailing silent blocks : No
Null samples used in CRC calculations : Yes
Used interface : Native Win32 interface for Win NT & 2000

Used output format : User Defined Encoder
Selected bitrate : 32 kBit/s
Quality : High
Add ID3 tag : No
Command line compressor : C:\Program Files\Exact Audio Copy\Flac\flac.exe
Additional command line options : -6 -V %s


TOC of the extracted CD

Track | Start | Length | Start sector | End sector
---------------------------------------------------------
1 | 0:00.00 | 4:20.29 | 0 | 19528
2 | 4:20.29 | 3:21.64 | 19529 | 34667
3 | 7:42.18 | 4:24.35 | 34668 | 54502
4 | 12:06.53 | 3:00.29 | 54503 | 68031
5 | 15:07.07 | 2:26.28 | 68032 | 79009
6 | 17:33.35 | 1:16.43 | 79010 | 84752
7 | 18:50.03 | 4:40.65 | 84753 | 105817
8 | 23:30.68 | 4:09.16 | 105818 | 124508
9 | 27:40.09 | 4:41.68 | 124509 | 145651
10 | 32:22.02 | 11:42.18 | 145652 | 198319


Range status and errors

Selected range

Filename D:\Музыка\Lossless\Curare - Moments Before Detonation (1995)\Curare - Moments Before Detonation.wav

Peak level 100.0 %
Range quality 100.0 %
Copy CRC E69417BE
Copy OK

No errors occurred


AccurateRip summary

Track 1 cannot be verified as accurate (confidence 2) [A334D5C6], AccurateRip returned [65233AC8]
Track 2 cannot be verified as accurate (confidence 2) [B7294BC9], AccurateRip returned [CCA4E984]
Track 3 cannot be verified as accurate (confidence 2) [6FD52882], AccurateRip returned [DC13F531]
Track 4 cannot be verified as accurate (confidence 2) [031E3910], AccurateRip returned [62C0B6A3]
Track 5 cannot be verified as accurate (confidence 2) [6D904362], AccurateRip returned [36EBCEEC]
Track 6 cannot be verified as accurate (confidence 2) [1FFDA7EF], AccurateRip returned [BFCC2898]
Track 7 cannot be verified as accurate (confidence 2) [40AE24BB], AccurateRip returned [13BA36A2]
Track 8 cannot be verified as accurate (confidence 2) [EB160D95], AccurateRip returned [AEAAF726]
Track 9 cannot be verified as accurate (confidence 2) [EC269067], AccurateRip returned [15116415]
Track 10 cannot be verified as accurate (confidence 2) [B7C11874], AccurateRip returned [742E5D8B]

No tracks could be verified as accurate
You may have a different pressing from the one(s) in the database

End of status report

CUE
REM GENRE "Thrash Metal"
REM DATE 1996
REM DISCID 780A540A
REM COMMENT "ExactAudioCopy v0.99pb5"
PERFORMER "Curare"
TITLE "Moments Before Detonation"
FILE "Curare - Moments Before Detonation.flac" WAVE
TRACK 01 AUDIO
TITLE "Raw Conversation"
PERFORMER "Curare"
INDEX 01 00:00:00
TRACK 02 AUDIO
TITLE "Inside My Head"
PERFORMER "Curare"
INDEX 00 04:18:29
INDEX 01 04:20:29
TRACK 03 AUDIO
TITLE "Push!"
PERFORMER "Curare"
INDEX 00 07:40:18
INDEX 01 07:42:18
TRACK 04 AUDIO
TITLE "Accident Dance"
PERFORMER "Curare"
INDEX 00 12:04:53
INDEX 01 12:06:53
TRACK 05 AUDIO
TITLE "What's Up Now"
PERFORMER "Curare"
INDEX 00 15:05:07
INDEX 01 15:07:07
TRACK 06 AUDIO
TITLE "The Death Waltz"
PERFORMER "Curare"
INDEX 00 17:31:35
INDEX 01 17:33:35
TRACK 07 AUDIO
TITLE "Moments Before Detonation"
PERFORMER "Curare"
INDEX 01 18:50:03
TRACK 08 AUDIO
TITLE "Violence & Force"
PERFORMER "Curare"
INDEX 00 23:28:68
INDEX 01 23:30:68
TRACK 09 AUDIO
TITLE "Bumble Bee"
PERFORMER "Curare"
INDEX 00 27:38:09
INDEX 01 27:40:09
TRACK 10 AUDIO
TITLE "Peaceeater"
PERFORMER "Curare"
INDEX 00 32:20:02
INDEX 01 32:22:02


Yadi


Top
 Profile E-mail  
 
 
PostPosted: 23 Nov 2017 
Прокъмитолист
User avatar
Joined: 12 Aug 2007
Posts: 6472
Lоcаtion: Санктъ-Петербуркъ
Age: 50
Name: Олекъ
:thanx:

_________________
прокъметол - это музыко, от которово есть прок (ы)


Top
 Profile  
 
 
PostPosted: 23 Nov 2017 
Хиппей (support team)
User avatar
Joined: 30 Jul 2007
Posts: 106473
Lоcаtion: Киев (Kyiv, UA)
Age: 45
Name: Andrey
:thanx:

_________________


Top
 Profile E-mail  
 
Display posts from previous:  Sort by  
Post new topic Reply to topic  [ 59 posts ]  Go to page Previous  1, 2, 3  Next

All times are UTC + 3 hours


Who is online

Users browsing this forum: No registered users and 1 guest


You cannot post new topics in this forum
You cannot reply to topics in this forum
You cannot edit your posts in this forum
You cannot delete your posts in this forum
You cannot post attachments in this forum

Search for:
Яндекс.Метрика
Powered by phpBB © 2000, 2002, 2005, 2007 phpBB Group