\m/ 80's metal \m/

Информационно-аналитический форум "80 см пыли" (In Search We Trust) "У нас никто никуда не спешит"
Me For You - http://me-4u.com
It is currently 18 Dec 2018

All times are UTC + 3 hours

Spoiler
Chat - temporary registration for foreign users (please leave your application here)







Post new topic Reply to topic  [ 13 posts ] 
Author Message
 
PostPosted: 06 Apr 2010 
хард н хэвщик (support team)
User avatar
Joined: 02 Jun 2008
Posts: 16880
Lоcаtion: Н.Новгород
Age: 31
Name: Артем
UNDERGROUND OUTLAWS - 1993 - S/T

Image


* 1. I Miss The Old You (3:04)
* 2. Put A Little Distance (3:49)
* 3. Tonky Honkin' (3:24)
* 4. Daddy's Little Girl (3:43)
* 5. It'll Be All Right (4:44)
* 6. Leave The Past Behind (3:44)
* 7. Backseat Driver (4:11)
* 8. Silver Lining (3:37)
* 9. (you Are) My Best Friend (3:36)
* 10. Restless (3:58)
* 11. I Drink To Forget (2:08)

Quote:
The line-up of Cory and Kevin Churko, Mike Norman and Shane Hendrickson released two CDs in 1993, one as The Explorers (We Always Want) and one as these guys: Underground Outlaws. Where the Explorers fused big stadium choruses a la Def Leppard and Bryan Adams, the Underground Outlaws were an honest mix of "Wanted Dead or Alive" Bon Jovi and "Every Rose Has Its Thorn" Poison with some more traditional southern elements. The song "Daddy's Little Girl" is a perfect example of this. Had Jon Bon Jovi recorded this sweet campfire rocker, it would have probably been a worldwide smash hit. Of course, these Outlaws remained Underground because the 1993 climate was inhospitable to hair rock, no matter how earnest. Luckily, the talented Churkos would get their moment of glory, teaming up years later with Shania Twain for her Up! CD. This CD is so rare, it's the first time I've been lucky enough to find it. Don't miss out on these elusive Outlaws!
ebay


Top
 Profile  
 
 
PostPosted: 15 Jun 2011 
Зарегился вот...
Joined: 11 Jun 2011
Posts: 3
Lоcаtion: asturias
Name: pedro
:esel:


Top
 Profile E-mail  
 
 
PostPosted: 15 Jun 2011 
Зарегился вот...
Joined: 11 Jun 2011
Posts: 3
Lоcаtion: asturias
Name: pedro
:thanx:


Top
 Profile E-mail  
 
 
PostPosted: 15 Jun 2011 
Хиппей (support team)
User avatar
Joined: 30 Jul 2007
Posts: 108997
Lоcаtion: Киев (Kyiv, UA)
Age: 45
Name: Andrey
meanacoalla, prefix [reqs] means the request. That is, we ourselves are looking for this album :pardon:

_________________


Top
 Profile E-mail  
 
 
PostPosted: 15 Jun 2011 
адын фелософъ прокметолу
User avatar
Joined: 22 Oct 2009
Posts: 2718
Lоcаtion: Сочи
Age: 41
Name: Сергей
похоже диск ушёл :oops:

_________________
А теперь ... клоунов и стриптизёрш!


Top
 Profile E-mail  
 
 
PostPosted: 09 Mar 2012 
Пионэръ
User avatar
Joined: 24 Feb 2012
Posts: 37
Lоcаtion: USA
Name: D
1993 release from UNDERGROUND OUTLAWS - 11 tracks. I was curious, as the back insert of the CD has 4 guys who really look like rockers, but song titles that look country - in this case the picture and words combine to tell the truth. Spun through the tracks, and what you get is a country rock disc, with an influence of melodic rock/AOR - a very cool disc!!!

ebay

:dash: forgot to place my bid


Top
 Profile  
 
 
PostPosted: 21 Mar 2012 
спирт 100%
User avatar
Joined: 22 Sep 2008
Posts: 4328
Age: 47
Name: Саня
http://www.musicstack.com/item/341354118


Top
 Profile  
 
 
PostPosted: 03 Mar 2015 
Персональный статус
Joined: 11 Sep 2010
Posts: 465
Lоcаtion: Тверь
Age: 45
Name: Сергей
Underground Outlaws - Underground Outlaws (1993) [320 kbt/s]
http://tempfile.ru/file/3116094
Какой-то кантри-рок :crazy:


Top
 Profile E-mail  
 
 
PostPosted: 04 Mar 2015 
Rara avis
User avatar
Joined: 27 Jan 2009
Posts: 4728
Name: .
:thanx: :thanx: :thanx:


Top
 Profile E-mail  
 
 
PostPosted: 04 Mar 2015 
Персональный статус
User avatar
Joined: 28 Mar 2013
Posts: 420
Lоcаtion: Russia (Bryansk)
Age: 25
Name: Michael
http://www.israbox.net/1146556572-underground-outlaws-underground-outlaws-1993.html :pardon:


Top
 Profile E-mail  
 
 
PostPosted: 04 Mar 2015 
Хиппей (support team)
User avatar
Joined: 30 Jul 2007
Posts: 108997
Lоcаtion: Киев (Kyiv, UA)
Age: 45
Name: Andrey
:thanx:

mirror: iFolder l Narod l M-Cloud

log
Exact Audio Copy V1.0 beta 3 from 29. August 2011

EAC extraction logfile from 12. October 2012, 15:12

Underground Outlaws / Underground Outlaws

Used drive : HL-DT-STDVD-RAM GSA-H55N Adapter: 0 ID: 0

Read mode : Secure
Utilize accurate stream : Yes
Defeat audio cache : Yes
Make use of C2 pointers : No

Read offset correction : 102
Overread into Lead-In and Lead-Out : Yes
Fill up missing offset samples with silence : Yes
Delete leading and trailing silent blocks : No
Null samples used in CRC calculations : Yes
Used interface : Native Win32 interface for Win NT & 2000
Gap handling : Appended to previous track

Used output format : User Defined Encoder
Selected bitrate : 1024 kBit/s
Quality : High
Add ID3 tag : No
Command line compressor : C:\Program Files (x86)\Exact Audio Copy\FLAC\flac.exe
Additional command line options : -V -8 -T "artist=%artist%" -T "title=%title%" -T "album=%albumtitle%" -T "date=%year%" -T "tracknumber=%tracknr%" %source%


TOC of the extracted CD

Track | Start | Length | Start sector | End sector
---------------------------------------------------------
1 | 0:00.32 | 3:04.73 | 32 | 13904
2 | 3:05.30 | 3:49.45 | 13905 | 31124
3 | 6:55.00 | 3:24.47 | 31125 | 46471
4 | 10:19.47 | 3:43.05 | 46472 | 63201
5 | 14:02.52 | 4:44.50 | 63202 | 84551
6 | 18:47.27 | 3:44.05 | 84552 | 101356
7 | 22:31.32 | 4:11.03 | 101357 | 120184
8 | 26:42.35 | 3:37.32 | 120185 | 136491
9 | 30:19.67 | 3:36.40 | 136492 | 152731
10 | 33:56.32 | 3:58.55 | 152732 | 170636
11 | 37:55.12 | 2:09.30 | 170637 | 180341


Track 1

Filename C:\Users\Evelyn_Brian\Documents\Uploaded Flac Rips\Underground Outlaws - Underground Outlaws\01 - I Miss the Old You.wav

Pre-gap length 0:00:02.42

Peak level 93.7 %
Extraction speed 0.9 X
Track quality 99.8 %
Test CRC FF67E313
Copy CRC FF67E313
Track not present in AccurateRip database
Copy OK

Track 2

Filename C:\Users\Evelyn_Brian\Documents\Uploaded Flac Rips\Underground Outlaws - Underground Outlaws\02 - Put a Little Distance.wav

Pre-gap length 0:00:00.33

Peak level 93.7 %
Extraction speed 1.6 X
Track quality 100.0 %
Test CRC 379C7462
Copy CRC 379C7462
Track not present in AccurateRip database
Copy OK

Track 3

Filename C:\Users\Evelyn_Brian\Documents\Uploaded Flac Rips\Underground Outlaws - Underground Outlaws\03 - Tonky honkin'.wav

Pre-gap length 0:00:01.97

Peak level 93.7 %
Extraction speed 1.8 X
Track quality 100.0 %
Test CRC C726CB4B
Copy CRC C726CB4B
Track not present in AccurateRip database
Copy OK

Track 4

Filename C:\Users\Evelyn_Brian\Documents\Uploaded Flac Rips\Underground Outlaws - Underground Outlaws\04 - Daddy's Little Girl.wav

Pre-gap length 0:00:01.56

Peak level 93.7 %
Extraction speed 1.7 X
Track quality 99.9 %
Test CRC F5C08880
Copy CRC F5C08880
Track not present in AccurateRip database
Copy OK

Track 5

Filename C:\Users\Evelyn_Brian\Documents\Uploaded Flac Rips\Underground Outlaws - Underground Outlaws\05 - It'll Be All Right.wav

Pre-gap length 0:00:00.76

Peak level 93.7 %
Extraction speed 2.1 X
Track quality 100.0 %
Test CRC 0122F7E8
Copy CRC 0122F7E8
Track not present in AccurateRip database
Copy OK

Track 6

Filename C:\Users\Evelyn_Brian\Documents\Uploaded Flac Rips\Underground Outlaws - Underground Outlaws\06 - Leave the Past Behind.wav

Pre-gap length 0:00:01.33

Peak level 93.7 %
Extraction speed 1.9 X
Track quality 99.9 %
Test CRC 66FF2398
Copy CRC 66FF2398
Track not present in AccurateRip database
Copy OK

Track 7

Filename C:\Users\Evelyn_Brian\Documents\Uploaded Flac Rips\Underground Outlaws - Underground Outlaws\07 - Backseat Driver.wav

Pre-gap length 0:00:00.76

Peak level 93.7 %
Extraction speed 2.3 X
Track quality 100.0 %
Test CRC 204969EE
Copy CRC 204969EE
Track not present in AccurateRip database
Copy OK

Track 8

Filename C:\Users\Evelyn_Brian\Documents\Uploaded Flac Rips\Underground Outlaws - Underground Outlaws\08 - Silver Lining.wav

Pre-gap length 0:00:04.46

Peak level 93.7 %
Extraction speed 2.1 X
Track quality 99.9 %
Test CRC 79C8D1A5
Copy CRC 79C8D1A5
Track not present in AccurateRip database
Copy OK

Track 9

Filename C:\Users\Evelyn_Brian\Documents\Uploaded Flac Rips\Underground Outlaws - Underground Outlaws\09 - (You are) My Best Friend.wav

Pre-gap length 0:00:00.96

Peak level 93.7 %
Extraction speed 2.4 X
Track quality 100.0 %
Test CRC 98A949A0
Copy CRC 98A949A0
Track not present in AccurateRip database
Copy OK

Track 10

Filename C:\Users\Evelyn_Brian\Documents\Uploaded Flac Rips\Underground Outlaws - Underground Outlaws\10 - Restless.wav

Pre-gap length 0:00:01.73

Peak level 93.7 %
Extraction speed 2.3 X
Track quality 99.9 %
Test CRC FB0DB05E
Copy CRC FB0DB05E
Track not present in AccurateRip database
Copy OK

Track 11

Filename C:\Users\Evelyn_Brian\Documents\Uploaded Flac Rips\Underground Outlaws - Underground Outlaws\11 - I Drink to Forget.wav

Pre-gap length 0:00:03.02

Peak level 93.7 %
Extraction speed 2.8 X
Track quality 100.0 %
Test CRC 260F5C0D
Copy CRC 260F5C0D
Track not present in AccurateRip database
Copy OK


None of the tracks are present in the AccurateRip database

No errors occurred

End of status report

==== Log checksum F3BB0D553F72BF84E909628AAA4AB3C0D937AC15C29D2012CD2D94CDC8C8FF43 ====

cue
REM GENRE Country
REM DATE 1993
REM DISCID 8609640B
REM COMMENT "ExactAudioCopy v1.0b3"
CATALOG 0000000000000
PERFORMER "Underground Outlaws"
TITLE "Underground Outlaws"
FILE "01 - I Miss the Old You.wav" WAVE
TRACK 01 AUDIO
TITLE "I Miss the Old You"
PERFORMER "Underground Outlaws"
PREGAP 00:00:32
INDEX 01 00:00:00
TRACK 02 AUDIO
TITLE "Put a Little Distance"
PERFORMER "Underground Outlaws"
INDEX 00 03:04:48
FILE "02 - Put a Little Distance.wav" WAVE
INDEX 01 00:00:00
TRACK 03 AUDIO
TITLE "Tonky honkin'"
PERFORMER "Underground Outlaws"
INDEX 00 03:47:47
FILE "03 - Tonky honkin'.wav" WAVE
INDEX 01 00:00:00
TRACK 04 AUDIO
TITLE "Daddy's Little Girl"
PERFORMER "Underground Outlaws"
INDEX 00 03:23:05
FILE "04 - Daddy's Little Girl.wav" WAVE
INDEX 01 00:00:00
TRACK 05 AUDIO
TITLE "It'll Be All Right"
PERFORMER "Underground Outlaws"
INDEX 00 03:42:23
FILE "05 - It'll Be All Right.wav" WAVE
INDEX 01 00:00:00
TRACK 06 AUDIO
TITLE "Leave the Past Behind"
PERFORMER "Underground Outlaws"
INDEX 00 04:43:25
FILE "06 - Leave the Past Behind.wav" WAVE
INDEX 01 00:00:00
TRACK 07 AUDIO
TITLE "Backseat Driver"
PERFORMER "Underground Outlaws"
INDEX 00 03:43:23
FILE "07 - Backseat Driver.wav" WAVE
INDEX 01 00:00:00
TRACK 08 AUDIO
TITLE "Silver Lining"
PERFORMER "Underground Outlaws"
INDEX 00 04:06:43
FILE "08 - Silver Lining.wav" WAVE
INDEX 01 00:00:00
TRACK 09 AUDIO
TITLE "(You are) My Best Friend"
PERFORMER "Underground Outlaws"
INDEX 00 03:36:35
FILE "09 - (You are) My Best Friend.wav" WAVE
INDEX 01 00:00:00
TRACK 10 AUDIO
TITLE "Restless"
PERFORMER "Underground Outlaws"
INDEX 00 03:34:60
FILE "10 - Restless.wav" WAVE
INDEX 01 00:00:00
TRACK 11 AUDIO
TITLE "I Drink to Forget"
PERFORMER "Underground Outlaws"
INDEX 00 03:55:53
FILE "11 - I Drink to Forget.wav" WAVE
INDEX 01 00:00:00

_________________


Top
 Profile E-mail  
 
 
PostPosted: 04 Mar 2015 
спирт 100%
User avatar
Joined: 22 Sep 2008
Posts: 4328
Age: 47
Name: Саня
Спасибо! :thanx:


Top
 Profile  
 
 
PostPosted: 05 Mar 2015 
Хиппей (support team)
User avatar
Joined: 30 Jul 2007
Posts: 108997
Lоcаtion: Киев (Kyiv, UA)
Age: 45
Name: Andrey
Мдя... музычка хоть и хороша, но неформатная. Переносится в раздел по АОРу.

Здесь, как уже было отмечено - поп-рок с сильный креном в кантри. Но, иногда попадаются и красивые поп-рок баллады, две из которых как раз, пусть и с большой натяжкой, но можно отнести с такому стилю, как AOR.
Самую яркую песню и нетипичную для всего альбома, чуть ниже можно и оценить:



Вот вам показательный пример, как легко ввести людей в заблуждение, указав неверно стилистику исполнителя, тыкнув им под нос такой вот трэк :pardon:
Правда, весьма похоже на ранее сольное *ковбойское" творчество Джона Bon Jovi? :lloo:

5/10

_________________


Top
 Profile E-mail  
 
Display posts from previous:  Sort by  
Post new topic Reply to topic  [ 13 posts ] 

All times are UTC + 3 hours


Who is online

Users browsing this forum: No registered users and 2 guests


You cannot post new topics in this forum
You cannot reply to topics in this forum
You cannot edit your posts in this forum
You cannot delete your posts in this forum
You cannot post attachments in this forum

Search for:
Яндекс.Метрика
Powered by phpBB © 2000, 2002, 2005, 2007 phpBB Group