\m/ 80's metal \m/

Информационно-аналитический форум "80 см пыли" (In Search We Trust) "У нас никто никуда не спешит"
Железнодорожная биржа - RailAgent
It is currently 24 Jun 2018

All times are UTC + 3 hours

Spoiler
Chat - temporary registration for foreign users (please leave your application here)







Post new topic Reply to topic  [ 14 posts ] 
Author Message
 
PostPosted: 17 Oct 2012 
Персональный статус
Joined: 11 Sep 2010
Posts: 449
Lоcаtion: Тверь
Age: 45
Name: Сергей
The Broken Homes - The Broken Homes (1986)

Image

1. In Another Land
2. L.A. Rain
3. Out In The Fields
4. Painless Saturday
5. Steeltown/Bluestown
6. I'll Be Wearing Blue
7. 30,000 Feet
8. Yes, It's All Over Now


The Broken Homes - Straight Line Through Time (1988)

Image

1. Straight Line Through time
2. Single Drop Of You
3. Seeds I've Sown
4. Superstar
5. All You Want Is Everything
6. Promises
7. The Howling
8. All Is Forgiven
9. Every Single Day
10. Finding Out

info


Top
 Profile E-mail  
 
 
PostPosted: 17 Oct 2012 
Rara avis
User avatar
Joined: 27 Jan 2009
Posts: 4394
Name: .
1986 есть на Sleaze Roxx - сейчас прелью :umnik:
1988 - уже качаю...


Last edited by Dare-Devilina on 17 Oct 2012, edited 1 time in total.

Top
 Profile E-mail  
 
 
PostPosted: 17 Oct 2012 
Персональный статус
Joined: 11 Sep 2010
Posts: 449
Lоcаtion: Тверь
Age: 45
Name: Сергей
Жду.


Top
 Profile E-mail  
 
 
PostPosted: 17 Oct 2012 
Rara avis
User avatar
Joined: 27 Jan 2009
Posts: 4394
Name: .
Что-то Народ плохо работает :dash:
Не могу залить :dash:


Top
 Profile E-mail  
 
 
PostPosted: 17 Oct 2012 
Rara avis
User avatar
Joined: 27 Jan 2009
Posts: 4394
Name: .
The Broken Homes - 1986 - The Broken Homes
Спасибо Junkyard_Dog :thanx:

The Broken Homes - 1988 - Straight Line Through Time


Top
 Profile E-mail  
 
 
PostPosted: 17 Oct 2012 
Персональный статус
Joined: 11 Sep 2010
Posts: 449
Lоcаtion: Тверь
Age: 45
Name: Сергей
Dare-Devilina, спасибо огромное за труды. Буду качать.


Top
 Profile E-mail  
 
 
PostPosted: 03 Mar 2016 
Хиппей (support team)
User avatar
Joined: 30 Jul 2007
Posts: 104591
Lоcаtion: Киев (Kyiv, UA)
Age: 45
Name: Andrey
Мдя...

С 2011 года альбом этой группы (лось) от Dukem рип (или как его там), качал я долго и нудно. Завис файл на 90% и торчит как писюн у крота в огороде :lloo:
С утра решил немного пошевелить осла и проверить, авось оставшиеся с 11 года 32 файла ещё где-либо есть.
Есть, всё есть :cry:

Лось был скачал с трекера за пару секунд. Перезалью чуть позже.
Альбом более-менее понравился. Попсовый Melodic Hard/AOR с дудками и вокалистов, поющим в манере new wave/new romantic.
Но - бабы на подпевках джазово жгут, эх, вот это меня и порвало :lob: :lob: :lob:

4/10

The Broken Homes - 1990 - Wing And A Prayer [ape]

Image Image

mirror: iFolder l Narod l M-Cloud

Image Image

log
Exact Audio Copy V0.99 prebeta 5 from 4. May 2009

EAC extraction logfile from 29. August 2009, 13:13

THE BROKEN HOMES / Wing And A Prayer

Used drive : Optiarc DVD RW AD-7203A Adapter: 4 ID: 2

Read mode : Secure
Utilize accurate stream : Yes
Defeat audio cache : Yes
Make use of C2 pointers : No

Read offset correction : 48
Overread into Lead-In and Lead-Out : No
Fill up missing offset samples with silence : Yes
Delete leading and trailing silent blocks : No
Null samples used in CRC calculations : Yes
Used interface : Native Win32 interface for Win NT & 2000

Used output format : Monkey's Audio Lossless Encoder
Selected bitrate : Normal Lossless Compression
Quality : High
Add ID3 tag : Yes
Command line compressor : C:\Program Files\Monkey's Audio\MAC.exe


TOC of the extracted CD

Track | Start | Length | Start sector | End sector
---------------------------------------------------------
1 | 0:00.37 | 4:41.70 | 37 | 21181
2 | 4:42.32 | 4:03.05 | 21182 | 39411
3 | 8:45.37 | 4:09.68 | 39412 | 58154
4 | 12:55.30 | 2:57.55 | 58155 | 71484
5 | 15:53.10 | 3:33.42 | 71485 | 87501
6 | 19:26.52 | 4:48.23 | 87502 | 109124
7 | 24:15.00 | 3:11.27 | 109125 | 123476
8 | 27:26.27 | 4:16.40 | 123477 | 142716
9 | 31:42.67 | 3:26.28 | 142717 | 158194
10 | 35:09.20 | 3:50.22 | 158195 | 175466


Range status and errors

Selected range

Filename G:\MUSIC\!Rip\THE BROKEN HOMES - Wing And A Prayer 1990\THE BROKEN HOMES - Wing And A Prayer.wav

Peak level 100.0 %
Range quality 100.0 %
Test CRC CC9D2DFF
Copy CRC CC9D2DFF
Copy OK

No errors occurred


AccurateRip summary

Track 1 accurately ripped (confidence 2) [9D43E05B]
Track 2 accurately ripped (confidence 2) [5B77F921]
Track 3 accurately ripped (confidence 2) [2BCC0538]
Track 4 accurately ripped (confidence 2) [8D8C54FA]
Track 5 accurately ripped (confidence 2) [012D3DC9]
Track 6 accurately ripped (confidence 2) [ED1A3020]
Track 7 accurately ripped (confidence 2) [BA795A24]
Track 8 accurately ripped (confidence 2) [C01D6AD4]
Track 9 accurately ripped (confidence 2) [B0EAE74D]
Track 10 accurately ripped (confidence 2) [875201EF]

All tracks accurately ripped

End of status report

cue
REM GENRE "Rock/Hard Rock"
REM DATE 1990
REM DISCID 8D09230A
REM COMMENT "ExactAudioCopy v0.99pb5"
CATALOG 0000000000000
PERFORMER "THE BROKEN HOMES"
TITLE "Wing And A Prayer"
FILE "THE BROKEN HOMES - Wing And A Prayer.ape" WAVE
TRACK 01 AUDIO
TITLE "Something's Gotta Give"
PERFORMER "THE BROKEN HOMES"
INDEX 00 00:00:00
INDEX 01 00:00:37
TRACK 02 AUDIO
TITLE "Wing and a Prayer"
PERFORMER "THE BROKEN HOMES"
INDEX 01 04:42:32
TRACK 03 AUDIO
TITLE "The Parson James"
PERFORMER "THE BROKEN HOMES"
INDEX 00 08:44:54
INDEX 01 08:45:37
TRACK 04 AUDIO
TITLE "She's Got Everything"
PERFORMER "THE BROKEN HOMES"
INDEX 01 12:55:30
TRACK 05 AUDIO
TITLE "Carry U"
PERFORMER "THE BROKEN HOMES"
INDEX 00 15:53:09
INDEX 01 15:53:10
TRACK 06 AUDIO
TITLE "Lock and Key"
PERFORMER "THE BROKEN HOMES"
INDEX 00 19:25:03
INDEX 01 19:26:52
TRACK 07 AUDIO
TITLE "Runaway"
PERFORMER "THE BROKEN HOMES"
INDEX 01 24:15:00
TRACK 08 AUDIO
TITLE "South Central L.A."
PERFORMER "THE BROKEN HOMES"
INDEX 01 27:26:27
TRACK 09 AUDIO
TITLE "What Is Real"
PERFORMER "THE BROKEN HOMES"
INDEX 01 31:42:67
TRACK 10 AUDIO
TITLE " In the Morning"
PERFORMER "THE BROKEN HOMES"
INDEX 00 35:09:19
INDEX 01 35:09:20

_________________


Top
 Profile E-mail  
 
 
PostPosted: 03 Mar 2016 
Хиппей (support team)
User avatar
Joined: 30 Jul 2007
Posts: 104591
Lоcаtion: Киев (Kyiv, UA)
Age: 45
Name: Andrey

Даша, спасибо :thanx:

_________________


Top
 Profile E-mail  
 
 
PostPosted: 03 Mar 2016 
Хиппей (support team)
User avatar
Joined: 30 Jul 2007
Posts: 104591
Lоcаtion: Киев (Kyiv, UA)
Age: 45
Name: Andrey
Ой, спасибо проканало, но файлов по ссылкам нет ужо =)
Апните кто-то, плиз :kro:

_________________


Top
 Profile E-mail  
 
 
PostPosted: 03 Mar 2016 
Хиппей (support team)
User avatar
Joined: 30 Jul 2007
Posts: 104591
Lоcаtion: Киев (Kyiv, UA)
Age: 45
Name: Andrey
Впрочем, 86-й нашёл сразу.
Остался 88-й.

_________________


Top
 Profile E-mail  
 
 
PostPosted: 03 Mar 2016 
Хиппей (support team)
User avatar
Joined: 30 Jul 2007
Posts: 104591
Lоcаtion: Киев (Kyiv, UA)
Age: 45
Name: Andrey
Broken Homes - 1986 - Broken Homes [320]

Image Image

mirror: iFolder l Narod l M-Cloud

Хороший альбом. Весьма хороший. И явно лучший у группы.
Играют здесь Classic Rock/взрослый AOR.

Можно даже посчитать это некоммерческим вариантом (ответом) группе U2.

7/10

Image

_________________


Top
 Profile E-mail  
 
 
PostPosted: 03 Mar 2016 
Хиппей (support team)
User avatar
Joined: 30 Jul 2007
Posts: 104591
Lоcаtion: Киев (Kyiv, UA)
Age: 45
Name: Andrey
Топик перенесён в раздел по АОРам всяким.

_________________


Top
 Profile E-mail  
 
 
PostPosted: 04 Mar 2016 
Персональный статус
Joined: 11 Sep 2010
Posts: 449
Lоcаtion: Тверь
Age: 45
Name: Сергей
The Broken Homes - Straight Line Through Time (1988)
https://myzuka.org/Album/345337/Straigh ... -Time-1988


Top
 Profile E-mail  
 
 
PostPosted: 04 Mar 2016 
Хиппей (support team)
User avatar
Joined: 30 Jul 2007
Posts: 104591
Lоcаtion: Киев (Kyiv, UA)
Age: 45
Name: Andrey
The Broken Homes - Straight Line Through Time (1988)
https://myzuka.org/Album/345337/Straigh ... -Time-1988

:thanx:

А как это я его там снова не заметил? :oops:

_________________


Top
 Profile E-mail  
 
Display posts from previous:  Sort by  
Post new topic Reply to topic  [ 14 posts ] 

All times are UTC + 3 hours


Who is online

Users browsing this forum: No registered users and 2 guests


You cannot post new topics in this forum
You cannot reply to topics in this forum
You cannot edit your posts in this forum
You cannot delete your posts in this forum
You cannot post attachments in this forum

Search for:
Яндекс.Метрика
Powered by phpBB © 2000, 2002, 2005, 2007 phpBB Group