\m/ 80's metal \m/

Информационно-аналитический форум "80 см пыли" (In Search We Trust) "У нас никто никуда не спешит"
Me For You - http://me-4u.com
It is currently 21 Oct 2018

All times are UTC + 3 hours

Spoiler
Chat - temporary registration for foreign users (please leave your application here)







Post new topic Reply to topic  [ 14 posts ] 
Author Message
 
PostPosted: 15 Feb 2014 
Хиппей (support team)
User avatar
Joined: 30 Jul 2007
Posts: 107089
Lоcаtion: Киев (Kyiv, UA)
Age: 45
Name: Andrey
Просьба сюда складировать файлы, залитые на Народ и которые пока (или уже давно) невозможно скачать. Но они типа еще и не удалены с сервера.
Будем возвращать :lloo:

Первый 1

_________________


Top
 Profile E-mail  
 
 
PostPosted: 05 Mar 2014 
Хиппей (support team)
User avatar
Joined: 30 Jul 2007
Posts: 107089
Lоcаtion: Киев (Kyiv, UA)
Age: 45
Name: Andrey
Второй... 2 :fingal:

_________________


Top
 Profile E-mail  
 
 
PostPosted: 19 Mar 2014 
Хиппей (support team)
User avatar
Joined: 30 Jul 2007
Posts: 107089
Lоcаtion: Киев (Kyiv, UA)
Age: 45
Name: Andrey
Второй файл попустило :dance:
Зачёркиваю :pardon:

А вот первый еще срывается...

_________________


Top
 Profile E-mail  
 
 
PostPosted: 21 Mar 2014 
Хиппей (support team)
User avatar
Joined: 30 Jul 2007
Posts: 107089
Lоcаtion: Киев (Kyiv, UA)
Age: 45
Name: Andrey
http://narod.yandex.ru/disk/56122039001.922c8067f044eebdb52d01bfb7349e6b/Metallica%20-%201990%20-%20Creeping%20Death%20-%20Jump%20in%20the%20Fire%20(EP)%20[flac].rar.html - добавка :fingal:
Пока скачать файл нельзя...

_________________


Top
 Profile E-mail  
 
 
PostPosted: 26 Jun 2014 
Хиппей (support team)
User avatar
Joined: 30 Jul 2007
Posts: 107089
Lоcаtion: Киев (Kyiv, UA)
Age: 45
Name: Andrey
Еще адын: http://narod.yandex.ru/disk/8502601001/Lords%20of%20the%20Crimson%20Alliance%201986%20ST%20[wav]%20-%20vinyl%20rip.rar.html
Lords of the Crimson Alliance - Lords of the Crimson Alliance (1986) [WAV Vinyl Rip]

:arrow: http://80s.takemetal.com/viewtopic.php?p=123540#p123540

_________________


Top
 Profile E-mail  
 
 
PostPosted: 26 Jun 2014 
Хиппей (support team)
User avatar
Joined: 30 Jul 2007
Posts: 107089
Lоcаtion: Киев (Kyiv, UA)
Age: 45
Name: Andrey
Кстати, и первый в этом списке файл попустило :dance:

_________________


Top
 Profile E-mail  
 
 
PostPosted: 26 Jun 2014 
Хиппей (support team)
User avatar
Joined: 30 Jul 2007
Posts: 107089
Lоcаtion: Киев (Kyiv, UA)
Age: 45
Name: Andrey
И третий тоже.
Только мне его скачать некуда сейчас :fingal:

_________________


Top
 Profile E-mail  
 
 
PostPosted: 30 Jun 2014 
Почётный металлург
User avatar
Joined: 15 Sep 2007
Posts: 4357
Lоcаtion: Хабаровск
Age: 58
Name: чуть выше
http://narod.yandex.ru/disk/60170551001 ... e.rar.html

выдает вот такую хрень:
"На этой странице обнаружена циклическая переадресация"

_________________
Коль будешь людей ты ослами честить,
тебе человеком меж них не прослыть!
(Саади, персидский поэт, 13в.)


Top
 Profile  
 
 
PostPosted: 01 Jul 2014 
Хиппей (support team)
User avatar
Joined: 30 Jul 2007
Posts: 107089
Lоcаtion: Киев (Kyiv, UA)
Age: 45
Name: Andrey
:thanx:
В Хроме сейчас сбрасывает после раздумий на http://narod.yandex.ru/404u.yhtml

Со временем проверю еще несколько раз :dance:

_________________


Top
 Profile E-mail  
 
 
PostPosted: 01 Jul 2014 
Я набрал 1000 сообщений!
Joined: 21 Nov 2009
Posts: 1396
Lоcаtion: praga
Age: 48
Name: Сергей
Скачтвается на интернет-эксплоере.


Top
 Profile E-mail  
 
 
PostPosted: 01 Jul 2014 
Хиппей (support team)
User avatar
Joined: 30 Jul 2007
Posts: 107089
Lоcаtion: Киев (Kyiv, UA)
Age: 45
Name: Andrey
Опа. Точно скачивается?
Пробую :dance:

_________________


Top
 Profile E-mail  
 
 
PostPosted: 01 Jul 2014 
Хиппей (support team)
User avatar
Joined: 30 Jul 2007
Posts: 107089
Lоcаtion: Киев (Kyiv, UA)
Age: 45
Name: Andrey
Хи, точно качает без проблем =))) Серёга, спасибо :thanx: :true:

_________________


Top
 Profile E-mail  
 
 
PostPosted: 01 Jul 2014 
Хиппей (support team)
User avatar
Joined: 30 Jul 2007
Posts: 107089
Lоcаtion: Киев (Kyiv, UA)
Age: 45
Name: Andrey
http://narod.yandex.ru/disk/60170551001 ... e.rar.html

выдает вот такую хрень:
"На этой странице обнаружена циклическая переадресация"


Edgar Broughton Band - 1974 - Parlez-Vous English [flac]

Image

mirror: Narod l M-Cloud



log
Exact Audio Copy V0.99 prebeta 3 from 28. July 2007

EAC Auslese-Logdatei vom 29. August 2012, 11:28

Edgar Broughton Band / Parlez-Vous English?

Benutztes Laufwerk : Optiarc DVD RW AD-7241S Adapter: 1 ID: 0

Lesemodus : Sicher
Benutze Accurate Stream : Ja
Audio Puffer abgeschaltet : Nein
Benutze C2 Fehlerinformationen : Nein

Leseoffset Korrektur : 48
Ьberlesen in das Lead-In und Lead-Out : Nein
Fьlle fehlende Offsetsample mit Stille auf : Ja
Lцsche fьhrende und nachfolgende stille Blцcke : Nein
Null Samples gehen in CRC Berechnungen ein : Nein
Benutzte Schnittstelle : Natьrliche Win32 Schnittstelle fьr Win NT/2000/XP

Benutztes Ausgabeformat : Benutzerdefinierter Komprimierer
Gewдhlte Bitrate : 768 kBit/s
Qualitдt : Hoch
Fьge ID3 Tag hinzu : Nein
Kommandozeilen Komprimierer : C:\Programme\Exact Audio Copy\FLAC\FLAC.EXE
Zusдtzliche Kommandozeilenoptionen : -6 -V -T "ARTIST=%a" -T "TITLE=%t" -T "ALBUM=%g" -T "DATE=%y" -T "TRACKNUMBER=%n" -T "GENRE=%m" -T "COMMENT=%e" %s -o %d


TOC der ausgelesenen CD

Track | Start | Lдnge | Startsektor | Endsektor
-------------------------------------------------------
1 | 0:00.00 | 3:10.01 | 0 | 14250
2 | 3:10.01 | 3:59.62 | 14251 | 32237
3 | 7:09.63 | 3:43.73 | 32238 | 49035
4 | 10:53.61 | 1:54.49 | 49036 | 57634
5 | 12:48.35 | 2:33.69 | 57635 | 69178
6 | 15:22.29 | 3:22.31 | 69179 | 84359
7 | 18:44.60 | 2:46.06 | 84360 | 96815
8 | 21:30.66 | 2:47.53 | 96816 | 109393
9 | 24:18.44 | 2:47.46 | 109394 | 121964
10 | 27:06.15 | 3:01.22 | 121965 | 135561
11 | 30:07.37 | 3:35.38 | 135562 | 151724
12 | 33:43.00 | 4:16.35 | 151725 | 170959


Bereichsstatus und Fehler

Gewдhlter Bereich

Dateiname E:\NEW_Folder1\002\Edgar Broughton Band - Parlez-Vous English.wav

Spitzenpegel 100.0 %
Bereichsqualitдt 100.0 %
Kopie CRC 722F54F8
Kopie OK

Keine Fehler aufgetreten


AccurateRip Ьbersicht

Track 1 nicht in Datenbank enthalten
Track 2 nicht in Datenbank enthalten
Track 3 nicht in Datenbank enthalten
Track 4 nicht in Datenbank enthalten
Track 5 nicht in Datenbank enthalten
Track 6 nicht in Datenbank enthalten
Track 7 nicht in Datenbank enthalten
Track 8 nicht in Datenbank enthalten
Track 9 nicht in Datenbank enthalten
Track 10 nicht in Datenbank enthalten
Track 11 nicht in Datenbank enthalten
Track 12 nicht in Datenbank enthalten

Keiner der Tracks ist in der AccurateRip Datenbank vorhanden

Ende des Statusreports

cue
REM GENRE "Alt. Rock"
REM DISCID 9208E70C
REM COMMENT "ExactAudioCopy v0.99pb3"
PERFORMER "Edgar Broughton Band"
TITLE "Parlez-Vous English?"
FILE "Edgar Broughton Band - Parlez-Vous English.flac" WAVE
TRACK 01 AUDIO
TITLE "01.Little One"
PERFORMER "Edgar Broughton Band"
FLAGS DCP
INDEX 01 00:00:00
TRACK 02 AUDIO
TITLE "02.Waiting For You"
PERFORMER "Edgar Broughton Band"
FLAGS DCP
INDEX 01 03:10:01
TRACK 03 AUDIO
TITLE "03.Drivin' To Nowhere"
PERFORMER "Edgar Broughton Band"
FLAGS DCP
INDEX 01 07:09:63
TRACK 04 AUDIO
TITLE "04.Meglamaster"
PERFORMER "Edgar Broughton Band"
FLAGS DCP
INDEX 01 10:53:61
TRACK 05 AUDIO
TITLE "05.Didecoi"
PERFORMER "Edgar Broughton Band"
FLAGS DCP
INDEX 01 12:48:35
TRACK 06 AUDIO
TITLE "06.April In England"
PERFORMER "Edgar Broughton Band"
FLAGS DCP
INDEX 01 15:22:29
TRACK 07 AUDIO
TITLE "07.Revelations One"
PERFORMER "Edgar Broughton Band"
FLAGS DCP
INDEX 01 18:44:60
TRACK 08 AUDIO
TITLE "08.Anthem"
PERFORMER "Edgar Broughton Band"
FLAGS DCP
INDEX 01 21:30:66
TRACK 09 AUDIO
TITLE "09.Down In The Jungle"
PERFORMER "Edgar Broughton Band"
FLAGS DCP
INDEX 01 24:18:44
TRACK 10 AUDIO
TITLE "10.Rentasong"
PERFORMER "Edgar Broughton Band"
FLAGS DCP
INDEX 01 27:06:15
TRACK 11 AUDIO
TITLE "11.Young Boys"
PERFORMER "Edgar Broughton Band"
FLAGS DCP
INDEX 01 30:07:37
TRACK 12 AUDIO
TITLE "12.All I Want To Be"
PERFORMER "Edgar Broughton Band"
FLAGS DCP
INDEX 01 33:43:00

_________________


Top
 Profile E-mail  
 
 
PostPosted: 03 Jul 2014 
Почётный металлург
User avatar
Joined: 15 Sep 2007
Posts: 4357
Lоcаtion: Хабаровск
Age: 58
Name: чуть выше
Scatterbrain wrote:
Опа. Точно скачивается?
Пробую

Хм, не пробовал.... :umnik:
в след.раз тоже буду пробовать
За помощь Спасибо огромное!
Scatterbrain wrote:
Edgar Broughton Band - 1974 - Parlez-Vous English

Parlez-Vous если шо 79 года. А вот одноименник, который с ютуба, 71-го. Кстати для меня он самый лучший. Весь ндравится. Когда-то он единственный был у меня на виниле, остальные слушал уже на СД.

_________________
Коль будешь людей ты ослами честить,
тебе человеком меж них не прослыть!
(Саади, персидский поэт, 13в.)


Top
 Profile  
 
Display posts from previous:  Sort by  
Post new topic Reply to topic  [ 14 posts ] 

All times are UTC + 3 hours


Who is online

Users browsing this forum: No registered users and 2 guests


You cannot post new topics in this forum
You cannot reply to topics in this forum
You cannot edit your posts in this forum
You cannot delete your posts in this forum
You cannot post attachments in this forum

Search for:
Яндекс.Метрика
Powered by phpBB © 2000, 2002, 2005, 2007 phpBB Group