\m/ 80's metal \m/

Информационно-аналитический форум "80 см пыли" (In Search We Trust) "У нас никто никуда не спешит"
Me For You - http://me-4u.com
It is currently 21 Nov 2018

All times are UTC + 3 hours

Spoiler
Chat - temporary registration for foreign users (please leave your application here)







Post new topic Reply to topic  [ 9 posts ] 
Author Message
 
PostPosted: 30 Jul 2011 
Персональный статус
User avatar
Joined: 02 Jul 2009
Posts: 293
Name: Александр
Подскажите пожалуйста . Сталкивался с такой проблемой . При записи на диск EAC всё время ругается на Куй . Пишет мол ошибка в строке 7 . Если рип одим куском , то можно и блокнотом подправить . Но не знаю как быть с потрековыми рипами . Подскажите пожалуйста как тут быть . И правильно ли записывать закидывая например в CD - Extractor просто потрековые флаки или апе . Извиняюсь за сумбур .


Top
 Profile E-mail  
 
 
PostPosted: 30 Jul 2011 
Хиппей (support team)
User avatar
Joined: 30 Jul 2007
Posts: 108255
Lоcаtion: Киев (Kyiv, UA)
Age: 45
Name: Andrey
Ни разу не записывал образ из лося на болванку, но, думаю, куй и для потрэковаого рипа обязателен. Логично ж ведь :pardon:
Без куя и запись получится кривой.
А если есть куй к потрэковому рипу, то ошибка действительно в 7-м трэке. Вернее, в том, как он прописан в куе.

Плиз, куй, сюда нам.

_________________


Top
 Profile E-mail  
 
 
PostPosted: 30 Jul 2011 
Прокъмитолист
User avatar
Joined: 12 Aug 2007
Posts: 6504
Lоcаtion: Санктъ-Петербуркъ
Age: 51
Name: Олекъ
ошибка в 7 строчке - это как раз обычно имя файла. оно должно соответствовать твоему файлу (файлам). потрэковый рип или рип образом - разницы никакой, правила те же.

если рип без куя, то пиши чем хочешь. если есть куй, то почему бы не записать правильно? :umnik:

_________________
прокъметол - это музыко, от которово есть прок (ы)


Top
 Profile  
 
 
PostPosted: 30 Jul 2011 
Персональный статус
User avatar
Joined: 02 Jul 2009
Posts: 293
Name: Александр
Вот например . Скачано с рутрекера http://rutracker.org/forum/viewtopic.php?t=3564206 - Asphalt Ballet / Asphalt Ballet
" Asphalt Ballet"
REM GENRE "Hard Rock"
REM GENRE "Hard Rock"
REM DATE 1991
REM DISCID AD0BBE0D
REM COMMENT "ExactAudioCopy v0.95b4"
PERFORMER "Asphalt Ballet"
TITLE "Asphalt Ballet"
FILE "01 - Hell's Kitchen - Asphalt Ballet.wav" WAVE
TRACK 01 AUDIO
TITLE "Hell's Kitchen"
PERFORMER "Asphalt Ballet"
PREGAP 00:00:37
INDEX 01 00:00:00
TRACK 02 AUDIO
TITLE "Soul Survive"
PERFORMER "Asphalt Ballet"
INDEX 00 02:56:65
FILE "02 - Soul Survive - Asphalt Ballet.wav" WAVE
INDEX 01 00:00:00
TRACK 03 AUDIO
TITLE "Tuesday's Rain"
PERFORMER "Asphalt Ballet"
INDEX 00 04:24:02
FILE "03 - Tuesday's Rain - Asphalt Ballet.wav" WAVE
INDEX 01 00:00:00
TRACK 04 AUDIO
TITLE "Unlucky Mr. Lucky"
PERFORMER "Asphalt Ballet"
INDEX 00 04:19:57
FILE "04 - Unlucky Mr. Lucky - Asphalt Ballet.wav" WAVE
INDEX 01 00:00:00
TRACK 05 AUDIO
TITLE "End Of My Rope"
PERFORMER "Asphalt Ballet"
INDEX 00 03:48:38
FILE "05 - End Of My Rope - Asphalt Ballet.wav" WAVE
INDEX 01 00:00:00
TRACK 06 AUDIO
TITLE "Heaven Winds Blow"
PERFORMER "Asphalt Ballet"
INDEX 00 04:04:60
FILE "06 - Heaven Winds Blow - Asphalt Ballet.wav" WAVE
INDEX 01 00:00:00
TRACK 07 AUDIO
TITLE "Blood On The Highway"
PERFORMER "Asphalt Ballet"
INDEX 00 03:56:35
FILE "07 - Blood On The Highway - Asphalt Ballet.wav" WAVE
INDEX 01 00:00:00
TRACK 08 AUDIO
TITLE "Goodbye Yesterday"
PERFORMER "Asphalt Ballet"
INDEX 00 04:01:38
FILE "08 - Goodbye Yesterday - Asphalt Ballet.wav" WAVE
INDEX 01 00:00:00
TRACK 09 AUDIO
TITLE "Wasted Time"
PERFORMER "Asphalt Ballet"
INDEX 00 04:34:27
FILE "09 - Wasted Time - Asphalt Ballet.wav" WAVE
INDEX 01 00:00:00
TRACK 10 AUDIO
TITLE "Taking A Walk"
PERFORMER "Asphalt Ballet"
INDEX 00 03:41:73
FILE "10 - Taking A Walk - Asphalt Ballet.wav" WAVE
INDEX 01 00:00:00
TRACK 11 AUDIO
TITLE "Hangman Swing"
PERFORMER "Asphalt Ballet"
INDEX 00 04:06:18
FILE "11 - Hangman Swing - Asphalt Ballet.wav" WAVE
INDEX 01 00:00:00
TRACK 12 AUDIO
TITLE "Blue Movie"
PERFORMER "Asphalt Ballet"
INDEX 00 03:43:28
FILE "12 - Blue Movie - Asphalt Ballet.wav" WAVE
INDEX 01 00:00:00
TRACK 13 AUDIO
TITLE "Do It All Over Again"
PERFORMER "Asphalt Ballet"
INDEX 00 03:53:20
FILE "13 - Do It All Over Again - Asphalt Ballet.wav" WAVE
INDEX 01 00:00:00


Переделал блокнотом вот так

REM GENRE "Hard Rock"
REM DATE 1991
REM DISCID AD0BBE0D
REM COMMENT "ExactAudioCopy v0.95b4"
PERFORMER "Asphalt Ballet"
TITLE "Asphalt Ballet"
FILE "01 - Hell's Kitchen - Asphalt Ballet.Flac" WAVE
TRACK 01 AUDIO
TITLE "Hell's Kitchen"
PERFORMER "Asphalt Ballet"
PREGAP 00:00:37
INDEX 01 00:00:00
TRACK 02 AUDIO
TITLE "Soul Survive"
PERFORMER "Asphalt Ballet"
INDEX 00 02:56:65
FILE "02 - Soul Survive - Asphalt Ballet.Flac" WAVE
INDEX 01 00:00:00
TRACK 03 AUDIO
TITLE "Tuesday's Rain"
PERFORMER "Asphalt Ballet"
INDEX 00 04:24:02
FILE "03 - Tuesday's Rain - Asphalt Ballet.Flac" WAVE
INDEX 01 00:00:00
TRACK 04 AUDIO
TITLE "Unlucky Mr. Lucky"
PERFORMER "Asphalt Ballet"
INDEX 00 04:19:57
FILE "04 - Unlucky Mr. Lucky - Asphalt Ballet.Flac" WAVE
INDEX 01 00:00:00
TRACK 05 AUDIO
TITLE "End Of My Rope"
PERFORMER "Asphalt Ballet"
INDEX 00 03:48:38
FILE "05 - End Of My Rope - Asphalt Ballet.Flac" WAVE
INDEX 01 00:00:00
TRACK 06 AUDIO
TITLE "Heaven Winds Blow"
PERFORMER "Asphalt Ballet"
INDEX 00 04:04:60
FILE "06 - Heaven Winds Blow - Asphalt Ballet.Flac" WAVE
INDEX 01 00:00:00
TRACK 07 AUDIO
TITLE "Blood On The Highway"
PERFORMER "Asphalt Ballet"
INDEX 00 03:56:35
FILE "07 - Blood On The Highway - Asphalt Ballet.Flac" WAVE
INDEX 01 00:00:00
TRACK 08 AUDIO
TITLE "Goodbye Yesterday"
PERFORMER "Asphalt Ballet"
INDEX 00 04:01:38
FILE "08 - Goodbye Yesterday - Asphalt Ballet.Flac" WAVE
INDEX 01 00:00:00
TRACK 09 AUDIO
TITLE "Wasted Time"
PERFORMER "Asphalt Ballet"
INDEX 00 04:34:27
FILE "09 - Wasted Time - Asphalt Ballet.Flac" WAVE
INDEX 01 00:00:00
TRACK 10 AUDIO
TITLE "Taking A Walk"
PERFORMER "Asphalt Ballet"
INDEX 00 03:41:73
FILE "10 - Taking A Walk - Asphalt Ballet.Flac" WAVE
INDEX 01 00:00:00
TRACK 11 AUDIO
TITLE "Hangman Swing"
PERFORMER "Asphalt Ballet"
INDEX 00 04:06:18
FILE "11 - Hangman Swing - Asphalt Ballet.Flac" WAVE
INDEX 01 00:00:00
TRACK 12 AUDIO
TITLE "Blue Movie"
PERFORMER "Asphalt Ballet"
INDEX 00 03:43:28
FILE "12 - Blue Movie - Asphalt Ballet.Flac" WAVE
INDEX 01 00:00:00
TRACK 13 AUDIO
TITLE "Do It All Over Again"
PERFORMER "Asphalt Ballet"
INDEX 00 03:53:20
FILE "13 - Do It All Over Again - Asphalt Ballet.Flac" WAVE
INDEX 01 00:00:00


И всё равно ничего оказывается не правильно . В чём тут проблема . Скажите пожалуйста . Записать всё равно правильно не получается .


Top
 Profile E-mail  
 
 
PostPosted: 31 Jul 2011 
Прокъмитолист
User avatar
Joined: 12 Aug 2007
Posts: 6504
Lоcаtion: Санктъ-Петербуркъ
Age: 51
Name: Олекъ
во-первых, флаки ты ЕАКом не запишешь. надо разжать их в вавы. и во-вторых, если в куе прописано такое имя файла: "01 - Hell's Kitchen - Asphalt Ballet.wav", то соответственно и файл должен называться абсолютно идентично.

з.ы. ну и вот здесь все вроде как давно разобрано по косточкам: viewtopic.php?f=209&t=1708

_________________
прокъметол - это музыко, от которово есть прок (ы)


Top
 Profile  
 
 
PostPosted: 31 Jul 2011 
Персональный статус
User avatar
Joined: 02 Jul 2009
Posts: 293
Name: Александр
Понял . Огромное спасибо . Думаю , что разберусь . :thanx:


Top
 Profile E-mail  
 
 
PostPosted: 31 Jul 2011 
мiзантропъ
User avatar
Joined: 01 Aug 2007
Posts: 2248
Lоcаtion: UA
Age: 48
Name: Вася Пупкін
spiralarch wrote:
флаки ты ЕАКом не запишешь. надо разжать их в вавы.

100%

_________________
Image
Image
Too Little Much Too Late...


Top
 Profile  
 
 
PostPosted: 31 Jul 2011 
Персональный статус
User avatar
Joined: 02 Jul 2009
Posts: 293
Name: Александр
Почитал . Попробовал . Всё норм . Спасибо за помощь . :thanx:


Top
 Profile E-mail  
 
 
PostPosted: 31 Jul 2011 
Прокъмитолист
User avatar
Joined: 12 Aug 2007
Posts: 6504
Lоcаtion: Санктъ-Петербуркъ
Age: 51
Name: Олекъ
отлично :drink:

_________________
прокъметол - это музыко, от которово есть прок (ы)


Top
 Profile  
 
Display posts from previous:  Sort by  
Post new topic Reply to topic  [ 9 posts ] 

All times are UTC + 3 hours


Who is online

Users browsing this forum: No registered users and 1 guest


You cannot post new topics in this forum
You cannot reply to topics in this forum
You cannot edit your posts in this forum
You cannot delete your posts in this forum
You cannot post attachments in this forum

Search for:
Яндекс.Метрика
Powered by phpBB © 2000, 2002, 2005, 2007 phpBB Group