\m/ 80's metal \m/

Информационно-аналитический форум "80 см пыли" (In Search We Trust) "У нас никто никуда не спешит"
Me For You - http://me-4u.com
It is currently 11 Dec 2018

All times are UTC + 3 hours

Spoiler
Chat - temporary registration for foreign users (please leave your application here)







Post new topic Reply to topic  [ 17 posts ] 
Author Message
 
PostPosted: 29 Jun 2009 
Прокъмитолист
User avatar
Joined: 12 Aug 2007
Posts: 6512
Lоcаtion: Санктъ-Петербуркъ
Age: 51
Name: Олекъ
Время от времени попадаются настолько косячные лоси, что их прослушивание доставляет реальный дискомфорт. Самым последним таким лосем у меня был Quartz - Satan's Serenade. Да простит меня Анатолий: совершенно не ставлю своей целью упрекнуть его во впаривании нам туфты. Очевидно, что он сграбил этих лосей с болванок - единственного источника, которым располагал. Причем сделал это совершенно корректно, что избавило рипы от дополнительных косяков.

Я всегда сначала проверяю рип на совпадение по базе freedb (по идентификатору discID, который берем из куя): http://www.freedb.org/freedb_discid_check.php (и, как правило, диск там всегда находится). В данном случае, в базе ни один из двух дисков по discID не нашелся, зато поиск по имени их нашел - но с совершенно другими идентификаторами и общей продолжительностью диска. О чем нам это говорит? Пока что ни о чем: вполне возможно, что в базе просто содержатся сведения о других изданиях, а наше - оно другое. Прослушивание первого диска никаких слышимых артефактов не выявило - и хорошо. Но вот на втором диске, который является концертным, и где песни переходят одна в другую без зазоров, оказались вставлены двухсекундные паузы. Скорее всего, эта копия записывалась в Неро из отдельных файлов, где эти самые две секунды вставляются по умолчанию.

Давайте попробуем проверить это предположение. Очень полезно воспользоваться ресурсом Cuesheet Heaven. Находим там интересующий нас альбом и копируем оттуда куй (который генерируется по данным базы freedb):

1. куй эталонный с куевых небес
    PERFORMER "Quartz"
    TITLE "Satan's Serenade (The Anthology) [Disc 2]"
    FILE "Quartz - Satan's Serenade (The Anthology) [Disc 2].mp3" MP3
    TRACK 01 AUDIO
    TITLE "Street Fighting Lady"
    INDEX 01 00:00:00
    TRACK 02 AUDIO
    TITLE "Goodtime Tonight"
    INDEX 01 04:31:07
    TRACK 03 AUDIO
    TITLE "Mainline Rider"
    INDEX 01 08:10:13
    TRACK 04 AUDIO
    TITLE "Belinda"
    INDEX 01 12:10:71
    TRACK 05 AUDIO
    TITLE "Birdman"
    INDEX 01 17:58:50
    TRACK 06 AUDIO
    TITLE "Around And Around"
    INDEX 01 23:04:32
    TRACK 07 AUDIO
    TITLE "Roll Over Beethoven"
    INDEX 01 28:33:25
    TRACK 08 AUDIO
    TITLE "Count Dracula"
    INDEX 01 34:22:28
    TRACK 09 AUDIO
    TITLE "The Hustler"
    INDEX 01 43:11:37
    TRACK 10 AUDIO
    TITLE "Born To Rock The Nation"
    INDEX 01 47:40:70
    TRACK 11 AUDIO
    TITLE "Jailbait"
    INDEX 01 50:13:38
    TRACK 12 AUDIO
    TITLE "Nantucket Sleighride"
    INDEX 01 54:38:13
    TRACK 13 AUDIO
    TITLE "Pleasure Seekers"
    INDEX 01 59:58:11
    TRACK 14 AUDIO
    TITLE "Circles"
    INDEX 01 64:24:13
    TRACK 15 AUDIO
    TITLE "Walking On Holy Water"
    INDEX 01 68:04:48
    TRACK 16 AUDIO
    TITLE "Bloody Fool"
    INDEX 01 74:18:11

Сравниваем его с куем, имеющимся у нас, и убеждаемся, что с каждым трэком набегает разница как раз в 2 секунды:

2. куй исходный
    PERFORMER "Quartz"
    TITLE "Satan's Serenade: The Quartz Anthology CD2"
    FILE "Quartz-04-2.wav" WAVE
    TRACK 01 AUDIO
    TITLE "Street Fighting Lady"
    PERFORMER "Quartz"
    ISRC 000000000000
    INDEX 01 00:00:00
    TRACK 02 AUDIO
    TITLE "Goodtime Tonight"
    PERFORMER "Quartz"
    ISRC 000000000000
    INDEX 01 04:33:07
    TRACK 03 AUDIO
    TITLE "Mainline Rider"
    PERFORMER "Quartz"
    ISRC 000000000000
    INDEX 01 08:14:13
    TRACK 04 AUDIO
    TITLE "Belinda"
    PERFORMER "Quartz"
    ISRC 000000000000
    INDEX 01 12:16:71
    TRACK 05 AUDIO
    TITLE "Birdman"
    PERFORMER "Quartz"
    ISRC 000000000000
    INDEX 01 18:06:50
    TRACK 06 AUDIO
    TITLE "Around And Around"
    PERFORMER "Quartz"
    ISRC 000000000000
    INDEX 01 23:14:32
    TRACK 07 AUDIO
    TITLE "Roll Over Beethoven"
    PERFORMER "Quartz"
    ISRC 000000000000
    INDEX 01 28:45:25
    TRACK 08 AUDIO
    TITLE "Count Dracula"
    PERFORMER "Quartz"
    ISRC 000000000000
    INDEX 01 34:36:28
    TRACK 09 AUDIO
    TITLE "The Hustler"
    PERFORMER "Quartz"
    ISRC 000000000000
    INDEX 01 43:27:37
    TRACK 10 AUDIO
    TITLE "Born To Rock The Nation"
    PERFORMER "Quartz"
    ISRC 000000000000
    INDEX 01 47:58:70
    TRACK 11 AUDIO
    TITLE "Jailbait"
    PERFORMER "Quartz"
    ISRC 000000000000
    INDEX 01 50:33:38
    TRACK 12 AUDIO
    TITLE "Nantucket Sleighride"
    PERFORMER "Quartz"
    ISRC 000000000000
    INDEX 01 55:00:13
    TRACK 13 AUDIO
    TITLE "Pleasure Seekers"
    PERFORMER "Quartz"
    ISRC 000000000000
    INDEX 01 60:22:11
    TRACK 14 AUDIO
    TITLE "Circles"
    PERFORMER "Quartz"
    ISRC 000000000000
    INDEX 01 64:46:30
    TRACK 15 AUDIO
    TITLE "Walking On Holy Water"
    PERFORMER "Quartz"
    ISRC 000000000000
    INDEX 01 68:27:18
    TRACK 16 AUDIO
    TITLE "Bloody Fool"
    PERFORMER "Quartz"
    ISRC 000000000000
    INDEX 01 74:40:30

Берем наш исходный куй, в котором присутствуют только индексы 01, и вставляем во всех трэках (кроме первого) индексы 00, отстоящие на 2 секунды (и заодно стираем строчки ISRC 000000000000, смысла в которых именно столько, сколько они указывают):

3. куй с нулевыми индексами
    PERFORMER "Quartz"
    TITLE "Satan's Serenade: The Quartz Anthology CD2"
    FILE "Quartz-04-2.wav" WAVE
    TRACK 01 AUDIO
    TITLE "Street Fighting Lady"
    PERFORMER "Quartz"
    INDEX 01 00:00:00
    TRACK 02 AUDIO
    TITLE "Goodtime Tonight"
    PERFORMER "Quartz"
    INDEX 00 04:31:07
    INDEX 01 04:33:07
    TRACK 03 AUDIO
    TITLE "Mainline Rider"
    PERFORMER "Quartz"
    INDEX 00 08:12:13
    INDEX 01 08:14:13
    TRACK 04 AUDIO
    TITLE "Belinda"
    PERFORMER "Quartz"
    INDEX 00 12:14:71
    INDEX 01 12:16:71
    TRACK 05 AUDIO
    TITLE "Birdman"
    PERFORMER "Quartz"
    INDEX 00 18:04:50
    INDEX 01 18:06:50
    TRACK 06 AUDIO
    TITLE "Around And Around"
    PERFORMER "Quartz"
    INDEX 00 23:12:32
    INDEX 01 23:14:32
    TRACK 07 AUDIO
    TITLE "Roll Over Beethoven"
    PERFORMER "Quartz"
    INDEX 00 28:43:25
    INDEX 01 28:45:25
    TRACK 08 AUDIO
    TITLE "Count Dracula"
    PERFORMER "Quartz"
    INDEX 00 34:34:28
    INDEX 01 34:36:28
    TRACK 09 AUDIO
    TITLE "The Hustler"
    PERFORMER "Quartz"
    INDEX 00 43:25:37
    INDEX 01 43:27:37
    TRACK 10 AUDIO
    TITLE "Born To Rock The Nation"
    PERFORMER "Quartz"
    INDEX 00 47:56:70
    INDEX 01 47:58:70
    TRACK 11 AUDIO
    TITLE "Jailbait"
    PERFORMER "Quartz"
    INDEX 00 50:31:38
    INDEX 01 50:33:38
    TRACK 12 AUDIO
    TITLE "Nantucket Sleighride"
    PERFORMER "Quartz"
    INDEX 00 54:58:13
    INDEX 01 55:00:13
    TRACK 13 AUDIO
    TITLE "Pleasure Seekers"
    PERFORMER "Quartz"
    INDEX 00 60:20:11
    INDEX 01 60:22:11
    TRACK 14 AUDIO
    TITLE "Circles"
    PERFORMER "Quartz"
    INDEX 00 64:44:30
    INDEX 01 64:46:30
    TRACK 15 AUDIO
    TITLE "Walking On Holy Water"
    PERFORMER "Quartz"
    INDEX 00 68:25:18
    INDEX 01 68:27:18
    TRACK 16 AUDIO
    TITLE "Bloody Fool"
    PERFORMER "Quartz"
    INDEX 00 74:38:30
    INDEX 01 74:40:30

Наверное заметили уже, что я сразу откорректировал имя файла в куе (чтобы он соответствовал моему ваву)? Теперь режем наш вав на трэки с помощью EAC (и с помощью нового отредактированного CUE файла): Tools - Split WAV By CUE Sheet - Leave Out Gaps (т.е. выкидываем зазоры). Получаем отдельные трэки в формате WAV и файл CUE с пометкой "cutted":

4. куй порезанный
    PERFORMER "Quartz"
    TITLE "Satan's Serenade: The Quartz Anthology CD2"
    FILE "01 Street Fighting Lady.wav" WAVE
    TRACK 01 AUDIO
    TITLE "Street Fighting Lady"
    PERFORMER "Quartz"
    INDEX 01 00:00:00
    FILE "02 Goodtime Tonight.wav" WAVE
    TRACK 02 AUDIO
    TITLE "Goodtime Tonight"
    PERFORMER "Quartz"
    PREGAP 00:02:00
    INDEX 01 00:00:00
    FILE "03 Mainline Rider.wav" WAVE
    TRACK 03 AUDIO
    TITLE "Mainline Rider"
    PERFORMER "Quartz"
    PREGAP 00:02:00
    INDEX 01 00:00:00
    FILE "04 Belinda.wav" WAVE
    TRACK 04 AUDIO
    TITLE "Belinda"
    PERFORMER "Quartz"
    PREGAP 00:02:00
    INDEX 01 00:00:00
    FILE "05 Birdman.wav" WAVE
    TRACK 05 AUDIO
    TITLE "Birdman"
    PERFORMER "Quartz"
    PREGAP 00:02:00
    INDEX 01 00:00:00
    FILE "06 Around And Around.wav" WAVE
    TRACK 06 AUDIO
    TITLE "Around And Around"
    PERFORMER "Quartz"
    PREGAP 00:02:00
    INDEX 01 00:00:00
    FILE "07 Roll Over Beethoven.wav" WAVE
    TRACK 07 AUDIO
    TITLE "Roll Over Beethoven"
    PERFORMER "Quartz"
    PREGAP 00:02:00
    INDEX 01 00:00:00
    FILE "08 Count Dracula.wav" WAVE
    TRACK 08 AUDIO
    TITLE "Count Dracula"
    PERFORMER "Quartz"
    PREGAP 00:02:00
    INDEX 01 00:00:00
    FILE "09 The Hustler.wav" WAVE
    TRACK 09 AUDIO
    TITLE "The Hustler"
    PERFORMER "Quartz"
    PREGAP 00:02:00
    INDEX 01 00:00:00
    FILE "10 Born To Rock The Nation.wav" WAVE
    TRACK 10 AUDIO
    TITLE "Born To Rock The Nation"
    PERFORMER "Quartz"
    PREGAP 00:02:00
    INDEX 01 00:00:00
    FILE "11 Jailbait.wav" WAVE
    TRACK 11 AUDIO
    TITLE "Jailbait"
    PERFORMER "Quartz"
    PREGAP 00:02:00
    INDEX 01 00:00:00
    FILE "12 Nantucket Sleighride.wav" WAVE
    TRACK 12 AUDIO
    TITLE "Nantucket Sleighride"
    PERFORMER "Quartz"
    PREGAP 00:02:00
    INDEX 01 00:00:00
    FILE "13 Pleasure Seekers.wav" WAVE
    TRACK 13 AUDIO
    TITLE "Pleasure Seekers"
    PERFORMER "Quartz"
    PREGAP 00:02:00
    INDEX 01 00:00:00
    FILE "14 Circles.wav" WAVE
    TRACK 14 AUDIO
    TITLE "Circles"
    PERFORMER "Quartz"
    PREGAP 00:02:00
    INDEX 01 00:00:00
    FILE "15 Walking On Holy Water.wav" WAVE
    TRACK 15 AUDIO
    TITLE "Walking On Holy Water"
    PERFORMER "Quartz"
    PREGAP 00:02:00
    INDEX 01 00:00:00
    FILE "16 Bloody Fool.wav" WAVE
    TRACK 16 AUDIO
    TITLE "Bloody Fool"
    PERFORMER "Quartz"
    PREGAP 00:02:00
    INDEX 01 00:00:00

Удаляем из него все строчки PREGAP, чтобы уже окончательно избавиться от ненужных нам зазоров:

5. куй порезанный и без прегапов
    PERFORMER "Quartz"
    TITLE "Satan's Serenade: The Quartz Anthology CD2"
    FILE "01 Street Fighting Lady.wav" WAVE
    TRACK 01 AUDIO
    TITLE "Street Fighting Lady"
    PERFORMER "Quartz"
    INDEX 01 00:00:00
    FILE "02 Goodtime Tonight.wav" WAVE
    TRACK 02 AUDIO
    TITLE "Goodtime Tonight"
    PERFORMER "Quartz"
    INDEX 01 00:00:00
    FILE "03 Mainline Rider.wav" WAVE
    TRACK 03 AUDIO
    TITLE "Mainline Rider"
    PERFORMER "Quartz"
    INDEX 01 00:00:00
    FILE "04 Belinda.wav" WAVE
    TRACK 04 AUDIO
    TITLE "Belinda"
    PERFORMER "Quartz"
    INDEX 01 00:00:00
    FILE "05 Birdman.wav" WAVE
    TRACK 05 AUDIO
    TITLE "Birdman"
    PERFORMER "Quartz"
    INDEX 01 00:00:00
    FILE "06 Around And Around.wav" WAVE
    TRACK 06 AUDIO
    TITLE "Around And Around"
    PERFORMER "Quartz"
    INDEX 01 00:00:00
    FILE "07 Roll Over Beethoven.wav" WAVE
    TRACK 07 AUDIO
    TITLE "Roll Over Beethoven"
    PERFORMER "Quartz"
    INDEX 01 00:00:00
    FILE "08 Count Dracula.wav" WAVE
    TRACK 08 AUDIO
    TITLE "Count Dracula"
    PERFORMER "Quartz"
    INDEX 01 00:00:00
    FILE "09 The Hustler.wav" WAVE
    TRACK 09 AUDIO
    TITLE "The Hustler"
    PERFORMER "Quartz"
    INDEX 01 00:00:00
    FILE "10 Born To Rock The Nation.wav" WAVE
    TRACK 10 AUDIO
    TITLE "Born To Rock The Nation"
    PERFORMER "Quartz"
    INDEX 01 00:00:00
    FILE "11 Jailbait.wav" WAVE
    TRACK 11 AUDIO
    TITLE "Jailbait"
    PERFORMER "Quartz"
    INDEX 01 00:00:00
    FILE "12 Nantucket Sleighride.wav" WAVE
    TRACK 12 AUDIO
    TITLE "Nantucket Sleighride"
    PERFORMER "Quartz"
    INDEX 01 00:00:00
    FILE "13 Pleasure Seekers.wav" WAVE
    TRACK 13 AUDIO
    TITLE "Pleasure Seekers"
    PERFORMER "Quartz"
    INDEX 01 00:00:00
    FILE "14 Circles.wav" WAVE
    TRACK 14 AUDIO
    TITLE "Circles"
    PERFORMER "Quartz"
    INDEX 01 00:00:00
    FILE "15 Walking On Holy Water.wav" WAVE
    TRACK 15 AUDIO
    TITLE "Walking On Holy Water"
    PERFORMER "Quartz"
    INDEX 01 00:00:00
    FILE "16 Bloody Fool.wav" WAVE
    TRACK 16 AUDIO
    TITLE "Bloody Fool"
    PERFORMER "Quartz"
    INDEX 01 00:00:00

Теперь давайте возьмем в руки CUETools и соберем наши отдельные трэки (используя отредактированный куй) в новый образ. Хорошо бы еще проверить полученный набор файлов по базе AccurateRip. Наверняка болванка уже имела смещение, а значит те 2 секунды, которые мы вырезали между трэками, зацепили либо кусочек из конца одного трэка, либо кусочек из начала другого. Если бы этот альбом нашелся в базе, но с другим оффсетом, тогда можно было бы сначала "подвинуть" исходный рип на требуемое количество сэмплов, а только потом уже резать. Но, увы, этого диска в базе не нашлось, так что придется довольствоваться тем, что имеем. Собираем образ и получаем новый куй:

6. куй пробный для нового образа
    REM ACCURATERIPID 002de93b-0229c46c-d1122e10
    PERFORMER "Quartz"
    TITLE "Satan's Serenade: The Quartz Anthology CD2"
    FILE "Quartz-04-2-cutted-New.wav" WAVE
    TRACK 01 AUDIO
    TITLE "Street Fighting Lady"
    PERFORMER "Quartz"
    INDEX 01 00:00:00
    TRACK 02 AUDIO
    TITLE "Goodtime Tonight"
    PERFORMER "Quartz"
    INDEX 01 04:31:07
    TRACK 03 AUDIO
    TITLE "Mainline Rider"
    PERFORMER "Quartz"
    INDEX 01 08:10:13
    TRACK 04 AUDIO
    TITLE "Belinda"
    PERFORMER "Quartz"
    INDEX 01 12:10:71
    TRACK 05 AUDIO
    TITLE "Birdman"
    PERFORMER "Quartz"
    INDEX 01 17:58:50
    TRACK 06 AUDIO
    TITLE "Around And Around"
    PERFORMER "Quartz"
    INDEX 01 23:04:32
    TRACK 07 AUDIO
    TITLE "Roll Over Beethoven"
    PERFORMER "Quartz"
    INDEX 01 28:33:25
    TRACK 08 AUDIO
    TITLE "Count Dracula"
    PERFORMER "Quartz"
    INDEX 01 34:22:28
    TRACK 09 AUDIO
    TITLE "The Hustler"
    PERFORMER "Quartz"
    INDEX 01 43:11:37
    TRACK 10 AUDIO
    TITLE "Born To Rock The Nation"
    PERFORMER "Quartz"
    INDEX 01 47:40:70
    TRACK 11 AUDIO
    TITLE "Jailbait"
    PERFORMER "Quartz"
    INDEX 01 50:13:38
    TRACK 12 AUDIO
    TITLE "Nantucket Sleighride"
    PERFORMER "Quartz"
    INDEX 01 54:38:13
    TRACK 13 AUDIO
    TITLE "Pleasure Seekers"
    PERFORMER "Quartz"
    INDEX 01 59:58:11
    TRACK 14 AUDIO
    TITLE "Circles"
    PERFORMER "Quartz"
    INDEX 01 64:20:30
    TRACK 15 AUDIO
    TITLE "Walking On Holy Water"
    PERFORMER "Quartz"
    INDEX 01 67:59:18
    TRACK 16 AUDIO
    TITLE "Bloody Fool"
    PERFORMER "Quartz"
    INDEX 01 74:10:30

Если мы сравним теперь этот куй с образцом (№1), то увидим, что индексы у трех последних трэков по-прежнему не совпадают - наши трэки получились короче, чем надо (и discID также не совпадает с базой). "Что опять за хрень?" - спросите вы. По всей видимости, болванка и правда записывалась Нерой, которая очень "славится" не только вставкой 2-х секунд, но также удалением из файлов первоначальных зазоров. Имея перед глазами образец, мы можем легко восстановить теперь эти первоначальные зазоры.

Я надеюсь, несколько простых арифметических подсчетов не составят труда (главное помнить, что в минуте 60 секунд, а в секунде 75 кадров)? Так, если индекс 14-го трэка у нас равен 64:20:30, а нам надо получить 64:24:13, то мы должны вставить прегап длительностью 00:03:58. К 15-му трэку набегает разница в 00:05:30 - значит нам нужен прегап 00:01:47 (5:30 - 3:58). К 16-му - 00:07:56 - прегап 00:02:26. Вставляем эти прегапы в наш потрэковый куй:

7. куй с дополнительными прегапами
    PERFORMER "Quartz"
    TITLE "Satan's Serenade: The Quartz Anthology CD2"
    FILE "01 Street Fighting Lady.wav" WAVE
    TRACK 01 AUDIO
    TITLE "Street Fighting Lady"
    PERFORMER "Quartz"
    INDEX 01 00:00:00
    FILE "02 Goodtime Tonight.wav" WAVE
    TRACK 02 AUDIO
    TITLE "Goodtime Tonight"
    PERFORMER "Quartz"
    INDEX 01 00:00:00
    FILE "03 Mainline Rider.wav" WAVE
    TRACK 03 AUDIO
    TITLE "Mainline Rider"
    PERFORMER "Quartz"
    INDEX 01 00:00:00
    FILE "04 Belinda.wav" WAVE
    TRACK 04 AUDIO
    TITLE "Belinda"
    PERFORMER "Quartz"
    INDEX 01 00:00:00
    FILE "05 Birdman.wav" WAVE
    TRACK 05 AUDIO
    TITLE "Birdman"
    PERFORMER "Quartz"
    INDEX 01 00:00:00
    FILE "06 Around And Around.wav" WAVE
    TRACK 06 AUDIO
    TITLE "Around And Around"
    PERFORMER "Quartz"
    INDEX 01 00:00:00
    FILE "07 Roll Over Beethoven.wav" WAVE
    TRACK 07 AUDIO
    TITLE "Roll Over Beethoven"
    PERFORMER "Quartz"
    INDEX 01 00:00:00
    FILE "08 Count Dracula.wav" WAVE
    TRACK 08 AUDIO
    TITLE "Count Dracula"
    PERFORMER "Quartz"
    INDEX 01 00:00:00
    FILE "09 The Hustler.wav" WAVE
    TRACK 09 AUDIO
    TITLE "The Hustler"
    PERFORMER "Quartz"
    INDEX 01 00:00:00
    FILE "10 Born To Rock The Nation.wav" WAVE
    TRACK 10 AUDIO
    TITLE "Born To Rock The Nation"
    PERFORMER "Quartz"
    INDEX 01 00:00:00
    FILE "11 Jailbait.wav" WAVE
    TRACK 11 AUDIO
    TITLE "Jailbait"
    PERFORMER "Quartz"
    INDEX 01 00:00:00
    FILE "12 Nantucket Sleighride.wav" WAVE
    TRACK 12 AUDIO
    TITLE "Nantucket Sleighride"
    PERFORMER "Quartz"
    INDEX 01 00:00:00
    FILE "13 Pleasure Seekers.wav" WAVE
    TRACK 13 AUDIO
    TITLE "Pleasure Seekers"
    PERFORMER "Quartz"
    INDEX 01 00:00:00
    FILE "14 Circles.wav" WAVE
    TRACK 14 AUDIO
    TITLE "Circles"
    PERFORMER "Quartz"
    PREGAP 00:03:58
    INDEX 01 00:00:00
    FILE "15 Walking On Holy Water.wav" WAVE
    TRACK 15 AUDIO
    TITLE "Walking On Holy Water"
    PERFORMER "Quartz"
    PREGAP 00:01:47
    INDEX 01 00:00:00
    FILE "16 Bloody Fool.wav" WAVE
    TRACK 16 AUDIO
    TITLE "Bloody Fool"
    PERFORMER "Quartz"
    PREGAP 00:02:26
    INDEX 01 00:00:00

Собираем образ с этим куем - получаем окончательный результат:

8. куй для образа окончательный
    REM ACCURATERIPID 002df075-022a3686-d9123610
    PERFORMER "Quartz"
    TITLE "Satan's Serenade: The Quartz Anthology CD2"
    FILE "Quartz-04-2-cutted-New.wav" WAVE
    TRACK 01 AUDIO
    TITLE "Street Fighting Lady"
    PERFORMER "Quartz"
    INDEX 01 00:00:00
    TRACK 02 AUDIO
    TITLE "Goodtime Tonight"
    PERFORMER "Quartz"
    INDEX 01 04:31:07
    TRACK 03 AUDIO
    TITLE "Mainline Rider"
    PERFORMER "Quartz"
    INDEX 01 08:10:13
    TRACK 04 AUDIO
    TITLE "Belinda"
    PERFORMER "Quartz"
    INDEX 01 12:10:71
    TRACK 05 AUDIO
    TITLE "Birdman"
    PERFORMER "Quartz"
    INDEX 01 17:58:50
    TRACK 06 AUDIO
    TITLE "Around And Around"
    PERFORMER "Quartz"
    INDEX 01 23:04:32
    TRACK 07 AUDIO
    TITLE "Roll Over Beethoven"
    PERFORMER "Quartz"
    INDEX 01 28:33:25
    TRACK 08 AUDIO
    TITLE "Count Dracula"
    PERFORMER "Quartz"
    INDEX 01 34:22:28
    TRACK 09 AUDIO
    TITLE "The Hustler"
    PERFORMER "Quartz"
    INDEX 01 43:11:37
    TRACK 10 AUDIO
    TITLE "Born To Rock The Nation"
    PERFORMER "Quartz"
    INDEX 01 47:40:70
    TRACK 11 AUDIO
    TITLE "Jailbait"
    PERFORMER "Quartz"
    INDEX 01 50:13:38
    TRACK 12 AUDIO
    TITLE "Nantucket Sleighride"
    PERFORMER "Quartz"
    INDEX 01 54:38:13
    TRACK 13 AUDIO
    TITLE "Pleasure Seekers"
    PERFORMER "Quartz"
    INDEX 01 59:58:11
    TRACK 14 AUDIO
    TITLE "Circles"
    PERFORMER "Quartz"
    INDEX 00 64:20:30
    INDEX 01 64:24:13
    TRACK 15 AUDIO
    TITLE "Walking On Holy Water"
    PERFORMER "Quartz"
    INDEX 00 68:03:01
    INDEX 01 68:04:48
    TRACK 16 AUDIO
    TITLE "Bloody Fool"
    PERFORMER "Quartz"
    INDEX 00 74:15:60
    INDEX 01 74:18:11

Теперь с базой freedb совпадают и индексы, и discID. Осталось только прослушать полученного лося и убедиться в том, что теперь это делать гораздо приятнее. :umnik:

_________________
прокъметол - это музыко, от которово есть прок (ы)


Last edited by spiralarch on 29 Jun 2009, edited 2 times in total.

Top
 Profile  
 
 
PostPosted: 29 Jun 2009 
хард н хэвщик (support team)
User avatar
Joined: 02 Jun 2008
Posts: 16880
Lоcаtion: Н.Новгород
Age: 31
Name: Артем
а проделав всё это (затратив немалое количество времени), записать альбом на ДВД-болванку вместе с 15 другими альбомами, кинуть на пыльную антресольку к сотне других ДВД-болванок и навсегда забыть о существовании альбома Quartz и никогда более ни разу не возвращаясь к его прослушиванию. :dance: :true:


Top
 Profile  
 
 
PostPosted: 29 Jun 2009 
Прокъмитолист
User avatar
Joined: 12 Aug 2007
Posts: 6512
Lоcаtion: Санктъ-Петербуркъ
Age: 51
Name: Олекъ
McKagan wrote:
а проделав всё это (затратив немалое количество времени), записать альбом на ДВД-болванку вместе с 15 другими альбомами, кинуть на пыльную антресольку к сотне других ДВД-болванок и навсегда забыть о существовании альбома Quartz и никогда более ни разу не возвращаясь к его прослушиванию.

заметьте: не я это предложил :crazy:

_________________
прокъметол - это музыко, от которово есть прок (ы)


Top
 Profile  
 
 
PostPosted: 29 Jun 2009 
.
User avatar
Joined: 25 Aug 2007
Posts: 568
Lоcаtion: Москва
Age: 106
Name: Kostolom
McKagan wrote:
а проделав всё это (затратив немалое количество времени), записать альбом на ДВД-болванку вместе с 15 другими альбомами, кинуть на пыльную антресольку к сотне других ДВД-болванок и навсегда забыть о существовании альбома Quartz и никогда более ни разу не возвращаясь к его прослушиванию. :dance: :true:

:nunu: Да, забавный комментарий.
Что не мешает сказать большое спасибо Олегу за его весьма полезный труд и топик. Надо будет всё-таки осилить эту науку о зазорах, смещениях и прегапах. :smile:


Top
 Profile  
 
 
PostPosted: 29 Jun 2009 
хард н хэвщик (support team)
User avatar
Joined: 02 Jun 2008
Posts: 16880
Lоcаtion: Н.Новгород
Age: 31
Name: Артем
Kostolom wrote:
Да, забавный комментарий.

не, ну серьезно - прочитав весь этот манускрипт, я подумал - а кому оно вообще надо кроме Олега? :vic:


Top
 Profile  
 
 
PostPosted: 29 Jun 2009 
Прокъмитолист
User avatar
Joined: 12 Aug 2007
Posts: 6512
Lоcаtion: Санктъ-Петербуркъ
Age: 51
Name: Олекъ
McKagan wrote:
кому оно вообще надо

ну в чем-то ты конечно прав, Артем... кому-то проще снести нафиг такого лося - и забыть. ну а представь, что альбом редкий и тебе, с одной стороны, жалко его удалять, а с другой - слушать в таком виде тоже невозможно. почему бы не заморочиться немного для себя?

а так, конечно, да. лучше качать только проверенных лосей из проверенных источников - экономит время и нервы ;)

_________________
прокъметол - это музыко, от которово есть прок (ы)


Top
 Profile  
 
 
PostPosted: 29 Jun 2009 
Персональный статус
User avatar
Joined: 02 Feb 2009
Posts: 236
Lоcаtion: Тульская область
Age: 52
Name: Владимир
McKagan wrote:
я подумал - а кому оно вообще надо кроме Олега?

Кроме Олега оно надо еще и тем кто делает из лосей аудио ЦД к коим отношу и себя. У меня не хватит терпения слушать диск на котором явно все не так и это не так проступает через каждые 4 минуты. Поэтому считаю пост очень необходимым для дальнейшего повышения уровня образованности.

Спасибо Олег, конечно замысловато, но иногда имеет смысл. Косяки такого плана попадали только один раз, но привели к тому что диск (а такую бяку привезли на диске и покупали как лицензию в Москве) я кому то подарил а себе скачал с инета нормальный вариант.

_________________
http://img254.imageshack.us/img254/1015 ... 743574.gif
http://img140.imageshack.us/img140/7192 ... arlogo.jpg


Top
 Profile  
 
 
PostPosted: 29 Jun 2009 
Хиппей (support team)
User avatar
Joined: 30 Jul 2007
Posts: 108817
Lоcаtion: Киев (Kyiv, UA)
Age: 45
Name: Andrey
Спасибо, пригодиццо :dance:

_________________


Top
 Profile E-mail  
 
 
PostPosted: 29 Jun 2009 
мiзантропъ
User avatar
Joined: 01 Aug 2007
Posts: 2248
Lоcаtion: UA
Age: 48
Name: Вася Пупкін
самое интересное - что делать, если диска нет ни в каких базах?)))

_________________
Image
Image
Too Little Much Too Late...


Top
 Profile  
 
 
PostPosted: 29 Jun 2009 
Хиппей (support team)
User avatar
Joined: 30 Jul 2007
Posts: 108817
Lоcаtion: Киев (Kyiv, UA)
Age: 45
Name: Andrey
Nevermore wrote:
что делать, если диска нет ни в каких базах?)))

Добавить его туда самому :true:

_________________


Top
 Profile E-mail  
 
 
PostPosted: 29 Jun 2009 
Прокъмитолист
User avatar
Joined: 12 Aug 2007
Posts: 6512
Lоcаtion: Санктъ-Петербуркъ
Age: 51
Name: Олекъ
Nevermore wrote:
что делать, если диска нет ни в каких базах?

если диска нет даже в базе фридиби (а она куда более всеоблемъюща, чем АР - в ней есть почти все), и даже если в куе нет нулевых индексов (которые могли бы помочь точно удалить лишнее), но ты явно слышишь, что присутствуют "лишние" две секунды, там где их не должно быть - можно попробовать вырезать эти зазоры на свой страх и риск. как правило, это всегда именно 2 секунды - их вставляют большинство писалок :pardon:

_________________
прокъметол - это музыко, от которово есть прок (ы)


Top
 Profile  
 
 
PostPosted: 30 Jun 2009 
Почётный металлург
User avatar
Joined: 15 Sep 2007
Posts: 4357
Lоcаtion: Хабаровск
Age: 58
Name: чуть выше
spiralarch wrote:
Теперь с базой freedb совпадают и индексы, и discID. Осталось только прослушать полученного лося и убедиться в том, что теперь это делать гораздо приятнее.

Олежа, ну и скинул бы его сюда. Освежил бы неправильные дохлые ссылки правильными. Будь так добр. :thanx:

_________________
Коль будешь людей ты ослами честить,
тебе человеком меж них не прослыть!
(Саади, персидский поэт, 13в.)


Top
 Profile  
 
 
PostPosted: 30 Jun 2009 
Прокъмитолист
User avatar
Joined: 12 Aug 2007
Posts: 6512
Lоcаtion: Санктъ-Петербуркъ
Age: 51
Name: Олекъ
Сереж, я бы с радостью, но такие объемы заливать не под силу. разве что в дц мог бы расшарить. но эта история на несколько дней растянется. подождать не проблема?

Андрюх, возьмешься утащить и перезалить? :oops:

_________________
прокъметол - это музыко, от которово есть прок (ы)


Top
 Profile  
 
 
PostPosted: 30 Jun 2009 
Хиппей (support team)
User avatar
Joined: 30 Jul 2007
Posts: 108817
Lоcаtion: Киев (Kyiv, UA)
Age: 45
Name: Andrey
spiralarch wrote:
утащить и перезалить?

Ага, ок :dance:

_________________


Top
 Profile E-mail  
 
 
PostPosted: 30 Jun 2009 
Почётный металлург
User avatar
Joined: 15 Sep 2007
Posts: 4357
Lоcаtion: Хабаровск
Age: 58
Name: чуть выше
spiralarch wrote:
разве что в дц мог бы расшарить. но эта история на несколько дней растянется. подождать не проблема?

:thanx: :thanx: :thanx:

_________________
Коль будешь людей ты ослами честить,
тебе человеком меж них не прослыть!
(Саади, персидский поэт, 13в.)


Top
 Profile  
 
 
PostPosted: 01 Jul 2009 
Анатолий
User avatar
Joined: 18 Oct 2008
Posts: 3243
Lоcаtion: Армавир
Age: 41
Name: Анатолий
spiralarch

Спасибо Олег!

Дело это БЕЗУСЛОВНО ОЧЕНЬ НУЖНОЕ И ПОЛЕЗНОЕ!

Проверю и я ту болванку. Поковыряюсь, интересно всё ж таки.


Top
 Profile E-mail  
 
 
PostPosted: 14 Oct 2010 
Персональный статус
User avatar
Joined: 29 Jan 2009
Posts: 265
Lоcаtion: Таллин, Эстония.
Age: 31
Name: Роман Юрич
Самый простой и надёжный вариант : распаковать лося в ВАВ, а затем распилить в ручную в редакторе вроде Sound Forge. Или проставить маркеры, а по позициям маркеров прописать нужные значения в куе.

_________________
Death The Ultimate Reality
Death The Ultimate Reason To Live


Top
 Profile  
 
Display posts from previous:  Sort by  
Post new topic Reply to topic  [ 17 posts ] 

All times are UTC + 3 hours


Who is online

Users browsing this forum: No registered users and 2 guests


You cannot post new topics in this forum
You cannot reply to topics in this forum
You cannot edit your posts in this forum
You cannot delete your posts in this forum
You cannot post attachments in this forum

Search for:
Яндекс.Метрика
Powered by phpBB © 2000, 2002, 2005, 2007 phpBB Group