\m/ 80's metal \m/

Информационно-аналитический форум "80 см пыли" (In Search We Trust) "У нас никто никуда не спешит"
Me For You - http://me-4u.com
It is currently 21 Nov 2018

All times are UTC + 3 hours

Spoiler
Chat - temporary registration for foreign users (please leave your application here)







Post new topic Reply to topic  [ 26 posts ]  Go to page 1, 2  Next
Author Message
 
PostPosted: 19 May 2009 
Прокъмитолист
User avatar
Joined: 12 Aug 2007
Posts: 6504
Lоcаtion: Санктъ-Петербуркъ
Age: 51
Name: Олекъ
Уже частенько звучали вопросы о том, как можно записать двух (или больше) лосей на один диск. Я, честно сказать, никогда серьезно не разбирался с этим вопросом, т.к. считал это совершенно бесполезным делом. Ведь мы получаем уже не точную копию диска, а по сути сборник - так не все ли равно, как и чем этот сборник записывать? Проще всего порезать все на трэки и запихать их на болванку столько, сколько поместится.

Но качнул тут недавно несколько старых (и очень ностальгических) альбомов Matia Bazar... и пришла мне в голову как раз именно такая идея: а не записать ли их по два на диск? Как бы вещь не слишком важная, так зачем же болванки зазря переводить? Все оказалось очень просто, надеюсь, что это пригодится еще кому-нибудь.

Итак, берем двух не слишком жирных лосей (чтобы поместились на одну болванку), распаковываем их в wav и помещаем полученные вавы с куями в одну папку. В моем эксперименте любезно согласились поучаствовать два миника группы Anthem. Я всегда переименовываю лосей покороче, так что в итоге мы имеем два таких файла: Anthem-02.wav и Anthem-04.wav. Открываем первый куй и редактируем его:

Quote:
    REM GENRE "Heavy Metal"
    REM DATE 2002
    REM DISCID 2102E303
    REM COMMENT "ExactAudioCopy v0.95b4"

    PERFORMER "Anthem"
    TITLE "The Voices + Onslaught"
    FILE "Anthem-02.wav" WAVE
    TRACK 01 AUDIO
    TITLE "The Voices"
    PERFORMER "Anthem"
    INDEX 01 00:00:00
    TRACK 02 AUDIO
    TITLE "Rough And Wild"
    PERFORMER "Anthem"
    INDEX 01 03:47:25
    TRACK 03 AUDIO
    TITLE "Lady Jade"
    PERFORMER "Anthem"
    INDEX 01 07:55:63

Во-первых, стираем строчки со вспомогательной информацией, которая уже не будет актуальной для нашего диска (год, discID и т.п.). Во-вторых, правим название диска, т.к. теперь здесь будет два альбома. И разумеется, приводим название файла в соответствие с нашим первым вавом.

Открываем второй куй и точно так же правим там название второго вав файла:

Quote:
    REM GENRE "Heavy Metal"
    REM DATE 2004
    REM DISCID 12036203
    REM COMMENT "ExactAudioCopy v0.95b4"
    PERFORMER "Anthem"
    TITLE "Onslaught"

    FILE "Anthem-04.wav" WAVE
    TRACK 01 AUDIO
    TITLE "Onslaught"
    PERFORMER "Anthem"
    INDEX 01 00:00:00
    TRACK 02 AUDIO
    TITLE "Eternal Warrior"
    PERFORMER "Anthem"
    INDEX 00 05:12:00
    INDEX 01 05:12:10
    TRACK 03 AUDIO
    TITLE "Soul Cry"
    PERFORMER "Anthem"
    INDEX 00 10:18:09
    INDEX 01 10:18:13

Теперь копируем содержимое этого второго куя, начиная со строчки с именем файла и до самого конца - и вставляем скопированное в конец первого куя. Единственное, что нам нужно здесь еще сделать - это поправить номера трэков. Они должны идти по возрастающей, как и полагается:

Quote:
    PERFORMER "Anthem"
    TITLE "The Voices + Onslaught"
    FILE "Anthem-02.wav" WAVE
    TRACK 01 AUDIO
    TITLE "The Voices"
    PERFORMER "Anthem"
    INDEX 01 00:00:00
    TRACK 02 AUDIO
    TITLE "Rough And Wild"
    PERFORMER "Anthem"
    INDEX 01 03:47:25
    TRACK 03 AUDIO
    TITLE "Lady Jade"
    PERFORMER "Anthem"
    INDEX 01 07:55:63
    FILE "Anthem-04.wav" WAVE
    TRACK
    04 AUDIO
    TITLE "Onslaught"
    PERFORMER "Anthem"
    INDEX 01 00:00:00
    TRACK
    05 AUDIO
    TITLE "Eternal Warrior"
    PERFORMER "Anthem"
    INDEX 00 05:12:00
    INDEX 01 05:12:10
    TRACK
    06 AUDIO
    TITLE "Soul Cry"
    PERFORMER "Anthem"
    INDEX 00 10:18:09
    INDEX 01 10:18:13

Сохраняем полученный куй, загружаем его в EAC и пишем :ura: :pavlik: :ura:

_________________
прокъметол - это музыко, от которово есть прок (ы)


Last edited by spiralarch on 19 May 2009, edited 1 time in total.

Top
 Profile  
 
 
PostPosted: 19 May 2009 
udo
User avatar
Joined: 01 Mar 2008
Posts: 2343
Lоcаtion: Краснодар
Age: 47
Name: РОМАН
СПАСИБО. давно хотел спросить как это можно сделать


Top
 Profile E-mail  
 
 
PostPosted: 19 May 2009 
Я набрал 1000 сообщений!
User avatar
Joined: 25 Dec 2008
Posts: 1545
Age: 43
Name: Павел
Вот спасибо!


Top
 Profile  
 
 
PostPosted: 19 May 2009 
Power Metal Maniac
User avatar
Joined: 09 Aug 2008
Posts: 6366
Lоcаtion: Москва
Age: 40
Name: Егор
Вот, тоже хотел слить все накачанные лоси синглов Anthem в один. До того писал несколько лосей на один диск более сложным способом) :thanx:

_________________
Long Live Metal!


Top
 Profile  
 
 
PostPosted: 19 May 2009 
парень в очёчкXаX!
User avatar
Joined: 15 Aug 2007
Posts: 2353
Lоcаtion: UK'раина, г. ЛондАн Би-Би-Си
Age: 48
Name: Сергей
кстати, в своё время некоторые западные лейблы рубали такой ФЕТИШ как надо!!!
В основном это были старые и очень редкие записи еще с пластинок. Прописывались такие диски с пометкой 2LP in 1CD. Вообщето клево смотрелось. Но сейчас эта коллекторская фишка подзабыта, а зря............. :vic:


Top
 Profile  
 
 
PostPosted: 19 May 2009 
Персональный статус
User avatar
Joined: 02 Feb 2009
Posts: 236
Lоcаtion: Тульская область
Age: 52
Name: Владимир
Как всегда основательно, содержательно и доступно. Учиться, учиться и еще раз учиться как завещал великий... Спасибо!

_________________
http://img254.imageshack.us/img254/1015 ... 743574.gif
http://img140.imageshack.us/img140/7192 ... arlogo.jpg


Top
 Profile  
 
 
PostPosted: 19 May 2009 
мiзантропъ
User avatar
Joined: 01 Aug 2007
Posts: 2248
Lоcаtion: UA
Age: 48
Name: Вася Пупкін
браво!

_________________
Image
Image
Too Little Much Too Late...


Top
 Profile  
 
 
PostPosted: 20 May 2009 
Персональный статус
User avatar
Joined: 02 Feb 2009
Posts: 236
Lоcаtion: Тульская область
Age: 52
Name: Владимир
Вопрос возник, а какая длина паузы будет между 3 и 4 треком? Имею в виду ситуацию когда 3 трек резко кончится, а 4 так же резко начнется, будет совсем не к месту если пауза нулевая.

_________________
http://img254.imageshack.us/img254/1015 ... 743574.gif
http://img140.imageshack.us/img140/7192 ... arlogo.jpg


Top
 Profile  
 
 
PostPosted: 20 May 2009 
Хиппей (support team)
User avatar
Joined: 30 Jul 2007
Posts: 108243
Lоcаtion: Киев (Kyiv, UA)
Age: 45
Name: Andrey
Спасибо!
Но я пока по-старинке пишу лосей папками на двд-болванки :oops:

_________________


Top
 Profile E-mail  
 
 
PostPosted: 20 May 2009 
Прокъмитолист
User avatar
Joined: 12 Aug 2007
Posts: 6504
Lоcаtion: Санктъ-Петербуркъ
Age: 51
Name: Олекъ
crimson22 wrote:
а какая длина паузы будет между 3 и 4 треком?

Володя, тут все зависит от того, какой длины тишина идет в конце первого диска. она там, как правило, всегда есть, и иногда довольно значительная. если хочется вставить между альбомами тишины побольше (а это, в общем-то, имеет смысл - особенно если группы будут разные), то можно использовать специальный тэг PREGAP. выглядеть это будет вот так:

Quote:
    TRACK 03 AUDIO
    TITLE "Lady Jade"
    PERFORMER "Anthem"
    INDEX 01 07:55:63
    FILE "Anthem-04.wav" WAVE
    TRACK 04 AUDIO
    TITLE "Onslaught"
    PERFORMER "Anthem"
    PREGAP 00:02:00
    INDEX 01 00:00:00

в данном примере я вставил между двумя альбомами дополнительные две секунды тишины.

_________________
прокъметол - это музыко, от которово есть прок (ы)


Top
 Profile  
 
 
PostPosted: 20 May 2009 
Персональный статус
User avatar
Joined: 02 Feb 2009
Posts: 236
Lоcаtion: Тульская область
Age: 52
Name: Владимир
Ну что сказать Олег, теперь удовлетворен полностью и раз за целый день на работе по данной теме вопросов не возникло, то значица для меня она раскрыта полностью. Еще раз спасибо за такую нужную в нашем деле информацию!

Нет не все,не могу удержать свою скверную натуру чтобы не спросить - а ты еще чем нить занимаешься кроме как грабишь и сращиваешь лосей? :oops:

_________________
http://img254.imageshack.us/img254/1015 ... 743574.gif
http://img140.imageshack.us/img140/7192 ... arlogo.jpg


Top
 Profile  
 
 
PostPosted: 20 May 2009 
Прокъмитолист
User avatar
Joined: 12 Aug 2007
Posts: 6504
Lоcаtion: Санктъ-Петербуркъ
Age: 51
Name: Олекъ
crimson22 wrote:
ты еще чем нить занимаешься кроме как грабишь и сращиваешь лосей?

а как же. я их качаю еще :crazy:

_________________
прокъметол - это музыко, от которово есть прок (ы)


Top
 Profile  
 
 
PostPosted: 20 May 2009 
Хиппей (support team)
User avatar
Joined: 30 Jul 2007
Posts: 108243
Lоcаtion: Киев (Kyiv, UA)
Age: 45
Name: Andrey
А еще Олег лосиков разводит... в ослике :shok:

_________________


Top
 Profile E-mail  
 
 
PostPosted: 20 May 2009 
Персональный статус
User avatar
Joined: 02 Feb 2009
Posts: 236
Lоcаtion: Тульская область
Age: 52
Name: Владимир
spiralarch wrote:
а как же. я их качаю еще :crazy:


это вы еще и скромный какой, нет бы написал - я ими уже полинета забил, да и других научил, а он качаю... :true:

Scatterbrain wrote:
А еще Олег лосиков разводит... в ослике :shok:


Опередил , я тоже хотел поюродствовать на эту тему.

_________________
http://img254.imageshack.us/img254/1015 ... 743574.gif
http://img140.imageshack.us/img140/7192 ... arlogo.jpg


Top
 Profile  
 
 
PostPosted: 21 May 2009 
хард н хэвщик (support team)
User avatar
Joined: 02 Jun 2008
Posts: 16880
Lоcаtion: Н.Новгород
Age: 31
Name: Артем
Scatterbrain wrote:
лосиков разводит... в ослике

ослы, лоси.... а тем временем на аватаре у Олега - какой-то песец . Вот тебе , Олег, на выбор аватарка :oops:

Image Image


Top
 Profile  
 
 
PostPosted: 21 May 2009 
Прокъмитолист
User avatar
Joined: 12 Aug 2007
Posts: 6504
Lоcаtion: Санктъ-Петербуркъ
Age: 51
Name: Олекъ
McKagan wrote:
на выбор

эээмм... все же как-то "это песец" звучит получше, чем "это ослик" :crazy:
хотя, "лося давай" - прикольный :roll:

_________________
прокъметол - это музыко, от которово есть прок (ы)


Top
 Profile  
 
 
PostPosted: 21 May 2009 
хард н хэвщик (support team)
User avatar
Joined: 02 Jun 2008
Posts: 16880
Lоcаtion: Н.Новгород
Age: 31
Name: Артем
:true:


Top
 Profile  
 
 
PostPosted: 22 May 2009 
Почётный металлург
User avatar
Joined: 15 Sep 2007
Posts: 4357
Lоcаtion: Хабаровск
Age: 58
Name: чуть выше
spiralarch wrote:
"это песец" звучит получше, чем "это ослик"

Да, пора картинку с лосем искать и подписать: это лОссЛЕГ :smile: ;)
(сразу несколько зайцев убьёшь - лосслесс, лось, ослик, ну и Олег)

_________________
Коль будешь людей ты ослами честить,
тебе человеком меж них не прослыть!
(Саади, персидский поэт, 13в.)


Top
 Profile  
 
 
PostPosted: 22 May 2009 
Прокъмитолист
User avatar
Joined: 12 Aug 2007
Posts: 6504
Lоcаtion: Санктъ-Петербуркъ
Age: 51
Name: Олекъ
Sergey wrote:
сразу несколько зайцев убьёшь

не, нинада. пусть поживут :crazy:

_________________
прокъметол - это музыко, от которово есть прок (ы)


Top
 Profile  
 
 
PostPosted: 22 May 2009 
Alive Again
User avatar
Joined: 17 Dec 2008
Posts: 4744
Lоcаtion: Курск Воронеж Оскол
Age: 44
Name: Дмитрий
Делаю уже несколько лет, как советует spiralarch, но догадался сам :umnik: :crazy: :nunu: . Хорошая тема для всяких мини и ЕП, хотя один стандартный альбом на болванке, как-то больше нравится.
Олег, ты трейдингом раньше не занимался?


Top
 Profile E-mail  
 
Display posts from previous:  Sort by  
Post new topic Reply to topic  [ 26 posts ]  Go to page 1, 2  Next

All times are UTC + 3 hours


Who is online

Users browsing this forum: No registered users and 1 guest


You cannot post new topics in this forum
You cannot reply to topics in this forum
You cannot edit your posts in this forum
You cannot delete your posts in this forum
You cannot post attachments in this forum

Search for:
Яндекс.Метрика
Powered by phpBB © 2000, 2002, 2005, 2007 phpBB Group