\m/ 80's metal \m/

Информационно-аналитический форум "80 см пыли" (In Search We Trust) "У нас никто никуда не спешит"
Me For You - http://me-4u.com
It is currently 19 Oct 2018

All times are UTC + 3 hours

Spoiler
Chat - temporary registration for foreign users (please leave your application here)







Post new topic Reply to topic  [ 7 posts ] 
Author Message
 
PostPosted: 25 Sep 2012 
Персональный статус
User avatar
Joined: 02 Jul 2009
Posts: 293
Name: Александр
Может не в эту тему лезу .
Кто может написать правильный куй . Взял отсюда http://rutracker.org/forum/viewtopic.php?t=3750765
Ничего не получается . Как только не правил , всё одно ......... изначално выглядит так :
REM GENRE Metal
REM DATE 2000
REM DISCID BE0C2E0D
REM COMMENT "ExactAudioCopy v1.0b3"
PERFORMER "Motley Crue"
TITLE "New Tattoo (Japan Import) (Disc 1 - Album)"
FILE "Motley Crue - New Tattoo (Japan Import) (Disc 1 - Album).wav" WAVE
TRACK 01 AUDIO
TITLE "Hell On High Heels"
PERFORMER "Motley Crue"
INDEX 01 00:00:00
TRACK 02 AUDIO
TITLE "Treat Me Like The Dog I Am"
PERFORMER "Motley Crue"
INDEX 01 04:15:50
TRACK 03 AUDIO
TITLE "New Tattoo"
PERFORMER "Motley Crue"
INDEX 01 07:55:72
TRACK 04 AUDIO
TITLE "Dragstrip Superstar"
PERFORMER "Motley Crue"
INDEX 01 12:14:02
TRACK 05 AUDIO
TITLE "1st Band On The Moon"
PERFORMER "Motley Crue"
INDEX 01 16:36:30
TRACK 06 AUDIO
TITLE "She Needs Rock 'N' Roll"
PERFORMER "Motley Crue"
INDEX 01 21:01:60
TRACK 07 AUDIO
TITLE "Punched In The Teeth By Love"
PERFORMER "Motley Crue"
INDEX 01 25:01:54
TRACK 08 AUDIO
TITLE "Hollywood Ending"
PERFORMER "Motley Crue"
INDEX 01 28:34:42
TRACK 09 AUDIO
TITLE "Fake"
PERFORMER "Motley Crue"
INDEX 01 32:18:05
TRACK 10 AUDIO
TITLE "Porno Star"
PERFORMER "Motley Crue"
INDEX 01 36:02:55
TRACK 11 AUDIO
TITLE "White Punks On Dope"
PERFORMER "Motley Crue"
INDEX 01 39:48:02
TRACK 12 AUDIO
TITLE "1st Band On The Moon (Demo) (Bonus Track)"
PERFORMER "Motley Crue"
INDEX 01 43:27:37
TRACK 13 AUDIO
TITLE "Porno Star (Demo) (Bonus Track)"
PERFORMER "Motley Crue"
INDEX 01 48:00:60


Сам APE назывется Mötley Crüe - New Tattoo (Japan Import) (Disc 1 - Album)

Может из за этих ебу-х точек над буквами .
Помогите . Пожалуйста .


Top
 Profile E-mail  
 
 
PostPosted: 25 Sep 2012 
Персональный статус
User avatar
Joined: 02 Jul 2009
Posts: 293
Name: Александр
Блокнотом правил . Ничего ............... Херов тачку .


Top
 Profile E-mail  
 
 
PostPosted: 25 Sep 2012 
Персональный статус
User avatar
Joined: 02 Jul 2009
Posts: 293
Name: Александр
Всё . Отбой . Разобрался . Извините за беспокойство .


Top
 Profile E-mail  
 
 
PostPosted: 25 Sep 2012 
А может смените мне статус?..
User avatar
Joined: 25 Mar 2009
Posts: 583
Lоcаtion: Нижний Новгород
Age: 48
Name: Владимир
Ну расскажи, что да как, народу я думаю будет полезно....
кто то в будущем косяков избежит....


Top
 Profile  
 
 
PostPosted: 25 Sep 2012 
Прокъмитолист
User avatar
Joined: 12 Aug 2007
Posts: 6489
Lоcаtion: Санктъ-Петербуркъ
Age: 51
Name: Олекъ
дык все и так понятно. во-первых, были разные имена у имеющегося файла и прописанного в куе: с умляутами и расширением APE / без умляутов и с расширением WAV. ну и во-вторых, всегда советую избавляться от нестандартных символов в названиях файлов (буквы с умляутами в данном случае) - возможны проблемы.

_________________
прокъметол - это музыко, от которово есть прок (ы)


Top
 Profile  
 
 
PostPosted: 25 Sep 2012 
консэрваторъ
Joined: 11 Aug 2007
Posts: 16048
Lоcаtion: Псков
Age: 44
Name: Сергей
Тема перемещена в соответствующий раздел... Саша, пожалуйста, воздерживайся от уматовоэмоциональных сокращений...

_________________
THRASH 'EM ALL


Top
 Profile E-mail  
 
 
PostPosted: 26 Sep 2012 
Хиппей (support team)
User avatar
Joined: 30 Jul 2007
Posts: 107021
Lоcаtion: Киев (Kyiv, UA)
Age: 45
Name: Andrey
Позже темку объединим с похожими вопросами. Благо их таких было валом :pardon:

_________________


Top
 Profile E-mail  
 
Display posts from previous:  Sort by  
Post new topic Reply to topic  [ 7 posts ] 

All times are UTC + 3 hours


Who is online

Users browsing this forum: No registered users and 2 guests


You cannot post new topics in this forum
You cannot reply to topics in this forum
You cannot edit your posts in this forum
You cannot delete your posts in this forum
You cannot post attachments in this forum

Search for:
Яндекс.Метрика
cron
Powered by phpBB © 2000, 2002, 2005, 2007 phpBB Group