\m/ 80's metal \m/

Информационно-аналитический форум "80 см пыли" (In Search We Trust) "У нас никто никуда не спешит"
Me For You - http://me-4u.com
It is currently 21 Nov 2018

All times are UTC + 3 hours

Spoiler
Chat - temporary registration for foreign users (please leave your application here)







Post new topic Reply to topic  [ 21 posts ]  Go to page 1, 2  Next
Author Message
 
PostPosted: 09 Aug 2012 
***


Last edited by Вася_металлист_2012 on 14 Dec 2012, edited 2 times in total.

Top
  
 
 
PostPosted: 09 Aug 2012 
Хиппей (support team)
User avatar
Joined: 30 Jul 2007
Posts: 108243
Lоcаtion: Киев (Kyiv, UA)
Age: 45
Name: Andrey
Явно логи и куи обоих рипов не помешает показать :scratch:

_________________


Top
 Profile E-mail  
 
 
PostPosted: 09 Aug 2012 
***


Last edited by Вася_металлист_2012 on 14 Dec 2012, edited 1 time in total.

Top
  
 
 
PostPosted: 09 Aug 2012 
Хиппей (support team)
User avatar
Joined: 30 Jul 2007
Posts: 108243
Lоcаtion: Киев (Kyiv, UA)
Age: 45
Name: Andrey
Верю, но наглядный пример то виднее :umnik:

_________________


Top
 Profile E-mail  
 
 
PostPosted: 09 Aug 2012 
***


Last edited by Вася_металлист_2012 on 14 Dec 2012, edited 1 time in total.

Top
  
 
 
PostPosted: 10 Aug 2012 
Прокъмитолист
User avatar
Joined: 12 Aug 2007
Posts: 6504
Lоcаtion: Санктъ-Петербуркъ
Age: 51
Name: Олекъ
не знаю, что тебе сказать, Вась. по идее быть такого не должно. можешь через CUETools прогнать? было бы интересно сравнить два куетулзовских лога.

_________________
прокъметол - это музыко, от которово есть прок (ы)


Top
 Profile  
 
 
PostPosted: 10 Aug 2012 
***


Last edited by Вася_металлист_2012 on 14 Dec 2012, edited 1 time in total.

Top
  
 
 
PostPosted: 10 Aug 2012 
***


Last edited by Вася_металлист_2012 on 14 Dec 2012, edited 1 time in total.

Top
  
 
 
PostPosted: 10 Aug 2012 
Прокъмитолист
User avatar
Joined: 12 Aug 2007
Posts: 6504
Lоcаtion: Санктъ-Петербуркъ
Age: 51
Name: Олекъ
пока недостаточно информации. неизвестно даже каким способом были посчитаны црц (с нулевыми сэмплами или без оных).

_________________
прокъметол - это музыко, от которово есть прок (ы)


Top
 Profile  
 
 
PostPosted: 10 Aug 2012 
***


Last edited by Вася_металлист_2012 on 14 Dec 2012, edited 1 time in total.

Top
  
 
 
PostPosted: 10 Aug 2012 
***


Last edited by Вася_металлист_2012 on 14 Dec 2012, edited 1 time in total.

Top
  
 
 
PostPosted: 10 Aug 2012 
Прокъмитолист
User avatar
Joined: 12 Aug 2007
Posts: 6504
Lоcаtion: Санктъ-Петербуркъ
Age: 51
Name: Олекъ
теперь уже кое-что проясняется. на обоих рипах контрольные суммы посчитаны без нулевых сэмплов (и совпадают). если бы считались с нулевыми сэмплами, то были бы различны. а теперь все же прогони через куетулз - будет видна более полная картина.

_________________
прокъметол - это музыко, от которово есть прок (ы)


Top
 Profile  
 
 
PostPosted: 10 Aug 2012 
***


Last edited by Вася_металлист_2012 on 14 Dec 2012, edited 1 time in total.

Top
  
 
 
PostPosted: 10 Aug 2012 
Прокъмитолист
User avatar
Joined: 12 Aug 2007
Posts: 6504
Lоcаtion: Санктъ-Петербуркъ
Age: 51
Name: Олекъ
куетулз делает практически все операции, которые могут пригодиться при работе с лосслесс файлами. в данном конкретном случае достаточно лишь сделать проверку и получить лог (логи) такого вида:
Code:
[Verification date: 13.07.2010 2:33:51]
[Disc ID: 001069be-0081f5f2-8b0a800a]
Track   [ CRC    ] Status
01   [2626dae9] (07/07) Accurately ripped
02   [2e892432] (07/07) Accurately ripped
03   [cdd46bd8] (07/07) Accurately ripped
04   [5ac8e678] (07/07) Accurately ripped
05   [76ab43e5] (07/07) Accurately ripped
06   [340e40cb] (07/07) Accurately ripped
07   [66f33502] (07/07) Accurately ripped
08   [f211e5a7] (07/07) Accurately ripped
09   [f6f033e8] (07/07) Accurately ripped
10   [d643972e] (07/07) Accurately ripped

Track   [ CRC32  ]   [W/O NULL]   [  LOG   ]
--   [778A5062]   [044E890C]     CRC32   
01   [009DABBD]   [F211BA55]   
02   [05FEFC78]   [26E76BE1]   
03   [095E9B8C]   [6B69A7C0]   
04   [825A25FA]   [B9043D89]   
05   [497BFA44]   [B0CBA3B2]   
06   [9CD1D571]   [9697442D]   
07   [A70B49C1]   [7B860CD0]   
08   [BB5A51F9]   [DACC0846]   
09   [98526FBE]   [9D120034]   
10   [CC042A29]   [C9FCB0C6]

где в частности будут расписаны все контрольные суммы.

_________________
прокъметол - это музыко, от которово есть прок (ы)


Top
 Profile  
 
 
PostPosted: 10 Aug 2012 
***


Last edited by Вася_металлист_2012 on 14 Dec 2012, edited 1 time in total.

Top
  
 
 
PostPosted: 10 Aug 2012 
Прокъмитолист
User avatar
Joined: 12 Aug 2007
Posts: 6504
Lоcаtion: Санктъ-Петербуркъ
Age: 51
Name: Олекъ
мне хватает 3-х: EAC, CUETools и блокнот )

_________________
прокъметол - это музыко, от которово есть прок (ы)


Top
 Profile  
 
 
PostPosted: 10 Aug 2012 
Хиппей (support team)
User avatar
Joined: 30 Jul 2007
Posts: 108243
Lоcаtion: Киев (Kyiv, UA)
Age: 45
Name: Andrey
spiralarch wrote:
мне хватает 3-х: EAC, CUETools и блокнот )

А как же же Flac Frontend? :shok:

_________________


Top
 Profile E-mail  
 
 
PostPosted: 10 Aug 2012 
Прокъмитолист
User avatar
Joined: 12 Aug 2007
Posts: 6504
Lоcаtion: Санктъ-Петербуркъ
Age: 51
Name: Олекъ
Scatterbrain wrote:
А как же же Flac Frontend?

тсс... тока никаму :al:

_________________
прокъметол - это музыко, от которово есть прок (ы)


Top
 Profile  
 
 
PostPosted: 10 Aug 2012 
Хиппей (support team)
User avatar
Joined: 30 Jul 2007
Posts: 108243
Lоcаtion: Киев (Kyiv, UA)
Age: 45
Name: Andrey
Замьотано :nodrugs:

_________________


Top
 Profile E-mail  
 
 
PostPosted: 10 Aug 2012 
***


Last edited by Вася_металлист_2012 on 14 Dec 2012, edited 1 time in total.

Top
  
 
Display posts from previous:  Sort by  
Post new topic Reply to topic  [ 21 posts ]  Go to page 1, 2  Next

All times are UTC + 3 hours


Who is online

Users browsing this forum: No registered users and 3 guests


You cannot post new topics in this forum
You cannot reply to topics in this forum
You cannot edit your posts in this forum
You cannot delete your posts in this forum
You cannot post attachments in this forum

Search for:
Яндекс.Метрика
Powered by phpBB © 2000, 2002, 2005, 2007 phpBB Group