\m/ 80's metal \m/

Информационно-аналитический форум "80 см пыли" (In Search We Trust) "У нас никто никуда не спешит"
Me For You - http://me-4u.com
It is currently 24 Jan 2019

All times are UTC + 3 hours

Spoiler
Chat - temporary registration for foreign users (please leave your application here)





Forum rules


Correctly issued inquiry should be as muсh as possible clear and look like as follows: We write a group name In the topic name, style and its location: an example: [reqs] Slayer - (USA, California) - Thrash Metal – a prefix presence in the name of the theme is obligatory.
It is necessary to list the following things: which album and track-list we are searching for, what quality will suit (probably you are looking for an original record or the Japanese, American/Russian reedition?), we insert the picture (to 300х300 px), we copy track-list (the edition you are searching for!). It will be useful if you point out some information about the group and quality of a required product (a size, bitrate). Before the inquiry have a forum search.php

Example: viewtopic.php?f=205&t=10187

Правильно оформленный запрос должен быть максимально понятен и выглядеть так:
В названии топика пишем имя группы, стиль и её месторасположение (пример: [reqs] Slayer - (USA, California) - Thrash Metal).
Внутри поста необходимо перечислить, какие именно релизы ищем, в каком формате устроит, обязательно указываем трэк-листы (возможно вы хотите оригинальную запись или японское, американское/российское переиздание?), вставляем минимальные картинки (до 300х300 px). Также не помешают несколько слов о самой группе.
Перед запросом, чтобы не попасть в неловкое положение, юзаем поиск по форуму search.php

Если вы мало что поняли из прочтённого, смотрим пример грамотного запроса: viewtopic.php?f=205&t=10187
Сообщения размещаем только в раздел "Лося не видели?".
Самих лосей постим и красиво оформляем в "Лосиной бухте" - viewforum.php?f=31

Важные ссылки и дополнения к правилам раздела:
Убедительная просьба. Создавайте запросы правильно.
viewtopic.php?f=113&t=1802
Прежде чем запрашивать альбом, спросите его у Google
viewtopic.php?f=113&t=2696
Что вас может ожидать в случае несоблюдения правил:
viewtopic.php?t=3792


Приятного общения на нашем форуме и удачи в охоте на "металлических животных" :dance:

Image

Заказывать альбомы 2017/2018 г запрещено!
Don't Request Releases from 2017/2018 Please!!!



Post new topic Reply to topic  [ 10 posts ] 
Author Message
 
PostPosted: 24 Apr 2011 
Анатолий
User avatar
Joined: 18 Oct 2008
Posts: 3316
Lоcаtion: Армавир
Age: 41
Name: Анатолий
Uriah Heep - "Sea of Light" - 1995

Image

01. Against The Odds (The Way Of Life That Must Change)
02. Sweet Sugar (Over Importance Of Money)
03. Time Of Revelation (Moving To A Fantasy World)
04. Mistress Of All Time (Emlightened Woman)
05. Universal Wheels (Natures Retaliation)
06. Fear Of Falling (False Trust)
07. Spirit Of Freedom (Realising The New World)
08. Logical Progression (New Perceptions)
09. Love In Silence (Know Yourself)
10. Words In The Distance (Love Awareness)
11. Fires Of Hell (The Futility Of War)
12. Dream On (Being, In Love)
13. Holy Roller
14. Still Calls His Name

Bernie Shaw – vocals
Mick Box – guitar
Phil Lanzon – keyboards
Trevor Bolder – bass guitar
Lee Kerslake – drums

Ищу ремастер с двумя бонус-треками. mp3 нашёл, а вот с лосем проблемы... Если у кого имеется был бы очень признателен за помощь!

Люблю я их... в смысле группу :) чёрт возьми! :)


Top
 Profile E-mail  
 
 
PostPosted: 27 Apr 2011 
Хиппей (support team)
User avatar
Joined: 30 Jul 2007
Posts: 109773
Lоcаtion: Киев (Kyiv, UA)
Age: 45
Name: Andrey
Качаю что-то... :vic:

_________________


Top
 Profile E-mail  
 
 
PostPosted: 27 Apr 2011 
Анатолий
User avatar
Joined: 18 Oct 2008
Posts: 3316
Lоcаtion: Армавир
Age: 41
Name: Анатолий
Scatterbrain wrote:
Качаю что-то...


Очень хотелось бы верить в то... что то самое. ;)


Top
 Profile E-mail  
 
 
PostPosted: 27 Apr 2011 
Хиппей (support team)
User avatar
Joined: 30 Jul 2007
Posts: 109773
Lоcаtion: Киев (Kyiv, UA)
Age: 45
Name: Andrey
Ога, и я тоже.
Толь, а ты искал этот релиз на торрентах, моолях и прочих ннм?

_________________


Top
 Profile E-mail  
 
 
PostPosted: 27 Apr 2011 
Анатолий
User avatar
Joined: 18 Oct 2008
Posts: 3316
Lоcаtion: Армавир
Age: 41
Name: Анатолий
На торрентру искал... в поисковик вбивал... либо mp3, либо какие-нибудь иностранные торреты выпадают...


Top
 Profile E-mail  
 
 
PostPosted: 27 Apr 2011 
metallpaparazzy
User avatar
Joined: 20 Dec 2009
Posts: 674
Lоcаtion: Днепропетровск
Age: 43
Name: Геннадий
у меня только первопресс фирмовый имееиццо. :pardon:


Top
 Profile E-mail  
 
 
PostPosted: 28 Apr 2011 
Анатолий
User avatar
Joined: 18 Oct 2008
Posts: 3316
Lоcаtion: Армавир
Age: 41
Name: Анатолий
metallroll wrote:
у меня только первопресс фирмовый имееиццо.


Да с ним не проблема... У меня тоже есть... Но совсем недавно, я стал качать все делюксовские переиздания группы, а данного альбома в таком виде на ресурсе представленно не было... вот я и задался целью узнать, а было ли ремастированное переиздание да ещё и с бонусами и оказывается было!!! Меня это конечно очень порадовало, так как я решил собрать всё из репертуара группы и вот засада... лося этого переиздания нигде не нахожу...


Top
 Profile E-mail  
 
 
PostPosted: 03 May 2011 
Хиппей (support team)
User avatar
Joined: 30 Jul 2007
Posts: 109773
Lоcаtion: Киев (Kyiv, UA)
Age: 45
Name: Andrey
Скачал первого лося в осле - вариант из 12 трэков. Удаляю :pardon: Жду пока второй скачается (он по объему чуть жирнее).

На всякий случай имя файла первого лося и куй:

Uriah.Heep-1995.Sea Of Light [APE].rar (397 mb)

| +
CATALOG 0000000000000
PERFORMER "Uriah Heep"
TITLE "Sea Of Light"
FILE "CDImage.wav" WAVE
TRACK 01 AUDIO
TITLE "Against The Odds"
PERFORMER "Uriah Heep"
INDEX 00 00:00:00
INDEX 01 00:00:32
TRACK 02 AUDIO
TITLE "Sweet Sugar"
PERFORMER "Uriah Heep"
INDEX 00 06:13:00
INDEX 01 06:13:17
TRACK 03 AUDIO
TITLE "Time Of Revelation"
PERFORMER "Uriah Heep"
INDEX 00 10:55:42
INDEX 01 10:56:42
TRACK 04 AUDIO
TITLE "Mistress Of All Time"
PERFORMER "Uriah Heep"
INDEX 00 14:58:30
INDEX 01 14:58:70
TRACK 05 AUDIO
TITLE "Universal Wheels"
PERFORMER "Uriah Heep"
INDEX 00 20:31:37
INDEX 01 20:32:02
TRACK 06 AUDIO
TITLE "Fear Of Falling"
PERFORMER "Uriah Heep"
INDEX 01 26:11:10
TRACK 07 AUDIO
TITLE "Spirit Of Freedom"
PERFORMER "Uriah Heep"
INDEX 00 30:48:35
INDEX 01 30:50:05
TRACK 08 AUDIO
TITLE "Logical Progression"
PERFORMER "Uriah Heep"
INDEX 01 35:04:40
TRACK 09 AUDIO
TITLE "Love In Silence"
PERFORMER "Uriah Heep"
INDEX 00 41:16:52
INDEX 01 41:17:25
TRACK 10 AUDIO
TITLE "Words In The Distance"
PERFORMER "Uriah Heep"
INDEX 00 48:04:57
INDEX 01 48:05:27
TRACK 11 AUDIO
TITLE "Fires Of Hell"
PERFORMER "Uriah Heep"
INDEX 00 52:50:55
INDEX 01 52:51:27
TRACK 12 AUDIO
TITLE "Dream On"
PERFORMER "Uriah Heep"
INDEX 00 56:46:60
INDEX 01 56:48:17

| +
EAC extraction logfile from 28. June 2003, 8:06 for CD
Uriah Heep / Sea Of Light

Used drive : SONY CD-RW CRX185E3 Adapter: 1 ID: 0
Read mode : Secure with NO C2, accurate stream, disable cache
Combined read/write offset correction : 0
Overread into Lead-In and Lead-Out : No

Used output format : Internal WAV Routines
44.100 Hz; 16 Bit; Stereo
Use compression offset : 0

Other options :
Fill up missing offset samples with silence : Yes
Delete leading and trailing silent blocks : No
Installed external ASPI interface


Range status and errors
Selected range
Filename D:\AUDIO\For DVD\Sea Of Light\CDImage.wav

Peak level 95.5 %
Range quality 99.9 %
CRC CE3D6F13
Copy OK

No errors occured

End of status report



Это чтоб не качали за зря.

_________________


Top
 Profile E-mail  
 
 
PostPosted: 10 May 2011 
Хиппей (support team)
User avatar
Joined: 30 Jul 2007
Posts: 109773
Lоcаtion: Киев (Kyiv, UA)
Age: 45
Name: Andrey
И второй оказался 12-трэковым :pardon:
Attachment:
uh.jpg
uh.jpg [ 25.62 KiB | Viewed 615 times ]

_________________


Top
 Profile E-mail  
 
 
PostPosted: 10 May 2011 
Анатолий
User avatar
Joined: 18 Oct 2008
Posts: 3316
Lоcаtion: Армавир
Age: 41
Name: Анатолий
Scatterbrain wrote:
И второй оказался 12-трэковым


Печально... Продолжаю искать...


Top
 Profile E-mail  
 
Display posts from previous:  Sort by  
Post new topic Reply to topic  [ 10 posts ] 

All times are UTC + 3 hours


Who is online

Users browsing this forum: No registered users and 5 guests


You cannot post new topics in this forum
You cannot reply to topics in this forum
You cannot edit your posts in this forum
You cannot delete your posts in this forum
You cannot post attachments in this forum

Search for:
Яндекс.Метрика
Powered by phpBB © 2000, 2002, 2005, 2007 phpBB Group