\m/ 80's metal \m/

Информационно-аналитический форум "80 см пыли" (In Search We Trust) "У нас никто никуда не спешит"
Me For You - http://me-4u.com
It is currently 05 Jun 2020

All times are UTC + 3 hours

Spoiler
Chat - temporary registration for foreign users (please leave your application here)







Post new topic Reply to topic  [ 27 posts ]  Go to page 1, 2  Next
Author Message
 
PostPosted: 30 Sep 2010 
Пионэръ
Joined: 23 Aug 2008
Posts: 33
Lоcаtion: Slovakia
Age: 55
Name: Rudolf
Image

1. Sirens of the Sun
2. Changeless Season
3. Social Circle
4. Scalpel and the Skin
5. Sinister Deity
6. Rage in the Wind
7. Black Silhouette Skies
8. Nightmare Extraordinaire
9. Changeless Season
10. Lost to Be Found, Found to Be Lost

total time: 47:01

I think that this album to the disaster was anywhere on moole.ru,
if some downloaded it, I please for upload
thanx


Top
 Profile  
 
 
PostPosted: 29 Aug 2011 
консэрваторъ
User avatar
Joined: 11 Aug 2007
Posts: 17602
Lоcаtion: Псков
Age: 46
Name: Сергей
Похоже, что лось наблюдается здесь, или наблюдался... не понимаю возможно его оттуда вытащить или нет :vic:

_________________
THRASH 'EM ALL


Top
 Profile E-mail  
 
 
PostPosted: 29 Aug 2011 
Хиппей (support team)
User avatar
Joined: 30 Jul 2007
Posts: 118685
Lоcаtion: Киев (Kyiv, UA)
Age: 46
Name: Andrey
Есть он там, только качать надоть через Usenet :pardon:

_________________


Top
 Profile E-mail  
 
 
PostPosted: 02 Jul 2013 
Рарник и трушник
User avatar
Joined: 25 Dec 2009
Posts: 9118
Lоcаtion: Москва
Age: 54
Name: Виталий
Блин, у мну есть и на винилке и рип с ЦД. :umnik: Вроде здесь его не заливали. Если нужон ещё, свистите. :pardon:


Top
 Profile  
 
 
PostPosted: 02 Jul 2013 
консэрваторъ
User avatar
Joined: 11 Aug 2007
Posts: 17602
Lоcаtion: Псков
Age: 46
Name: Сергей
Quote:
Зарегистрирован: 23 авг 2008, 11:17
Последнее посещение: 04 окт 2010, 11:06

Похоже тему можно хоронить...

_________________
THRASH 'EM ALL


Top
 Profile E-mail  
 
 
PostPosted: 03 Jul 2013 
Хиппей (support team)
User avatar
Joined: 30 Jul 2007
Posts: 118685
Lоcаtion: Киев (Kyiv, UA)
Age: 46
Name: Andrey
Блин, у мну есть и на винилке и рип с ЦД. :umnik: Вроде здесь его не заливали. Если нужон ещё, свистите. :pardon:

А заливаем, пжлста :thanx:Быстрым поиском по Сети не нашелся лось :vic:

_________________


Top
 Profile E-mail  
 
 
PostPosted: 12 Jul 2019 
Зарегился вот...
Joined: 06 May 2011
Posts: 9
Lоcаtion: GREECE
Name: Alex
Can someone please upload this on lossless?
Thanks.


Top
 Profile E-mail  
 
 
PostPosted: 12 Jul 2019 
Хиппей (support team)
User avatar
Joined: 30 Jul 2007
Posts: 118685
Lоcаtion: Киев (Kyiv, UA)
Age: 46
Name: Andrey
А мы сами этот альбом ищем :pardon:

Раздел называется реквесты (requests) :lloo:

_________________


Top
 Profile E-mail  
 
 
PostPosted: 12 Jul 2019 
Хиппей (support team)
User avatar
Joined: 30 Jul 2007
Posts: 118685
Lоcаtion: Киев (Kyiv, UA)
Age: 46
Name: Andrey
Блин, у мну есть и на винилке и рип с ЦД. :umnik: Вроде здесь его не заливали. Если нужон ещё, свистите. :pardon:

Ой! Явно автор запроса и прочие были бы не против :thanx:

_________________


Top
 Profile E-mail  
 
 
PostPosted: 26 Sep 2019 
Работнечег
User avatar
Joined: 28 Aug 2007
Posts: 6260
Lоcаtion: г. Москва
Age: 31
Name: Дима
Нашёл у себя диск, сделаю!


Top
 Profile E-mail  
 
 
PostPosted: 26 Dec 2019 
Хиппей (support team)
User avatar
Joined: 30 Jul 2007
Posts: 118685
Lоcаtion: Киев (Kyiv, UA)
Age: 46
Name: Andrey
Уря :kro:

_________________


Top
 Profile E-mail  
 
 
PostPosted: 31 Dec 2019 
10cm
User avatar
Joined: 13 Mar 2013
Posts: 94
Lоcаtion: Россия
Name: Виталий
а Lossless где?


Top
 Profile E-mail  
 
 
PostPosted: 31 Dec 2019 
Хиппей (support team)
User avatar
Joined: 30 Jul 2007
Posts: 118685
Lоcаtion: Киев (Kyiv, UA)
Age: 46
Name: Andrey
а Lossless где?

Пока на диске у Димки.

_________________


Top
 Profile E-mail  
 
 
PostPosted: 17 Jan 2020 
Работнечег
User avatar
Joined: 28 Aug 2007
Posts: 6260
Lоcаtion: г. Москва
Age: 31
Name: Дима
Image

Year: 2001
Label: Iron Glory Records
Country: USA
Bitrate: Flac + Cue + Log + Covers
Size: 364 Mb

Tracklist:
1. Sirens of the Sun
2. Changeless Season
3. Social Circle
4. Scalpel and the Skin
5. Sinister Deity
6. Rage in the Wind
7. Black Silhouette Skies
8. Nightmare Extraordinaire
9. Changeless Season
10. Lost to Be Found, Found to Be Lost

This CD is a compilation of the last Helstar demo tape (tracks 1-4) + the demo tape of Vigilante (tracks 5-10). Vigilante was the band James Rivera played with after Helstar split up.

LOG
Exact Audio Copy V1.3 from 2. September 2016

EAC extraction logfile from 13. October 2019, 18:50

Helstar/Vigilante / The James Rivera Legacy (Compilation)

Used drive : PIONEER DVD-RW DVR-221 Adapter: 1 ID: 0

Read mode : Secure
Utilize accurate stream : Yes
Defeat audio cache : Yes
Make use of C2 pointers : No

Read offset correction : 6
Overread into Lead-In and Lead-Out : No
Fill up missing offset samples with silence : Yes
Delete leading and trailing silent blocks : No
Null samples used in CRC calculations : Yes
Used interface : Native Win32 interface for Win NT & 2000

Used output format : User Defined Encoder
Selected bitrate : 768 kBit/s
Quality : High
Add ID3 tag : No
Command line compressor : C:\Program Files (x86)\Exact Audio Copy\FLAC\FLAC.EXE
Additional command line options : -6 -V -T "ARTIST=%artist%" -T "TITLE=%title%" -T "ALBUM=%albumtitle%" -T "DATE=%year%" -T "TRACKNUMBER=%tracknr%" -T "GENRE=%genre%" -T "COMMENT=%comment%" -T "BAND=%albuminterpret%" -T "ALBUMARTIST=%albuminterpret%" -T "COMPOSER=%composer%" %haslyrics%--tag-from-file=LYRICS="%lyricsfile%"%haslyrics% -T "DISCNUMBER=%cdnumber%" -T "TOTALDISCS=%totalcds%" -T "TOTALTRACKS=%numtracks%" %hascover%--picture="%coverfile%"%hascover% %source% -o %dest%


TOC of the extracted CD

Track | Start | Length | Start sector | End sector
---------------------------------------------------------
1 | 0:00.00 | 4:42.08 | 0 | 21157
2 | 4:42.08 | 4:03.01 | 21158 | 39383
3 | 8:45.09 | 4:09.63 | 39384 | 58121
4 | 12:54.72 | 4:09.01 | 58122 | 76797
5 | 17:03.73 | 4:55.04 | 76798 | 98926
6 | 21:59.02 | 5:53.57 | 98927 | 125458
7 | 27:52.59 | 5:58.41 | 125459 | 152349
8 | 33:51.25 | 4:04.72 | 152350 | 170721
9 | 37:56.22 | 4:36.44 | 170722 | 191465
10 | 42:32.66 | 4:28.10 | 191466 | 211575


Range status and errors

Selected range

Filename D:\Музыка\Lossless\Helstar - The James Rivera Legacy (Compilation)(2001)\Helstar,Vigilante - The James Rivera Legacy (Compilation).wav

Peak level 98.8 %
Extraction speed 5.8 X
Range quality 99.9 %
Copy CRC 3B819A44
Copy OK

No errors occurred


AccurateRip summary

Track 1 not present in database
Track 2 not present in database
Track 3 not present in database
Track 4 not present in database
Track 5 not present in database
Track 6 not present in database
Track 7 not present in database
Track 8 not present in database
Track 9 not present in database
Track 10 not present in database

None of the tracks are present in the AccurateRip database

End of status report

---- CUETools DB Plugin V2.1.6

[CTDB TOCID: SPhl3dUeXSRPAWywFkz32fGEMBY-] database access error: Невозможно разрешить удаленное имя: 'db.cuetools.net'

CUE
REM GENRE "Heavy Metal"
REM DATE 2001
REM DISCID 7E0B050A
REM COMMENT "ExactAudioCopy v1.3"
PERFORMER "Helstar/Vigilante"
TITLE "The James Rivera Legacy (Compilation)"
REM COMPOSER ""
FILE "Helstar,Vigilante - The James Rivera Legacy (Compilation).flac" WAVE
TRACK 01 AUDIO
TITLE "Helstar - Sirens Of The Sun"
PERFORMER "Helstar/Vigilante"
REM COMPOSER ""
INDEX 01 00:00:00
TRACK 02 AUDIO
TITLE "Helstar - Changeless Season"
PERFORMER "Helstar/Vigilante"
REM COMPOSER ""
INDEX 00 04:40:49
INDEX 01 04:42:08
TRACK 03 AUDIO
TITLE "Helstar - Social Circle"
PERFORMER "Helstar/Vigilante"
REM COMPOSER ""
INDEX 00 08:43:40
INDEX 01 08:45:09
TRACK 04 AUDIO
TITLE "Helstar - Scalpel And The Skin"
PERFORMER "Helstar/Vigilante"
REM COMPOSER ""
INDEX 00 12:53:16
INDEX 01 12:54:72
TRACK 05 AUDIO
TITLE "Vigilante - Sinister Deity"
PERFORMER "Helstar/Vigilante"
REM COMPOSER ""
INDEX 00 17:02:22
INDEX 01 17:03:73
TRACK 06 AUDIO
TITLE "Vigilante - Rage In The Wind"
PERFORMER "Helstar/Vigilante"
REM COMPOSER ""
INDEX 00 21:56:58
INDEX 01 21:59:02
TRACK 07 AUDIO
TITLE "Vigilante - Black Silhouette Skies"
PERFORMER "Helstar/Vigilante"
REM COMPOSER ""
INDEX 00 27:50:28
INDEX 01 27:52:59
TRACK 08 AUDIO
TITLE "Vigilante - Nightmare Extraordinaire"
PERFORMER "Helstar/Vigilante"
REM COMPOSER ""
INDEX 00 33:50:05
INDEX 01 33:51:25
TRACK 09 AUDIO
TITLE "Vigilante - - Changeless Season"
PERFORMER "Helstar/Vigilante"
REM COMPOSER ""
INDEX 00 37:54:11
INDEX 01 37:56:22
TRACK 10 AUDIO
TITLE "Vigilante - Lost To Be Found, Found To Be Lost"
PERFORMER "Helstar/Vigilante"
REM COMPOSER ""
INDEX 00 42:30:17
INDEX 01 42:32:66


Yadi

Мне больше понравился материал от Vigilante, ну а так довольно неплохая компиляция.


Top
 Profile E-mail  
 
 
PostPosted: 17 Jan 2020 
Прокъмитолист
User avatar
Joined: 12 Aug 2007
Posts: 6724
Lоcаtion: Санктъ-Петербуркъ
Age: 52
Name: Олекъ
:thanx: :true:

_________________
прокъметол - это музыко, от которово есть прок (ы)


Top
 Profile  
 
 
PostPosted: 24 Jan 2020 
Хиппей (support team)
User avatar
Joined: 30 Jul 2007
Posts: 118685
Lоcаtion: Киев (Kyiv, UA)
Age: 46
Name: Andrey
:thanx:

mirror: Telega l Ur-Files l Uloz l Narod

_________________


Top
 Profile E-mail  
 
 
PostPosted: 25 Jan 2020 
Хиппей (support team)
User avatar
Joined: 30 Jul 2007
Posts: 118685
Lоcаtion: Киев (Kyiv, UA)
Age: 46
Name: Andrey
Какая радость, что я до этого момента музыку группу почти не слушал :lob: :lob: :lob:
Насколько понимаю, это самый тяжёлый период в картере коллектива. когда она играла US Power.
Типичный, вроде, музон, но вот изысканный вокал Риверы выводи такой юспавер на очень оригинальный и высокий же уровень =)) :true: :true: :true:

Если есть полноформатный альбом в таком стиле, обязательно заберу его в топы.
а пока этой сборке оценка 7 из 10-ти :kro:

_________________


Top
 Profile E-mail  
 
 
PostPosted: 25 Jan 2020 
Прокъмитолист
User avatar
Joined: 12 Aug 2007
Posts: 6724
Lоcаtion: Санктъ-Петербуркъ
Age: 52
Name: Олекъ
Scatterbrain wrote:
до этого момента музыку группу почти не слушал

срочно слушать первые четыре альбома, ничего лучше они впоследствии не записали.

Scatterbrain wrote:
Если есть полноформатный альбом в таком стиле, обязательно заберу его в топы.

Андрюх, пару этих вещей Helstar потом перезаписали для альбома Multiples Of Black, но это все равно уже не то.

_________________
прокъметол - это музыко, от которово есть прок (ы)


Top
 Profile  
 
 
PostPosted: 25 Jan 2020 
Хиппей (support team)
User avatar
Joined: 30 Jul 2007
Posts: 118685
Lоcаtion: Киев (Kyiv, UA)
Age: 46
Name: Andrey
spiralarch wrote:
срочно слушать первые четыре альбома, ничего лучше они впоследствии не записали.

Есть слушать всё :thanx:


Помнится мне, что в "Ровеснике" группу не очень хвалили и сравнивали что-то на стыке хардынхэви. Но один альбом выделяли как паверный.
И ещё очень я помню трушную фотку с рок-энциклопедии вынгерской, где гитарист был обвешал всякими цепочками и кожей. Думал - вау, явно что-то типа трэша группа играет. Купил кассетку с записью (не помню какого альбома), а там попсень чуть ли не как Киссы.
И вот только сейчас начал снова слушать группу - пока красота :meloman:
Жаль.сборники нельзя в топы включать. Или можно? =) :vic:

_________________


Top
 Profile E-mail  
 
 
PostPosted: 26 Jan 2020 
семерых одним ударом
Joined: 18 Aug 2007
Posts: 4543
Lоcаtion: Владивосток
Age: 45
Name: Николай Николаевич
Лучшие первые 2 альбома, потом группа стала мягче и скучнее.


Top
 Profile  
 
Display posts from previous:  Sort by  
Post new topic Reply to topic  [ 27 posts ]  Go to page 1, 2  Next

All times are UTC + 3 hours


Who is online

Users browsing this forum: No registered users and 1 guest


You cannot post new topics in this forum
You cannot reply to topics in this forum
You cannot edit your posts in this forum
You cannot delete your posts in this forum
You cannot post attachments in this forum

Search for:
Яндекс.Метрика
Powered by phpBB © 2000, 2002, 2005, 2007 phpBB Group