\m/ 80's metal \m/

Информационно-аналитический форум "80 см пыли" (In Search We Trust) "У нас никто никуда не спешит"
Me For You - http://me-4u.com
It is currently 25 Mar 2019

All times are UTC + 3 hours

Spoiler
Chat - temporary registration for foreign users (please leave your application here)





Forum rules


Correctly issued inquiry should be as muсh as possible clear and look like as follows: We write a group name In the topic name, style and its location: an example: [reqs] Slayer - (USA, California) - Thrash Metal – a prefix presence in the name of the theme is obligatory.
It is necessary to list the following things: which album and track-list we are searching for, what quality will suit (probably you are looking for an original record or the Japanese, American/Russian reedition?), we insert the picture (to 300х300 px), we copy track-list (the edition you are searching for!). It will be useful if you point out some information about the group and quality of a required product (a size, bitrate). Before the inquiry have a forum search.php

Example: viewtopic.php?f=205&t=10187

Правильно оформленный запрос должен быть максимально понятен и выглядеть так:
В названии топика пишем имя группы, стиль и её месторасположение (пример: [reqs] Slayer - (USA, California) - Thrash Metal).
Внутри поста необходимо перечислить, какие именно релизы ищем, в каком формате устроит, обязательно указываем трэк-листы (возможно вы хотите оригинальную запись или японское, американское/российское переиздание?), вставляем минимальные картинки (до 300х300 px). Также не помешают несколько слов о самой группе.
Перед запросом, чтобы не попасть в неловкое положение, юзаем поиск по форуму search.php

Если вы мало что поняли из прочтённого, смотрим пример грамотного запроса: viewtopic.php?f=205&t=10187
Сообщения размещаем только в раздел "Лося не видели?".
Самих лосей постим и красиво оформляем в "Лосиной бухте" - viewforum.php?f=31

Важные ссылки и дополнения к правилам раздела:
Убедительная просьба. Создавайте запросы правильно.
viewtopic.php?f=113&t=1802
Прежде чем запрашивать альбом, спросите его у Google
viewtopic.php?f=113&t=2696
Что вас может ожидать в случае несоблюдения правил:
viewtopic.php?t=3792


Приятного общения на нашем форуме и удачи в охоте на "металлических животных" :dance:

Image

Заказывать альбомы 2017/2018 г запрещено!
Don't Request Releases from 2017/2018 Please!!!



Post new topic Reply to topic  [ 23 posts ]  Go to page Previous  1, 2
Author Message
 
PostPosted: 10 Jan 2018 
Я набрал 1000 сообщений!
User avatar
Joined: 04 Jul 2009
Posts: 1218
Age: 45
Name: dima
Loudblast - (France) - 2011 - Frozen Moments Between Life and Death
Image
01. Frozen Moments Between Life And Death (5:15)
02. Neverending Blast (3:49)
03. Emptiness Crushes My Soul (3:15)
04. Cold Blooded Kind (5:35)
05. Towards Oneness (4:37)
06. The Bitter Seed (3:53)
07. Nosce Te Ipsum (5:37)
08. Hazardous Magic (5:15)
09. To Bury An Empire (4:29)

Нигде не могу найти образ :oops:


Top
 Profile E-mail  
 
 
PostPosted: 25 Jan 2018 
Хиппей (support team)
User avatar
Joined: 30 Jul 2007
Posts: 111143
Lоcаtion: Киев (Kyiv, UA)
Age: 45
Name: Andrey
Scatterbrain wrote:
Хм, группа реально откатилась к Сепультуре конца 80-х :tro:

Послушал этот альбом. Не-а, группа застряла где-то между 90-ми и 00-ми годами в стилях Thrash/Death и превратилась в монотонный клон самих себя и Сепультуры :(

5/10

Loudblast - 2011 - Frozen Moments Between Life and Death [flacs]

mirror: ой, а ссылки на первой страничке уже были :tro:

Рип "кривой", но сама музыка не пострадала :pardon:

_________________


Top
 Profile E-mail  
 
 
PostPosted: 25 Jan 2018 
Хиппей (support team)
User avatar
Joined: 30 Jul 2007
Posts: 111143
Lоcаtion: Киев (Kyiv, UA)
Age: 45
Name: Andrey
Аай, кстати, если дядь Мише Сепультура свежая понравилась, то явно и этот альбом покатит :kro:

_________________


Top
 Profile E-mail  
 
 
PostPosted: 25 Jan 2018 
Хиппей (support team)
User avatar
Joined: 30 Jul 2007
Posts: 111143
Lоcаtion: Киев (Kyiv, UA)
Age: 45
Name: Andrey
Loudblast - 2011 - Frozen Moments Between Life and Death [flacs]

mirror: Drop l Narod

log
Exact Audio Copy V0.99 prebeta 5 from 4. May 2009

EAC extraction logfile from 29. April 2011, 22:40

LOUDBLAST / Frozen Moments Between Life And Death

Used drive : HL-DT-STDVDRRW GSA-H30L Adapter: 2 ID: 1

Read mode : Secure
Utilize accurate stream : Yes
Defeat audio cache : No
Make use of C2 pointers : No

Read offset correction : 102
Overread into Lead-In and Lead-Out : No
Fill up missing offset samples with silence : Yes
Delete leading and trailing silent blocks : No
Null samples used in CRC calculations : No
Used interface : Native Win32 interface for Win NT & 2000
Gap handling : Appended to previous track

Used output format : User Defined Encoder
Selected bitrate : 768 kBit/s
Quality : High
Add ID3 tag : No
Command line compressor : C:\Program Files (x86)\Exact Audio Copy\FLAC\FLAC.EXE
Additional command line options : -6 -V -T "ARTIST=%a" -T "TITLE=%t" -T "ALBUM=%g" -T "DATE=%y" -T "TRACKNUMBER=%n" -T "GENRE=%m" -T "COMMENT=%e" %s -o %d


TOC of the extracted CD

Track | Start | Length | Start sector | End sector
---------------------------------------------------------
1 | 0:00.00 | 5:15.27 | 0 | 23651
2 | 5:15.27 | 3:49.06 | 23652 | 40832
3 | 9:04.33 | 3:15.11 | 40833 | 55468
4 | 12:19.44 | 5:35.17 | 55469 | 80610
5 | 17:54.61 | 4:37.31 | 80611 | 101416
6 | 22:32.17 | 3:53.13 | 101417 | 118904
7 | 26:25.30 | 5:37.18 | 118905 | 144197
8 | 32:02.48 | 5:15.01 | 144198 | 167823
9 | 37:17.49 | 4:29.22 | 167824 | 188020


Track 1

Filename D:\Musique\Encodage\01. Frozen Moments Between Life And Death.wav

Pre-gap length 0:00:02.00

Peak level 98.4 %
Track quality 100.0 %
Test CRC BD3BED9C
Copy CRC BD3BED9C
Track not present in AccurateRip database
Copy OK

Track 2

Filename D:\Musique\Encodage\02. Neverending Blast.wav

Pre-gap length 0:00:00.20

Peak level 98.4 %
Track quality 100.0 %
Test CRC 4DCFFED0
Copy CRC 4DCFFED0
Track not present in AccurateRip database
Copy OK

Track 3

Filename D:\Musique\Encodage\03. Emptiness Crushes My Soul.wav

Pre-gap length 0:00:00.20

Peak level 98.4 %
Track quality 100.0 %
Test CRC 649FB0A7
Copy CRC 649FB0A7
Track not present in AccurateRip database
Copy OK

Track 4

Filename D:\Musique\Encodage\04. Cold Blooded Kind.wav

Pre-gap length 0:00:00.20

Peak level 98.4 %
Track quality 100.0 %
Test CRC F880F6C3
Copy CRC F880F6C3
Track not present in AccurateRip database
Copy OK

Track 5

Filename D:\Musique\Encodage\05. Towards Oneness.wav

Pre-gap length 0:00:00.10

Peak level 98.4 %
Track quality 100.0 %
Test CRC 352663D8
Copy CRC 352663D8
Track not present in AccurateRip database
Copy OK

Track 6

Filename D:\Musique\Encodage\06. The Bitter Seed.wav

Pre-gap length 0:00:00.30

Peak level 98.4 %
Track quality 100.0 %
Test CRC 1C44452C
Copy CRC 1C44452C
Track not present in AccurateRip database
Copy OK

Track 7

Filename D:\Musique\Encodage\07. Nosce Te Ipsum.wav

Pre-gap length 0:00:00.10

Peak level 98.4 %
Track quality 100.0 %
Test CRC EDA7EE2F
Copy CRC EDA7EE2F
Track not present in AccurateRip database
Copy OK

Track 8

Filename D:\Musique\Encodage\08. Hazardous Magic.wav

Pre-gap length 0:00:00.10

Peak level 98.4 %
Track quality 100.0 %
Test CRC D92EC6F8
Copy CRC D92EC6F8
Track not present in AccurateRip database
Copy OK

Track 9

Filename D:\Musique\Encodage\09. To Bury An Empire.wav

Pre-gap length 0:00:00.10

Peak level 98.4 %
Track quality 99.9 %
Test CRC 0C9EEE6A
Copy CRC 0C9EEE6A
Track not present in AccurateRip database
Copy OK


None of the tracks are present in the AccurateRip database

No errors occurred

End of status report

cue
REM GENRE "Death Metal"
REM DATE 2011
REM DISCID 7809CA09
REM COMMENT "ExactAudioCopy v0.99pb5"
PERFORMER "LOUDBLAST"
TITLE "Frozen Moments Between Life And Death"
FILE "01. Frozen Moments Between Life And Death.wav" WAVE
TRACK 01 AUDIO
TITLE "Frozen Moments Between Life And Death"
PERFORMER "LOUDBLAST"
INDEX 01 00:00:00
FILE "02. Neverending Blast.wav" WAVE
TRACK 02 AUDIO
TITLE "Neverending Blast"
PERFORMER "LOUDBLAST"
INDEX 00 00:00:00
INDEX 01 00:00:20
FILE "03. Emptiness Crushes My Soul.wav" WAVE
TRACK 03 AUDIO
TITLE "Emptiness Crushes My Soul"
PERFORMER "LOUDBLAST"
INDEX 00 00:00:00
INDEX 01 00:00:20
FILE "04. Cold Blooded Kind.wav" WAVE
TRACK 04 AUDIO
TITLE "Cold Blooded Kind"
PERFORMER "LOUDBLAST"
INDEX 00 00:00:00
INDEX 01 00:00:20
FILE "05. Towards Oneness.wav" WAVE
TRACK 05 AUDIO
TITLE "Towards Oneness"
PERFORMER "LOUDBLAST"
INDEX 00 00:00:00
INDEX 01 00:00:10
FILE "06. The Bitter Seed.wav" WAVE
TRACK 06 AUDIO
TITLE "The Bitter Seed"
PERFORMER "LOUDBLAST"
INDEX 00 00:00:00
INDEX 01 00:00:30
FILE "07. Nosce Te Ipsum.wav" WAVE
TRACK 07 AUDIO
TITLE "Nosce Te Ipsum"
PERFORMER "LOUDBLAST"
INDEX 00 00:00:00
INDEX 01 00:00:10
FILE "08. Hazardous Magic.wav" WAVE
TRACK 08 AUDIO
TITLE "Hazardous Magic"
PERFORMER "LOUDBLAST"
INDEX 00 00:00:00
INDEX 01 00:00:10
FILE "09. To Bury An Empire.wav" WAVE
TRACK 09 AUDIO
TITLE "To Bury An Empire"
PERFORMER "LOUDBLAST"
INDEX 00 00:00:00
INDEX 01 00:00:10


Image
С Яди зачем-то уже 10 раз утянули..
Извращенцы? :yyy:

_________________


Top
 Profile E-mail  
 
Display posts from previous:  Sort by  
Post new topic Reply to topic  [ 23 posts ]  Go to page Previous  1, 2

All times are UTC + 3 hours


Who is online

Users browsing this forum: No registered users and 3 guests


You cannot post new topics in this forum
You cannot reply to topics in this forum
You cannot edit your posts in this forum
You cannot delete your posts in this forum
You cannot post attachments in this forum

Search for:
Яндекс.Метрика
Powered by phpBB © 2000, 2002, 2005, 2007 phpBB Group