\m/ 80's metal \m/

Информационно-аналитический форум "80 см пыли" (In Search We Trust) "У нас никто никуда не спешит"
Me For You - http://me-4u.com
It is currently 24 Mar 2019

All times are UTC + 3 hours

Spoiler
Chat - temporary registration for foreign users (please leave your application here)





Forum rules


Correctly issued inquiry should be as muсh as possible clear and look like as follows: We write a group name In the topic name, style and its location: an example: [reqs] Slayer - (USA, California) - Thrash Metal – a prefix presence in the name of the theme is obligatory.
It is necessary to list the following things: which album and track-list we are searching for, what quality will suit (probably you are looking for an original record or the Japanese, American/Russian reedition?), we insert the picture (to 300х300 px), we copy track-list (the edition you are searching for!). It will be useful if you point out some information about the group and quality of a required product (a size, bitrate). Before the inquiry have a forum search.php

Example: viewtopic.php?f=205&t=10187

Правильно оформленный запрос должен быть максимально понятен и выглядеть так:
В названии топика пишем имя группы, стиль и её месторасположение (пример: [reqs] Slayer - (USA, California) - Thrash Metal).
Внутри поста необходимо перечислить, какие именно релизы ищем, в каком формате устроит, обязательно указываем трэк-листы (возможно вы хотите оригинальную запись или японское, американское/российское переиздание?), вставляем минимальные картинки (до 300х300 px). Также не помешают несколько слов о самой группе.
Перед запросом, чтобы не попасть в неловкое положение, юзаем поиск по форуму search.php

Если вы мало что поняли из прочтённого, смотрим пример грамотного запроса: viewtopic.php?f=205&t=10187
Сообщения размещаем только в раздел "Лося не видели?".
Самих лосей постим и красиво оформляем в "Лосиной бухте" - viewforum.php?f=31

Важные ссылки и дополнения к правилам раздела:
Убедительная просьба. Создавайте запросы правильно.
viewtopic.php?f=113&t=1802
Прежде чем запрашивать альбом, спросите его у Google
viewtopic.php?f=113&t=2696
Что вас может ожидать в случае несоблюдения правил:
viewtopic.php?t=3792


Приятного общения на нашем форуме и удачи в охоте на "металлических животных" :dance:

Image

Заказывать альбомы 2017/2018 г запрещено!
Don't Request Releases from 2017/2018 Please!!!



Post new topic Reply to topic  [ 9 posts ] 
Author Message
 
PostPosted: 04 Dec 2016 
А может смените мне статус?..
Joined: 03 Jul 2009
Posts: 857
Lоcаtion: Serbia
Name: Laki
Running Wild - Little Big Horn [EMI Noise ‎– 1C 060-20 4248 6]

Image

Side A
1. Little Big Horn
Side B
2. Billy the Kid
3. Genocide (Thin Lizzy cover)

:thanx:


Last edited by glory11 on 06 Dec 2016, edited 1 time in total.

Top
 Profile E-mail  
 
 
PostPosted: 04 Dec 2016 
А может смените мне статус?..
User avatar
Joined: 02 Feb 2009
Posts: 999
Lоcаtion: из Тулы
Age: 44
Name: Максим
Есть такая пластинка

_________________
КМА


Top
 Profile  
 
 
PostPosted: 05 Dec 2016 
Работнечег
User avatar
Joined: 28 Aug 2007
Posts: 5764
Lоcаtion: г. Москва
Age: 30
Name: Дима
Сделаешь как-нибудь, Максим?


Top
 Profile E-mail  
 
 
PostPosted: 05 Dec 2016 
А может смените мне статус?..
User avatar
Joined: 02 Feb 2009
Posts: 999
Lоcаtion: из Тулы
Age: 44
Name: Максим
Да

_________________
КМА


Top
 Profile  
 
 
PostPosted: 05 Dec 2016 
А может смените мне статус?..
User avatar
Joined: 02 Feb 2009
Posts: 999
Lоcаtion: из Тулы
Age: 44
Name: Максим
тут рип

_________________
КМА


Top
 Profile  
 
 
PostPosted: 05 Dec 2016 
А может смените мне статус?..
User avatar
Joined: 02 Feb 2009
Posts: 999
Lоcаtion: из Тулы
Age: 44
Name: Максим
правда я его не делил, не обрабатывал
кому надо займитесь

_________________
КМА


Top
 Profile  
 
 
PostPosted: 05 Dec 2016 
А может смените мне статус?..
Joined: 03 Jul 2009
Posts: 857
Lоcаtion: Serbia
Name: Laki
:thanx:


Top
 Profile E-mail  
 
 
PostPosted: 04 Jan 2017 
Труъ
User avatar
Joined: 18 Jan 2009
Posts: 132
Lоcаtion: НиНо
Age: 48
Name: Дмитрий
overkiller
спасибо!

"cue"
REM GENRE "Heavy Metal"
REM DATE 1991
TITLE "Little Big Horn (Single)"
PERFORMER "Running Wild"
FILE "Running Wild - Little Big Horn.flac" WAVE
TRACK 01 AUDIO
TITLE "Little Big Horn"
INDEX 01 00:00:00
TRACK 02 AUDIO
TITLE "Billy the Kid"
INDEX 01 05:04:66
TRACK 03 AUDIO
TITLE "Genocide (Thin Lizzy cover)"
INDEX 01 09:52:59

_________________
-= 'til death do us unite =-


Top
 Profile  
 
 
PostPosted: 06 Jan 2017 
5-speed satisfactor
User avatar
Joined: 16 Feb 2009
Posts: 3708
Lоcаtion: New York, USA
Age: 40
Name: Leonid
А почему вдруг винил потребовался? Разве на цыде не выходил?

_________________
Death rules! Metal to all who oppose!


Top
 Profile  
 
Display posts from previous:  Sort by  
Post new topic Reply to topic  [ 9 posts ] 

All times are UTC + 3 hours


Who is online

Users browsing this forum: No registered users and 5 guests


You cannot post new topics in this forum
You cannot reply to topics in this forum
You cannot edit your posts in this forum
You cannot delete your posts in this forum
You cannot post attachments in this forum

Search for:
Яндекс.Метрика
cron
Powered by phpBB © 2000, 2002, 2005, 2007 phpBB Group