\m/ 80's metal \m/

Информационно-аналитический форум "80 см пыли" (In Search We Trust) "У нас никто никуда не спешит"
Me For You - http://me-4u.com
It is currently 25 Mar 2019

All times are UTC + 3 hours

Spoiler
Chat - temporary registration for foreign users (please leave your application here)





Forum rules


Correctly issued inquiry should be as muсh as possible clear and look like as follows: We write a group name In the topic name, style and its location: an example: [reqs] Slayer - (USA, California) - Thrash Metal – a prefix presence in the name of the theme is obligatory.
It is necessary to list the following things: which album and track-list we are searching for, what quality will suit (probably you are looking for an original record or the Japanese, American/Russian reedition?), we insert the picture (to 300х300 px), we copy track-list (the edition you are searching for!). It will be useful if you point out some information about the group and quality of a required product (a size, bitrate). Before the inquiry have a forum search.php

Example: viewtopic.php?f=205&t=10187

Правильно оформленный запрос должен быть максимально понятен и выглядеть так:
В названии топика пишем имя группы, стиль и её месторасположение (пример: [reqs] Slayer - (USA, California) - Thrash Metal).
Внутри поста необходимо перечислить, какие именно релизы ищем, в каком формате устроит, обязательно указываем трэк-листы (возможно вы хотите оригинальную запись или японское, американское/российское переиздание?), вставляем минимальные картинки (до 300х300 px). Также не помешают несколько слов о самой группе.
Перед запросом, чтобы не попасть в неловкое положение, юзаем поиск по форуму search.php

Если вы мало что поняли из прочтённого, смотрим пример грамотного запроса: viewtopic.php?f=205&t=10187
Сообщения размещаем только в раздел "Лося не видели?".
Самих лосей постим и красиво оформляем в "Лосиной бухте" - viewforum.php?f=31

Важные ссылки и дополнения к правилам раздела:
Убедительная просьба. Создавайте запросы правильно.
viewtopic.php?f=113&t=1802
Прежде чем запрашивать альбом, спросите его у Google
viewtopic.php?f=113&t=2696
Что вас может ожидать в случае несоблюдения правил:
viewtopic.php?t=3792


Приятного общения на нашем форуме и удачи в охоте на "металлических животных" :dance:

Image

Заказывать альбомы 2017/2018 г запрещено!
Don't Request Releases from 2017/2018 Please!!!



Post new topic Reply to topic  [ 28 posts ]  Go to page 1, 2  Next
Author Message
 
PostPosted: 13 May 2014 
Трешер
User avatar
Joined: 25 Feb 2011
Posts: 1115
Lоcаtion: Харьков
Age: 42
Name: Aleksandr
Zemětřesení
Image

1993 Popron Music

1. Zemětřesení
2. Cesty
3. Galéra
4. Lupič Willy
5. Jsem prý blázen jen
6. Co dělá indián
7. Strážci majáků
8. Stavros Niarchos
9. Holubí dům
10. Nám se líbí

Celkový čas: 39:56


Zemětřesení live [live]
Image
2001 Sokol’s Power Voice

1. Zemětřesení
2. Cesty
3. Lupič Willy
4. Galéra
5. Kartágo
6. Čas
7. Šípková Růženka
8. Strážci majáku
9. Co dělá indián
10. Zima
11. Pohřeb přítele
12. Nám se líbí
13. Jsem prý blázen jen
14. Jahody mražený

Celkový čas: 63:28

Ищу в лосе но не откажусь и от мр3 :thanx: потому как найти не получается вообще ничего :(

http://hardmusicbase.cz/index.php?stranka=vypis_d&skupina=7369


Top
 Profile E-mail  
 
 
PostPosted: 13 May 2014 
Генеральный thrasher
User avatar
Joined: 03 Oct 2008
Posts: 3673
Lоcаtion: Ханты-Мансийский АО
Age: 44
Name: Сергей
Блин,Саня,плохо ищешь!!!Два варианта студийника.Извиняй конечно,но эти чехи нормальные рипы по ходу делать не могут.Бери пока то,что есть.Концертник пока только в мр3 нашёл.Выкладывать?

:lloo: №1 flac tracks+scans (no cue-file):

http://yadi.sk/d/yzpmM_NpQ2w3e

:lloo: №2 wav tracks+scans+cue:

http://yadi.sk/d/iMmP9VZaQ2wyg


Top
 Profile  
 
 
PostPosted: 13 May 2014 
Трешер
User avatar
Joined: 25 Feb 2011
Posts: 1115
Lоcаtion: Харьков
Age: 42
Name: Aleksandr
Да конечно , спасибо ! :thanx: А что с рипами не так ?


Top
 Profile E-mail  
 
 
PostPosted: 13 May 2014 
Генеральный thrasher
User avatar
Joined: 03 Oct 2008
Posts: 3673
Lоcаtion: Ханты-Мансийский АО
Age: 44
Name: Сергей
Я не люблю потрэковые рипы.На первом нет cue-sheet,как я уже указал, и нулевая коррекция смещения в логе,если мне память не изменяет.Второй без лога...


Top
 Profile  
 
 
PostPosted: 13 May 2014 
Генеральный thrasher
User avatar
Joined: 03 Oct 2008
Posts: 3673
Lоcаtion: Ханты-Мансийский АО
Age: 44
Name: Сергей
Концертник в мр3 222kbps пока...Поищу качество получше.

http://yadi.sk/d/FtpJON0JQ5ZqT


Top
 Profile  
 
 
PostPosted: 13 May 2014 
Трешер
User avatar
Joined: 25 Feb 2011
Posts: 1115
Lоcаtion: Харьков
Age: 42
Name: Aleksandr
Вот никак не могу сканы хорошие и тексты на Miloš Dodo Doležal - Guy Mann-Dude 1994 особенно тексты нужны :umnik:

Щас ищу Doktor Triceratops вот тут накопал не много http://www.uloz.to/hledej?q=Doktor+Triceratops качество конечно не очень , у тебя ничего по ним нет?
http://www.doktortriceratops.cz/index1.htm


Top
 Profile E-mail  
 
 
PostPosted: 13 May 2014 
Генеральный thrasher
User avatar
Joined: 03 Oct 2008
Posts: 3673
Lоcаtion: Ханты-Мансийский АО
Age: 44
Name: Сергей
Нет,Саш,таких не знаю...


Top
 Profile  
 
 
PostPosted: 13 May 2014 
Трешер
User avatar
Joined: 25 Feb 2011
Posts: 1115
Lоcаtion: Харьков
Age: 42
Name: Aleksandr
Серега а как тут можно стянуть - http://www.doktortriceratops.cz/index1.htm не знаешь?


Top
 Profile E-mail  
 
 
PostPosted: 13 May 2014 
Генеральный thrasher
User avatar
Joined: 03 Oct 2008
Posts: 3673
Lоcаtion: Ханты-Мансийский АО
Age: 44
Name: Сергей
Там где mp3 файлы выложены download master прекрасно качает.Только что проверил.


Top
 Profile  
 
 
PostPosted: 13 May 2014 
Трешер
User avatar
Joined: 25 Feb 2011
Posts: 1115
Lоcаtion: Харьков
Age: 42
Name: Aleksandr
:thanx: да хорошо тянет


Top
 Profile E-mail  
 
 
PostPosted: 13 May 2014 
Трешер
User avatar
Joined: 25 Feb 2011
Posts: 1115
Lоcаtion: Харьков
Age: 42
Name: Aleksandr
Серега а ты где Miloš Dodo Doležal - Guy Mann-Dude 1994 брал текстами можно разжиться ?


Top
 Profile E-mail  
 
 
PostPosted: 13 May 2014 
Генеральный thrasher
User avatar
Joined: 03 Oct 2008
Posts: 3673
Lоcаtion: Ханты-Мансийский АО
Age: 44
Name: Сергей
Нет,Сань,текстов нет...Sorry! :dash:


Top
 Profile  
 
 
PostPosted: 13 May 2014 
Хиппей (support team)
User avatar
Joined: 30 Jul 2007
Posts: 111143
Lоcаtion: Киев (Kyiv, UA)
Age: 45
Name: Andrey
:thanx:

_________________


Top
 Profile E-mail  
 
 
PostPosted: 14 May 2014 
Трешер
User avatar
Joined: 25 Feb 2011
Posts: 1115
Lоcаtion: Харьков
Age: 42
Name: Aleksandr
Ребята а я два года назад зарегился на этом сайте и забыл :dash: а сайт то отличный ! http://e-rock.ru/index.php


Top
 Profile E-mail  
 
 
PostPosted: 14 May 2014 
Хиппей (support team)
User avatar
Joined: 30 Jul 2007
Posts: 111143
Lоcаtion: Киев (Kyiv, UA)
Age: 45
Name: Andrey
Ага, тока он частенько глючит :lloo:

_________________


Top
 Profile E-mail  
 
 
PostPosted: 14 May 2014 
Хиппей (support team)
User avatar
Joined: 30 Jul 2007
Posts: 111143
Lоcаtion: Киев (Kyiv, UA)
Age: 45
Name: Andrey
thorbeorn wrote:
№1 flac tracks+scans (no cue-file):


Image

mirror: M-Cloud l Narod

Приятный, добрый и достаточно тяжеловесный хард-рок :dance:

log
Exact Audio Copy V1.0 beta 1 from 15. November 2010

Protokol extrakce EAC z 28. Červenec 2013, 1:25

Zemětřesení / Zemětřesení

Použitá mechanika : BAFAHYH 56ROHQB Adapter: 2 ID: 0

Režim čtení : Burst

Kombinovaná korekce vychýlení čtení/zápisu: : 0
Číst lead-in a lead-out : Ne
Nahradit chybějící vzorky tichem : Ano
Smazat ticho na začátku a na konci stop : Ne
Při výpočtu CRC použity nulové vzorky : Ne
Použité rozhraní : Integrované Win32 rozhraní pro NT/2k/XP
Nakládání s mezerami : Nedetekovány - přidány k předchozí stopě

Použitý výstupní formát : Uživatelsky definovaný enkodér
Zvolený datový tok : 1024 kBit/s
Kvalita : Vysoká
Přidat ID3 tag : Ano
Komprimační program pro příkazový řádek : C:\Program Files\Exact Audio Copy\Flac\flac.exe
Dodatečné parametry : -6 -V -T "ARTIST=%a" -T "TITLE=%t" -T "ALBUM=%g" -T "DATE=%y" -T "TRACKNUMBER=%n" -T "GENRE=%m" -T "COMMENT=%e" %j--picture="%i"%j %s -o %d


TOC extrahovaného CD

Stopa | Počátek | Délka | Počáteční sektor | Koncový sektor
-----------------------------------------------------------------
1 | 0:00.33 | 3:45.00 | 33 | 16907
2 | 3:45.33 | 4:08.27 | 16908 | 35534
3 | 7:53.60 | 4:17.40 | 35535 | 54849
4 | 12:11.25 | 2:49.00 | 54850 | 67524
5 | 15:00.25 | 4:55.70 | 67525 | 89719
6 | 19:56.20 | 2:45.40 | 89720 | 102134
7 | 22:41.60 | 5:11.50 | 102135 | 125509
8 | 27:53.35 | 3:28.30 | 125510 | 141139
9 | 31:21.65 | 4:18.18 | 141140 | 160507
10 | 35:40.08 | 4:14.47 | 160508 | 179604


Stopa 1

název souboru C:\mars\01 - Zemětřesení.wav

špičková úroveň 97.3 %
rychlost extrakce46.0 X
CRC kopie 2BBC661D
kopie OK

Stopa 2

název souboru C:\mars\02 - Cesty.wav

špičková úroveň 97.7 %
rychlost extrakce52.1 X
CRC kopie C44FA399
kopie OK

Stopa 3

název souboru C:\mars\03 - Galéra.wav

špičková úroveň 93.7 %
rychlost extrakce51.4 X
CRC kopie 3A594F25
kopie OK

Stopa 4

název souboru C:\mars\04 - Lupič Willy.wav

špičková úroveň 97.2 %
rychlost extrakce53.9 X
CRC kopie E22C5A14
kopie OK

Stopa 5

název souboru C:\mars\05 - Jsem prý blázen jen.wav

špičková úroveň 97.2 %
rychlost extrakce52.3 X
CRC kopie C8AC318C
kopie OK

Stopa 6

název souboru C:\mars\06 - Co dělá indián.wav

špičková úroveň 97.7 %
rychlost extrakce53.2 X
CRC kopie 31A32856
kopie OK

Stopa 7

název souboru C:\mars\07 - Strážci majáků.wav

špičková úroveň 95.1 %
rychlost extrakce52.0 X
CRC kopie 763412B5
kopie OK

Stopa 8

název souboru C:\mars\08 - Stavros Niarchos.wav

špičková úroveň 88.8 %
rychlost extrakce51.9 X
CRC kopie 1392ED5A
kopie OK

Stopa 9

název souboru C:\mars\09 - Holubí dům.wav

špičková úroveň 95.8 %
rychlost extrakce51.0 X
CRC kopie 4292E405
kopie OK

Stopa 10

název souboru C:\mars\10 - Nám se líbí.wav

špičková úroveň 97.7 %
rychlost extrakce53.1 X
CRC kopie 63D62A42
kopie OK

Nedošlo k žádným chybám

Konec protokolu

covers
Image Image Image Image Image Image Image Image Image Image

_________________


Top
 Profile E-mail  
 
 
PostPosted: 15 May 2014 
Хиппей (support team)
User avatar
Joined: 30 Jul 2007
Posts: 111143
Lоcаtion: Киев (Kyiv, UA)
Age: 45
Name: Andrey
thorbeorn wrote:
№2 wav tracks+scans+cue:


mirror: Narod l M-Cloud

Внутри те же самые коврики, только флаки расжаты в вавы и присутствует куй. Cжал обратно во флаксы.

cue
;
;--[ Created by Medieval CUE Splitter! ]--
;
;-----------[ http://www.medieval.it ]-----------
;
REM GENRE Rock
REM DATE 1993
REM DISCID 85095A0A
REM COMMENT "ExactAudioCopy v0.99pb5"
TITLE Zemetreseni
PERFORMER "SCHELINGER Jiri"
FILE "(01) [SCHELINGER Jiri] Zemetreseni.wav" WAVE
TRACK 01 AUDIO
TITLE Zemetreseni
PERFORMER "SCHELINGER Jiri"
PREGAP 00:00:33
INDEX 01 00:00:00
FILE "(02) [SCHELINGER Jiri] Cesty.wav" WAVE
TRACK 02 AUDIO
TITLE Cesty
PERFORMER "SCHELINGER Jiri"
INDEX 01 00:00:00
FILE "(03) [SCHELINGER Jiri] Galera.wav" WAVE
TRACK 03 AUDIO
TITLE Galera
PERFORMER "SCHELINGER Jiri"
PREGAP 00:00:52
INDEX 01 00:00:00
FILE "(04) [SCHELINGER Jiri] Lupic Willy.wav" WAVE
TRACK 04 AUDIO
TITLE "Lupic Willy"
PERFORMER "SCHELINGER Jiri"
INDEX 01 00:00:00
FILE "(05) [SCHELINGER Jiri] Jsem pry blazen jen.wav" WAVE
TRACK 05 AUDIO
TITLE "Jsem pry blazen jen"
PERFORMER "SCHELINGER Jiri"
PREGAP 00:01:57
INDEX 01 00:00:00
FILE "(06) [SCHELINGER Jiri] Co dela indian.wav" WAVE
TRACK 06 AUDIO
TITLE "Co dela indian"
PERFORMER "SCHELINGER Jiri"
PREGAP 00:01:62
INDEX 01 00:00:00
FILE "(07) [SCHELINGER Jiri] Strazci majaku.wav" WAVE
TRACK 07 AUDIO
TITLE "Strazci majaku"
PERFORMER "SCHELINGER Jiri"
INDEX 01 00:00:00
FILE "(08) [SCHELINGER Jiri] Stavros Niarchos.wav" WAVE
TRACK 08 AUDIO
TITLE "Stavros Niarchos"
PERFORMER "SCHELINGER Jiri"
INDEX 01 00:00:00
FILE "(09) [SCHELINGER Jiri] Holubi dum.wav" WAVE
TRACK 09 AUDIO
TITLE "Holubi dum"
PERFORMER "SCHELINGER Jiri"
PREGAP 00:00:25
INDEX 01 00:00:00
FILE "(10) [SCHELINGER Jiri] Nam se libi.wav" WAVE
TRACK 10 AUDIO
TITLE "Nam se libi"
PERFORMER "SCHELINGER Jiri"
INDEX 01 00:00:00

_________________


Top
 Profile E-mail  
 
 
PostPosted: 15 May 2014 
Трешер
User avatar
Joined: 25 Feb 2011
Posts: 1115
Lоcаtion: Харьков
Age: 42
Name: Aleksandr
Андрей а где ковры взял такие? Вот где блин нарыть такие же с Miloš Dodo Doležal - Guy Mann-Dude 1994 :vic:


Top
 Profile E-mail  
 
 
PostPosted: 15 May 2014 
Хиппей (support team)
User avatar
Joined: 30 Jul 2007
Posts: 111143
Lоcаtion: Киев (Kyiv, UA)
Age: 45
Name: Andrey
glloomerxe wrote:
ковры взял такие?

thorbeorn wrote:
№1 flac tracks+scans (no cue-file):
:oops:

_________________


Top
 Profile E-mail  
 
 
PostPosted: 15 May 2014 
Трешер
User avatar
Joined: 25 Feb 2011
Posts: 1115
Lоcаtion: Харьков
Age: 42
Name: Aleksandr
:oops: от молодец тот кто рипал дисочек


Top
 Profile E-mail  
 
Display posts from previous:  Sort by  
Post new topic Reply to topic  [ 28 posts ]  Go to page 1, 2  Next

All times are UTC + 3 hours


Who is online

Users browsing this forum: No registered users and 2 guests


You cannot post new topics in this forum
You cannot reply to topics in this forum
You cannot edit your posts in this forum
You cannot delete your posts in this forum
You cannot post attachments in this forum

Search for:
Яндекс.Метрика
Powered by phpBB © 2000, 2002, 2005, 2007 phpBB Group