\m/ 80's metal \m/

Информационно-аналитический форум "80 см пыли" (In Search We Trust) "У нас никто никуда не спешит"
Me For You - http://me-4u.com
It is currently 24 Jan 2019

All times are UTC + 3 hours

Spoiler
Chat - temporary registration for foreign users (please leave your application here)





Forum rules


Correctly issued inquiry should be as muсh as possible clear and look like as follows: We write a group name In the topic name, style and its location: an example: [reqs] Slayer - (USA, California) - Thrash Metal – a prefix presence in the name of the theme is obligatory.
It is necessary to list the following things: which album and track-list we are searching for, what quality will suit (probably you are looking for an original record or the Japanese, American/Russian reedition?), we insert the picture (to 300х300 px), we copy track-list (the edition you are searching for!). It will be useful if you point out some information about the group and quality of a required product (a size, bitrate). Before the inquiry have a forum search.php

Example: viewtopic.php?f=205&t=10187

Правильно оформленный запрос должен быть максимально понятен и выглядеть так:
В названии топика пишем имя группы, стиль и её месторасположение (пример: [reqs] Slayer - (USA, California) - Thrash Metal).
Внутри поста необходимо перечислить, какие именно релизы ищем, в каком формате устроит, обязательно указываем трэк-листы (возможно вы хотите оригинальную запись или японское, американское/российское переиздание?), вставляем минимальные картинки (до 300х300 px). Также не помешают несколько слов о самой группе.
Перед запросом, чтобы не попасть в неловкое положение, юзаем поиск по форуму search.php

Если вы мало что поняли из прочтённого, смотрим пример грамотного запроса: viewtopic.php?f=205&t=10187
Сообщения размещаем только в раздел "Лося не видели?".
Самих лосей постим и красиво оформляем в "Лосиной бухте" - viewforum.php?f=31

Важные ссылки и дополнения к правилам раздела:
Убедительная просьба. Создавайте запросы правильно.
viewtopic.php?f=113&t=1802
Прежде чем запрашивать альбом, спросите его у Google
viewtopic.php?f=113&t=2696
Что вас может ожидать в случае несоблюдения правил:
viewtopic.php?t=3792


Приятного общения на нашем форуме и удачи в охоте на "металлических животных" :dance:

Image

Заказывать альбомы 2017/2018 г запрещено!
Don't Request Releases from 2017/2018 Please!!!



Post new topic Reply to topic  [ 6 posts ] 
Author Message
 
PostPosted: 04 Aug 2013 
\m/ 80 см сала \m/
User avatar
Joined: 12 Mar 2012
Posts: 2589
Age: 25
Name: Nick
Image

Mortal Sin - Face of Despair (1989) - 2007 Remastered (by Riot! Entertainment)

tracklist
01. I Am Immortal 4:43
02. Voyage Of The Disturbed 5:04
03. The Infantry Corps 3:52
04. For Richer For Poorer 4:46
05. Martyrs Of Eternity 5:11
06. Innocent Torture 4:12
07. Suspended Animation 4:56
08. H 3:20
09. Terminal Reward 4:34
10. Robbie Soles 2:33
Bonus tracks:
11. Access Denied (Demo Version)
4:30
12. Violation Of Your Privacy (Demo Version) 4:32
13. King Of Avarice (Demo Version) 6:00

metal-archives wrote:
20th Anniversary Official Re-issue (remastered at Studios 301 September 2007) in November 2007 on Riot! Entertainment, featuring three bonus tracks.


Альбом на metal-archives | discogs

Ахтунг! Было также на ММТ.

_________________
1990 AUROPHON BRAINSTORM (Germany) - lossless
1994 MAUSOLEUM CLASSIX (Belgium-Germany) - lossless
1998 VA - GRIM HARVEST - Complete Metal Massacre Volumes I-XII


Top
 Profile  
 
 
PostPosted: 27 Aug 2013 
\m/ 80 см сала \m/
User avatar
Joined: 12 Mar 2012
Posts: 2589
Age: 25
Name: Nick
ММТ-шный релиз, спасибо labanov с darksage :thanx:
Download: yadi.sk (image+.log+some scans)

.log
Code:
EAC extraction logfile from 11. January 2008, 19:56 for CD
Mortal Sin / Face Of Despair

Used drive  : BENQ    DVD DD DW1640   Adapter: 0  ID: 1
Read mode   : Secure with NO C2, accurate stream, disable cache
Read offset correction : 618
Overread into Lead-In and Lead-Out : No

Used output format : C:\- Temp\Metalmadness.Pack.v3.0.-.Tutorial.APE-FLAC-WV\Exact Audio Copy 0.9b4 + APE WV & FLAC Encoders\MAC.EXE   (Monkey's Audio Lossless Encoder)
                     High Lossless Compression

Other options      :
    Fill up missing offset samples with silence : Yes
    Delete leading and trailing silent blocks : No
    Native Win32 interface for Win NT & 2000


Range status and errors
Selected range
   Filename C:\- Temp\MortalSinFaceOfDespair.wav

   Peak level 100.0 %
   Range quality 100.0 %
   CRC 5A565547
   Copy OK

No errors occured

End of status report

.cue
Code:
PERFORMER "Mortal Sin"
TITLE "Face Of Despair"
FILE "MortalSinFaceOfDespair.ape" WAVE
  TRACK 01 AUDIO
    TITLE "I Am Immortal"
    PERFORMER "Mortal Sin"
    FLAGS DCP
    INDEX 01 00:00:00
  TRACK 02 AUDIO
    TITLE "Voyage Of The Disturbed"
    PERFORMER "Mortal Sin"
    FLAGS DCP
    INDEX 00 04:43:27
    INDEX 01 04:45:52
  TRACK 03 AUDIO
    TITLE "The Infantry Corps"
    PERFORMER "Mortal Sin"
    FLAGS DCP
    INDEX 00 09:49:57
    INDEX 01 09:52:11
  TRACK 04 AUDIO
    TITLE "For Richer For Poorer"
    PERFORMER "Mortal Sin"
    FLAGS DCP
    INDEX 00 13:44:62
    INDEX 01 13:47:03
  TRACK 05 AUDIO
    TITLE "Martyrs Of Eternity"
    PERFORMER "Mortal Sin"
    FLAGS DCP
    INDEX 00 18:33:04
    INDEX 01 18:36:14
  TRACK 06 AUDIO
    TITLE "Innocent Torture"
    PERFORMER "Mortal Sin"
    FLAGS DCP
    INDEX 00 23:47:39
    INDEX 01 23:49:71
  TRACK 07 AUDIO
    TITLE "Suspended Animation"
    PERFORMER "Mortal Sin"
    FLAGS DCP
    INDEX 00 28:02:52
    INDEX 01 28:05:09
  TRACK 08 AUDIO
    TITLE "H"
    PERFORMER "Mortal Sin"
    FLAGS DCP
    INDEX 00 33:01:43
    INDEX 01 33:04:08
  TRACK 09 AUDIO
    TITLE "Terminal Reward"
    PERFORMER "Mortal Sin"
    FLAGS DCP
    INDEX 00 36:24:24
    INDEX 01 36:26:30
  TRACK 10 AUDIO
    TITLE "Robbie Soles"
    PERFORMER "Mortal Sin"
    FLAGS DCP
    INDEX 00 41:00:74
    INDEX 01 41:03:35
  TRACK 11 AUDIO
    TITLE "Access Denied (Demo Version)"
    PERFORMER "Mortal Sin"
    FLAGS DCP
    INDEX 00 43:36:64
    INDEX 01 43:40:63
  TRACK 12 AUDIO
    TITLE "Violation Of Your Privacy (Demo Version)"
    PERFORMER "Mortal Sin"
    FLAGS DCP
    INDEX 00 48:11:11
    INDEX 01 48:13:73
  TRACK 13 AUDIO
    TITLE "King Of Avirice (Demo Version)"
    PERFORMER "Mortal Sin"
    FLAGS DCP
    INDEX 00 52:46:01
    INDEX 01 52:49:36

scans
ImageImageImage


Подправил куй:
.cue (edited) | +
Code:
REM DATE 1989
PERFORMER "Mortal Sin"
TITLE "Face Of Despair [2007, Riot Entertainment, RIOT031CD]"
FILE "MortalSinFaceOfDespair.ape" WAVE
  TRACK 01 AUDIO
    TITLE "I Am Immortal"
    PERFORMER "Mortal Sin"
    FLAGS DCP
    INDEX 01 00:00:00
  TRACK 02 AUDIO
    TITLE "Voyage Of The Disturbed"
    PERFORMER "Mortal Sin"
    FLAGS DCP
    INDEX 00 04:43:27
    INDEX 01 04:45:52
  TRACK 03 AUDIO
    TITLE "The Infantry Corps"
    PERFORMER "Mortal Sin"
    FLAGS DCP
    INDEX 00 09:49:57
    INDEX 01 09:52:11
  TRACK 04 AUDIO
    TITLE "For Richer For Poorer"
    PERFORMER "Mortal Sin"
    FLAGS DCP
    INDEX 00 13:44:62
    INDEX 01 13:47:03
  TRACK 05 AUDIO
    TITLE "Martyrs Of Eternity"
    PERFORMER "Mortal Sin"
    FLAGS DCP
    INDEX 00 18:33:04
    INDEX 01 18:36:14
  TRACK 06 AUDIO
    TITLE "Innocent Torture"
    PERFORMER "Mortal Sin"
    FLAGS DCP
    INDEX 00 23:47:39
    INDEX 01 23:49:71
  TRACK 07 AUDIO
    TITLE "Suspended Animation"
    PERFORMER "Mortal Sin"
    FLAGS DCP
    INDEX 00 28:02:52
    INDEX 01 28:05:09
  TRACK 08 AUDIO
    TITLE "H"
    PERFORMER "Mortal Sin"
    FLAGS DCP
    INDEX 00 33:01:43
    INDEX 01 33:04:08
  TRACK 09 AUDIO
    TITLE "Terminal Reward"
    PERFORMER "Mortal Sin"
    FLAGS DCP
    INDEX 00 36:24:24
    INDEX 01 36:26:30
  TRACK 10 AUDIO
    TITLE "Robbie Soles"
    PERFORMER "Mortal Sin"
    FLAGS DCP
    INDEX 00 41:00:74
    INDEX 01 41:03:35
  TRACK 11 AUDIO
    TITLE "Access Denied (demo version)"
    PERFORMER "Mortal Sin"
    FLAGS DCP
    INDEX 00 43:36:64
    INDEX 01 43:40:63
  TRACK 12 AUDIO
    TITLE "Violation Of Your Privacy (demo version)"
    PERFORMER "Mortal Sin"
    FLAGS DCP
    INDEX 00 48:11:11
    INDEX 01 48:13:73
  TRACK 13 AUDIO
    TITLE "King Of Avirice (demo version)"
    PERFORMER "Mortal Sin"
    FLAGS DCP
    INDEX 00 52:46:01
    INDEX 01 52:49:36

_________________
1990 AUROPHON BRAINSTORM (Germany) - lossless
1994 MAUSOLEUM CLASSIX (Belgium-Germany) - lossless
1998 VA - GRIM HARVEST - Complete Metal Massacre Volumes I-XII


Top
 Profile  
 
 
PostPosted: 27 Sep 2013 
\m/ 80 см сала \m/
User avatar
Joined: 12 Mar 2012
Posts: 2589
Age: 25
Name: Nick
New link: Narod

_________________
1990 AUROPHON BRAINSTORM (Germany) - lossless
1994 MAUSOLEUM CLASSIX (Belgium-Germany) - lossless
1998 VA - GRIM HARVEST - Complete Metal Massacre Volumes I-XII


Top
 Profile  
 
 
PostPosted: 21 Dec 2013 
Дежурный по КУПу
User avatar
Joined: 17 Aug 2007
Posts: 5871
Age: 50
Name: Ге
Коль, спасибо! Как раз искать начал а тут вот оно :true: :thanx:

_________________
http://jp-mania.ru/
http://jp-tourdates.ucoz.ru/


Top
 Profile  
 
 
PostPosted: 21 Dec 2013 
Хиппей (support team)
User avatar
Joined: 30 Jul 2007
Posts: 109774
Lоcаtion: Киев (Kyiv, UA)
Age: 45
Name: Andrey
Блин... :fingal: Где-то я ж только что подобный топик видел :shok:

_________________


Top
 Profile E-mail  
 
 
PostPosted: 21 Dec 2013 
\m/ 80 см сала \m/
User avatar
Joined: 12 Mar 2012
Posts: 2589
Age: 25
Name: Nick
В закромах еще есть лосик (вроде рексил на форуме, не помню) 2009 - Into the Inferno (Live in Oslo) - залью когда тырнет починят :pardon:

_________________
1990 AUROPHON BRAINSTORM (Germany) - lossless
1994 MAUSOLEUM CLASSIX (Belgium-Germany) - lossless
1998 VA - GRIM HARVEST - Complete Metal Massacre Volumes I-XII


Top
 Profile  
 
Display posts from previous:  Sort by  
Post new topic Reply to topic  [ 6 posts ] 

All times are UTC + 3 hours


Who is online

Users browsing this forum: Yandex [Bot] and 7 guests


You cannot post new topics in this forum
You cannot reply to topics in this forum
You cannot edit your posts in this forum
You cannot delete your posts in this forum
You cannot post attachments in this forum

Search for:
Яндекс.Метрика
Powered by phpBB © 2000, 2002, 2005, 2007 phpBB Group