\m/ 80's metal \m/

Информационно-аналитический форум "80 см пыли" (In Search We Trust) "У нас никто никуда не спешит"
Me For You - http://me-4u.com
It is currently 16 Jan 2019

All times are UTC + 3 hours

Spoiler
Chat - temporary registration for foreign users (please leave your application here)





Forum rules


Correctly issued inquiry should be as muсh as possible clear and look like as follows: We write a group name In the topic name, style and its location: an example: [reqs] Slayer - (USA, California) - Thrash Metal – a prefix presence in the name of the theme is obligatory.
It is necessary to list the following things: which album and track-list we are searching for, what quality will suit (probably you are looking for an original record or the Japanese, American/Russian reedition?), we insert the picture (to 300х300 px), we copy track-list (the edition you are searching for!). It will be useful if you point out some information about the group and quality of a required product (a size, bitrate). Before the inquiry have a forum search.php

Example: viewtopic.php?f=205&t=10187

Правильно оформленный запрос должен быть максимально понятен и выглядеть так:
В названии топика пишем имя группы, стиль и её месторасположение (пример: [reqs] Slayer - (USA, California) - Thrash Metal).
Внутри поста необходимо перечислить, какие именно релизы ищем, в каком формате устроит, обязательно указываем трэк-листы (возможно вы хотите оригинальную запись или японское, американское/российское переиздание?), вставляем минимальные картинки (до 300х300 px). Также не помешают несколько слов о самой группе.
Перед запросом, чтобы не попасть в неловкое положение, юзаем поиск по форуму search.php

Если вы мало что поняли из прочтённого, смотрим пример грамотного запроса: viewtopic.php?f=205&t=10187
Сообщения размещаем только в раздел "Лося не видели?".
Самих лосей постим и красиво оформляем в "Лосиной бухте" - viewforum.php?f=31

Важные ссылки и дополнения к правилам раздела:
Убедительная просьба. Создавайте запросы правильно.
viewtopic.php?f=113&t=1802
Прежде чем запрашивать альбом, спросите его у Google
viewtopic.php?f=113&t=2696
Что вас может ожидать в случае несоблюдения правил:
viewtopic.php?t=3792


Приятного общения на нашем форуме и удачи в охоте на "металлических животных" :dance:

Image

Заказывать альбомы 2017/2018 г запрещено!
Don't Request Releases from 2017/2018 Please!!!



Post new topic Reply to topic  [ 31 posts ]  Go to page Previous  1, 2
Author Message
 
PostPosted: 25 May 2013 
\m/ 80 см сала \m/
User avatar
Joined: 12 Mar 2012
Posts: 2589
Age: 25
Name: Nick
Аракаиномания продолжается... :crazy:
Image

Цель - собрать максимально полную дискографию этой замечательной группы в lossless c адекватными логами\куями (звучит-то как!) + сканы по возможности.
Раньше я уже делал несколько запросов по отдельно взятым альбомам, но, учитывая объем и дискографии и то, сколько еще рипов в поиске, решил сделать общую тему для всей группы. Под спойлерами находится список "что есть\чего нет" и ссылки на скачивание при наличии адекватного рипа (ссылки как и на темы этого форума, так и на другие ресурсы - Rutracker).
Приоритет - альбомы до 2002 года включительно (с Алешом Брихтой на вокале).

Оригиналы:
Image1990 - Thrash the Trash (на чешском языке);
Image1991 - Schizofrenie - Rutracker (MMT);
Image1992 - Black Jack - Rutracker (MMT);
Image1993 - Salto Mortale - есть релиз от ММТ;
Image1994 - Thrash - 80s.takemetal|Rutracker (MMT);
Image1995 - Legendy - есть в виде .bin образа + сканы, рип неизвестного происхождения;
Image1996 - S.O.S.;
Image1998 - Apage Satanas - 80s.takemetal;
Image1999 - Farao - 80s.takemetal;
Image2001 - Forrest Gump - 80s.takemetal|Rutracker;
Image2002 - Archeology - есть в виде .bin образа + сканы, рип неизвестного происхождения;
Image2003 - Metalmorfoza - есть рип без лога и сканов;
Image2005 - Warning! - есть рип без лога и сканов;
Image2006 - Labyrint - 80s.takemetal;
Image2009 - Restart - есть рип без лога, со сканами;
Image2011 - Homo Sapiens..? - Rutracker

Live-альбомы (оригиналы):
Image1992 - History Live;
Image2000 - Gambrinus Live!;
Image2007 - XXV Eden;

Ремастеры (двухальбомные сплиты):
Image1998 - Thrash the Trash + Schizofrenie - 80s.takemetal|Rutracker;
Image2011 - Black Jack + History Live - есть mp3@320 cd-rip + сканы;

Компиляции:
Image1998 - 15 Vol.1 & 2;
Image2003 - Balady.


ARAKAIN в MP3 (@160-320 CBR & VBR)

_________________
1990 AUROPHON BRAINSTORM (Germany) - lossless
1994 MAUSOLEUM CLASSIX (Belgium-Germany) - lossless
1998 VA - GRIM HARVEST - Complete Metal Massacre Volumes I-XII


Last edited by Everhard on 27 May 2013, edited 6 times in total.

Top
 Profile  
 
 
PostPosted: 08 Oct 2014 
Хиппей (support team)
User avatar
Joined: 30 Jul 2007
Posts: 109598
Lоcаtion: Киев (Kyiv, UA)
Age: 45
Name: Andrey
Everhard wrote:
Arakain - 2002 - Archeology (bin - надо правильно выковырять)

Мдя... Ник, давай попробуем помочь друг другу? :pardon:

http://kazus.ru/forums/showthread.php?t=21253
Я вроде всё понял, но... цифры смущают всякие такие вот многозначные :fingal:

Image

_________________


Top
 Profile E-mail  
 
 
PostPosted: 08 Oct 2014 
\m/ 80 см сала \m/
User avatar
Joined: 12 Mar 2012
Posts: 2589
Age: 25
Name: Nick
Ой, там все намного проще было. Я вроде монтировал .bin образ в виртуальный привод и распаковывал уже с диска .wav фрагментами. Существенный минус этого способа - разбивка на трэки выходит "как есть", вместе с "тишиной" и прочими радостями, которые прописаны в нормальных рипах с куем, и которые плеер не читает.

_________________
1990 AUROPHON BRAINSTORM (Germany) - lossless
1994 MAUSOLEUM CLASSIX (Belgium-Germany) - lossless
1998 VA - GRIM HARVEST - Complete Metal Massacre Volumes I-XII


Top
 Profile  
 
 
PostPosted: 08 Oct 2014 
\m/ 80 см сала \m/
User avatar
Joined: 12 Mar 2012
Posts: 2589
Age: 25
Name: Nick
Arakain - 2002 - Archeology (flac + cue + scans) - рип с виртуального привода!
Narod

_________________
1990 AUROPHON BRAINSTORM (Germany) - lossless
1994 MAUSOLEUM CLASSIX (Belgium-Germany) - lossless
1998 VA - GRIM HARVEST - Complete Metal Massacre Volumes I-XII


Top
 Profile  
 
 
PostPosted: 08 Oct 2014 
Хиппей (support team)
User avatar
Joined: 30 Jul 2007
Posts: 109598
Lоcаtion: Киев (Kyiv, UA)
Age: 45
Name: Andrey
Хм, ну тада я качну и попробую как-нить расдуплить, хоть и криво, зато слушаемо :pardon:

_________________


Top
 Profile E-mail  
 
 
PostPosted: 08 Oct 2014 
Хиппей (support team)
User avatar
Joined: 30 Jul 2007
Posts: 109598
Lоcаtion: Киев (Kyiv, UA)
Age: 45
Name: Andrey
Ой, как чётко то. Пока я спал, проснулся, отправил сообщение, а бинарник уже превратился в... образ :lloo:
Дякую! :thanx:

mirror: Narod l M-Cloud

_________________


Top
 Profile E-mail  
 
 
PostPosted: 29 Oct 2016 
Генеральный thrasher
User avatar
Joined: 03 Oct 2008
Posts: 3567
Lоcаtion: Ханты-Мансийский АО
Age: 43
Name: Сергей
Image

Year:2016
Style:Power/Thrash Metal
Country:Czech Republic
Archive:Flac Tracks+Cue+Log+Scans
Size:456Mb
Label:2P Production

Tracklist:
01. Hra s ohněm 04:08
02. Peklo 04:56
03. Diesel 04:18
04. Král slunce 04:36
05. Nenávidím 04:34
06. No stres 03:23
07. Vyděšenej 03:42
08. Arakadabra 04:11
09. Kruhy v obilí 04:07
10. Nero 03:21
11. Stroj 04:35
12. Insomnia 04:42
13. Big Boss 03:51
14. Velkej je svět 04:02
15. Kazatel 03:13
16. Ve vlasech tvých 04:16

"Cue"
REM GENRE Metal
REM DATE 2016
REM DISCID F00F7110
REM COMMENT "ExactAudioCopy v1.1"
PERFORMER "Arakain"
TITLE "Arakadabra"
FILE "01. Hra s ohněm.wav" WAVE
TRACK 01 AUDIO
TITLE "Hra s ohněm"
PERFORMER "Arakain"
INDEX 01 00:00:00
FILE "02. Peklo.wav" WAVE
TRACK 02 AUDIO
TITLE "Peklo"
PERFORMER "Arakain"
INDEX 01 00:00:00
FILE "03. Diesel.wav" WAVE
TRACK 03 AUDIO
TITLE "Diesel"
PERFORMER "Arakain"
INDEX 01 00:00:00
FILE "04. Král slunce.wav" WAVE
TRACK 04 AUDIO
TITLE "Král slunce"
PERFORMER "Arakain"
INDEX 01 00:00:00
FILE "05. Nenávidím.wav" WAVE
TRACK 05 AUDIO
TITLE "Nenávidím"
PERFORMER "Arakain"
INDEX 01 00:00:00
FILE "06. No stres.wav" WAVE
TRACK 06 AUDIO
TITLE "No stres"
PERFORMER "Arakain"
INDEX 01 00:00:00
FILE "07. Vyděšenej.wav" WAVE
TRACK 07 AUDIO
TITLE "Vyděšenej"
PERFORMER "Arakain"
INDEX 01 00:00:00
FILE "08. Arakadabra.wav" WAVE
TRACK 08 AUDIO
TITLE "Arakadabra"
PERFORMER "Arakain"
INDEX 01 00:00:00
FILE "09. Kruhy v obilí.wav" WAVE
TRACK 09 AUDIO
TITLE "Kruhy v obilí"
PERFORMER "Arakain"
INDEX 01 00:00:00
FILE "10. Nero.wav" WAVE
TRACK 10 AUDIO
TITLE "Nero"
PERFORMER "Arakain"
INDEX 01 00:00:00
FILE "11. Stroj.wav" WAVE
TRACK 11 AUDIO
TITLE "Stroj"
PERFORMER "Arakain"
INDEX 01 00:00:00
FILE "12. Insomnia.wav" WAVE
TRACK 12 AUDIO
TITLE "Insomnia"
PERFORMER "Arakain"
INDEX 01 00:00:00
FILE "13. Big Boss.wav" WAVE
TRACK 13 AUDIO
TITLE "Big Boss"
PERFORMER "Arakain"
INDEX 01 00:00:00
FILE "14. Velkej je svět.wav" WAVE
TRACK 14 AUDIO
TITLE "Velkej je svět"
PERFORMER "Arakain"
INDEX 01 00:00:00
FILE "15. Kazatel.wav" WAVE
TRACK 15 AUDIO
TITLE "Kazatel"
PERFORMER "Arakain"
INDEX 01 00:00:00
FILE "16. Ve vlasech tvých.wav" WAVE
TRACK 16 AUDIO
TITLE "Ve vlasech tvých"
PERFORMER "Arakain"
INDEX 01 00:00:00

"Log"
Exact Audio Copy V1.1 from 23. June 2015

EAC extraction logfile from 22. October 2016, 9:21

Arakain / Arakadabra

Used drive : HL-DT-STDVDRAM GTB0N Adapter: 1 ID: 0

Read mode : Secure
Utilize accurate stream : Yes
Defeat audio cache : No
Make use of C2 pointers : No

Read offset correction : 102
Overread into Lead-In and Lead-Out : Yes
Fill up missing offset samples with silence : Yes
Delete leading and trailing silent blocks : No
Null samples used in CRC calculations : Yes
Used interface : Native Win32 interface for Win NT & 2000
Gap handling : Appended to previous track

Used output format : User Defined Encoder
Selected bitrate : 768 kBit/s
Quality : High
Add ID3 tag : No
Command line compressor : C:\Program Files\Exact Audio Copy\FLAC\FLAC.EXE
Additional command line options : -6 -V -T "ARTIST=%artist%" -T "TITLE=%title%" -T "ALBUM=%albumtitle%" -T "DATE=%year%" -T "TRACKNUMBER=%tracknr%" -T "GENRE=%genre%" -T "COMMENT=%comment%" -T "BAND=%albuminterpret%" -T "ALBUMARTIST=%albuminterpret%" -T "COMPOSER=%composer%" %haslyrics%--tag-from-file=LYRICS="%lyricsfile%"%haslyrics% -T "DISCNUMBER=%cdnumber%" -T "TOTALDISCS=%totalcds%" -T "TOTALTRACKS=%numtracks%" %hascover%--picture="%coverfile%"%hascover% %source% -o %dest%


TOC of the extracted CD

Track | Start | Length | Start sector | End sector
---------------------------------------------------------
1 | 0:00.00 | 4:07.67 | 0 | 18591
2 | 4:07.67 | 4:56.20 | 18592 | 40811
3 | 9:04.12 | 4:17.67 | 40812 | 60153
4 | 13:22.04 | 4:36.09 | 60154 | 80862
5 | 17:58.13 | 4:34.18 | 80863 | 101430
6 | 22:32.31 | 3:23.02 | 101431 | 116657
7 | 25:55.33 | 3:41.45 | 116658 | 133277
8 | 29:37.03 | 4:10.54 | 133278 | 152081
9 | 33:47.57 | 4:07.11 | 152082 | 170617
10 | 37:54.68 | 3:20.52 | 170618 | 185669
11 | 41:15.45 | 4:34.61 | 185670 | 206280
12 | 45:50.31 | 4:41.57 | 206281 | 227412
13 | 50:32.13 | 3:50.58 | 227413 | 244720
14 | 54:22.71 | 4:01.51 | 244721 | 262846
15 | 58:24.47 | 3:12.45 | 262847 | 277291
16 | 61:37.17 | 4:16.09 | 277292 | 296500


Track 1

Filename C:\Users\т\Music\eac rip\01. Hra s ohněm.wav

Pre-gap length 0:00:02.00

Peak level 100.0 %
Extraction speed 5.1 X
Track quality 100.0 %
Test CRC 2502F2F1
Copy CRC 2502F2F1
Track not present in AccurateRip database
Copy OK

Track 2

Filename C:\Users\т\Music\eac rip\02. Peklo.wav

Peak level 98.9 %
Extraction speed 5.8 X
Track quality 100.0 %
Test CRC 7B915D2B
Copy CRC 7B915D2B
Track not present in AccurateRip database
Copy OK

Track 3

Filename C:\Users\т\Music\eac rip\03. Diesel.wav

Peak level 100.0 %
Extraction speed 6.2 X
Track quality 100.0 %
Test CRC EBE40D9B
Copy CRC EBE40D9B
Track not present in AccurateRip database
Copy OK

Track 4

Filename C:\Users\т\Music\eac rip\04. Král slunce.wav

Peak level 100.0 %
Extraction speed 6.6 X
Track quality 100.0 %
Test CRC 1252F316
Copy CRC 1252F316
Track not present in AccurateRip database
Copy OK

Track 5

Filename C:\Users\т\Music\eac rip\05. Nenávidím.wav

Peak level 100.0 %
Extraction speed 6.7 X
Track quality 99.9 %
Test CRC 5FE4168D
Copy CRC 5FE4168D
Track not present in AccurateRip database
Copy OK

Track 6

Filename C:\Users\т\Music\eac rip\06. No stres.wav

Peak level 100.0 %
Extraction speed 7.3 X
Track quality 100.0 %
Test CRC 18821C42
Copy CRC 18821C42
Track not present in AccurateRip database
Copy OK

Track 7

Filename C:\Users\т\Music\eac rip\07. Vyděšenej.wav

Peak level 100.0 %
Extraction speed 7.6 X
Track quality 100.0 %
Test CRC 866827EE
Copy CRC 866827EE
Track not present in AccurateRip database
Copy OK

Track 8

Filename C:\Users\т\Music\eac rip\08. Arakadabra.wav

Peak level 100.0 %
Extraction speed 8.2 X
Track quality 100.0 %
Test CRC A6D8DACE
Copy CRC A6D8DACE
Track not present in AccurateRip database
Copy OK

Track 9

Filename C:\Users\т\Music\eac rip\09. Kruhy v obilí.wav

Peak level 100.0 %
Extraction speed 8.2 X
Track quality 100.0 %
Test CRC 02E66AB7
Copy CRC 02E66AB7
Track not present in AccurateRip database
Copy OK

Track 10

Filename C:\Users\т\Music\eac rip\10. Nero.wav

Peak level 100.0 %
Extraction speed 8.4 X
Track quality 100.0 %
Test CRC 19E7310E
Copy CRC 19E7310E
Track not present in AccurateRip database
Copy OK

Track 11

Filename C:\Users\т\Music\eac rip\11. Stroj.wav

Peak level 100.0 %
Extraction speed 8.8 X
Track quality 100.0 %
Test CRC 63CF1C01
Copy CRC 63CF1C01
Track not present in AccurateRip database
Copy OK

Track 12

Filename C:\Users\т\Music\eac rip\12. Insomnia.wav

Peak level 100.0 %
Extraction speed 9.1 X
Track quality 100.0 %
Test CRC E934DF42
Copy CRC E934DF42
Track not present in AccurateRip database
Copy OK

Track 13

Filename C:\Users\т\Music\eac rip\13. Big Boss.wav

Peak level 100.0 %
Extraction speed 9.6 X
Track quality 100.0 %
Test CRC 0E138B25
Copy CRC 0E138B25
Track not present in AccurateRip database
Copy OK

Track 14

Filename C:\Users\т\Music\eac rip\14. Velkej je svět.wav

Peak level 100.0 %
Extraction speed 6.7 X
Track quality 99.9 %
Test CRC CAAA0470
Copy CRC CAAA0470
Track not present in AccurateRip database
Copy OK

Track 15

Filename C:\Users\т\Music\eac rip\15. Kazatel.wav

Peak level 100.0 %
Extraction speed 10.1 X
Track quality 100.0 %
Test CRC 5DB699D9
Copy CRC 5DB699D9
Track not present in AccurateRip database
Copy OK

Track 16

Filename C:\Users\т\Music\eac rip\16. Ve vlasech tvých.wav

Peak level 100.0 %
Extraction speed 10.1 X
Track quality 100.0 %
Test CRC 2179663A
Copy CRC 2179663A
Track not present in AccurateRip database
Copy OK


None of the tracks are present in the AccurateRip database

No errors occurred

End of status report

==== Log checksum 6840BDC5475D77D2DD4E6D920348A0CE5224ED5D57952AD2EDFD51263A2D7CD0 ====


Arakadabra


Top
 Profile  
 
 
PostPosted: 29 Oct 2016 
Работнечег
User avatar
Joined: 28 Aug 2007
Posts: 5645
Lоcаtion: г. Москва
Age: 29
Name: Дима
Спасибо большое, Серег! :true: :true: Нравится эта группа!


Top
 Profile E-mail  
 
 
PostPosted: 29 Oct 2016 
Прокъмитолист
User avatar
Joined: 12 Aug 2007
Posts: 6523
Lоcаtion: Санктъ-Петербуркъ
Age: 51
Name: Олекъ
:thanx:

_________________
прокъметол - это музыко, от которово есть прок (ы)


Top
 Profile  
 
 
PostPosted: 29 Oct 2016 
Генеральный thrasher
User avatar
Joined: 03 Oct 2008
Posts: 3567
Lоcаtion: Ханты-Мансийский АО
Age: 43
Name: Сергей
Спасибо большое, Серег! :true: :true: Нравится эта группа!


Мне самому очень нравится,Дим.Вообще чешский металл и рок нравятся.А уж Citron,Arakain,Vitacit,Debustrol и Kreyson - мои любимцы.


Top
 Profile  
 
 
PostPosted: 30 Oct 2016 
Хиппей (support team)
User avatar
Joined: 30 Jul 2007
Posts: 109598
Lоcаtion: Киев (Kyiv, UA)
Age: 45
Name: Andrey
:thanx:

mirror: iFolder l Narod l M-Cloud

_________________


Top
 Profile E-mail  
 
 
PostPosted: 31 Oct 2016 
Хиппей (support team)
User avatar
Joined: 30 Jul 2007
Posts: 109598
Lоcаtion: Киев (Kyiv, UA)
Age: 45
Name: Andrey
Мдя. без Брихты группа превратилась в просто рок-группу третьего эшелона, играющую взрослый и неинтересный Hard Rock & Heavy Metal.
Поржал над 7-м и 13-м трэкома. Старички решили сыграть модняк :crazy:

3/10

_________________


Top
 Profile E-mail  
 
Display posts from previous:  Sort by  
Post new topic Reply to topic  [ 31 posts ]  Go to page Previous  1, 2

All times are UTC + 3 hours


Who is online

Users browsing this forum: No registered users and 3 guests


You cannot post new topics in this forum
You cannot reply to topics in this forum
You cannot edit your posts in this forum
You cannot delete your posts in this forum
You cannot post attachments in this forum

Search for:
Яндекс.Метрика
Powered by phpBB © 2000, 2002, 2005, 2007 phpBB Group