\m/ 80's metal \m/

Информационно-аналитический форум "80 см пыли" (In Search We Trust) "У нас никто никуда не спешит"
Me For You - http://me-4u.com
It is currently 24 Jan 2019

All times are UTC + 3 hours

Spoiler
Chat - temporary registration for foreign users (please leave your application here)





Forum rules


Correctly issued inquiry should be as muсh as possible clear and look like as follows: We write a group name In the topic name, style and its location: an example: [reqs] Slayer - (USA, California) - Thrash Metal – a prefix presence in the name of the theme is obligatory.
It is necessary to list the following things: which album and track-list we are searching for, what quality will suit (probably you are looking for an original record or the Japanese, American/Russian reedition?), we insert the picture (to 300х300 px), we copy track-list (the edition you are searching for!). It will be useful if you point out some information about the group and quality of a required product (a size, bitrate). Before the inquiry have a forum search.php

Example: viewtopic.php?f=205&t=10187

Правильно оформленный запрос должен быть максимально понятен и выглядеть так:
В названии топика пишем имя группы, стиль и её месторасположение (пример: [reqs] Slayer - (USA, California) - Thrash Metal).
Внутри поста необходимо перечислить, какие именно релизы ищем, в каком формате устроит, обязательно указываем трэк-листы (возможно вы хотите оригинальную запись или японское, американское/российское переиздание?), вставляем минимальные картинки (до 300х300 px). Также не помешают несколько слов о самой группе.
Перед запросом, чтобы не попасть в неловкое положение, юзаем поиск по форуму search.php

Если вы мало что поняли из прочтённого, смотрим пример грамотного запроса: viewtopic.php?f=205&t=10187
Сообщения размещаем только в раздел "Лося не видели?".
Самих лосей постим и красиво оформляем в "Лосиной бухте" - viewforum.php?f=31

Важные ссылки и дополнения к правилам раздела:
Убедительная просьба. Создавайте запросы правильно.
viewtopic.php?f=113&t=1802
Прежде чем запрашивать альбом, спросите его у Google
viewtopic.php?f=113&t=2696
Что вас может ожидать в случае несоблюдения правил:
viewtopic.php?t=3792


Приятного общения на нашем форуме и удачи в охоте на "металлических животных" :dance:

Image

Заказывать альбомы 2017/2018 г запрещено!
Don't Request Releases from 2017/2018 Please!!!



Post new topic Reply to topic  [ 31 posts ]  Go to page 1, 2  Next
Author Message
 
PostPosted: 25 May 2013 
\m/ 80 см сала \m/
User avatar
Joined: 12 Mar 2012
Posts: 2589
Age: 25
Name: Nick
Аракаиномания продолжается... :crazy:
Image

Цель - собрать максимально полную дискографию этой замечательной группы в lossless c адекватными логами\куями (звучит-то как!) + сканы по возможности.
Раньше я уже делал несколько запросов по отдельно взятым альбомам, но, учитывая объем и дискографии и то, сколько еще рипов в поиске, решил сделать общую тему для всей группы. Под спойлерами находится список "что есть\чего нет" и ссылки на скачивание при наличии адекватного рипа (ссылки как и на темы этого форума, так и на другие ресурсы - Rutracker).
Приоритет - альбомы до 2002 года включительно (с Алешом Брихтой на вокале).

Оригиналы:
Image1990 - Thrash the Trash (на чешском языке);
Image1991 - Schizofrenie - Rutracker (MMT);
Image1992 - Black Jack - Rutracker (MMT);
Image1993 - Salto Mortale - есть релиз от ММТ;
Image1994 - Thrash - 80s.takemetal|Rutracker (MMT);
Image1995 - Legendy - есть в виде .bin образа + сканы, рип неизвестного происхождения;
Image1996 - S.O.S.;
Image1998 - Apage Satanas - 80s.takemetal;
Image1999 - Farao - 80s.takemetal;
Image2001 - Forrest Gump - 80s.takemetal|Rutracker;
Image2002 - Archeology - есть в виде .bin образа + сканы, рип неизвестного происхождения;
Image2003 - Metalmorfoza - есть рип без лога и сканов;
Image2005 - Warning! - есть рип без лога и сканов;
Image2006 - Labyrint - 80s.takemetal;
Image2009 - Restart - есть рип без лога, со сканами;
Image2011 - Homo Sapiens..? - Rutracker

Live-альбомы (оригиналы):
Image1992 - History Live;
Image2000 - Gambrinus Live!;
Image2007 - XXV Eden;

Ремастеры (двухальбомные сплиты):
Image1998 - Thrash the Trash + Schizofrenie - 80s.takemetal|Rutracker;
Image2011 - Black Jack + History Live - есть mp3@320 cd-rip + сканы;

Компиляции:
Image1998 - 15 Vol.1 & 2;
Image2003 - Balady.


ARAKAIN в MP3 (@160-320 CBR & VBR)

_________________
1990 AUROPHON BRAINSTORM (Germany) - lossless
1994 MAUSOLEUM CLASSIX (Belgium-Germany) - lossless
1998 VA - GRIM HARVEST - Complete Metal Massacre Volumes I-XII


Last edited by Everhard on 27 May 2013, edited 6 times in total.

Top
 Profile  
 
 
PostPosted: 25 May 2013 
Хиппей (support team)
User avatar
Joined: 30 Jul 2007
Posts: 109773
Lоcаtion: Киев (Kyiv, UA)
Age: 45
Name: Andrey
... :shok: ....

_________________


Top
 Profile E-mail  
 
 
PostPosted: 25 May 2013 
\m/ 80 см сала \m/
User avatar
Joined: 12 Mar 2012
Posts: 2589
Age: 25
Name: Nick
Scatterbrain wrote:
... :shok: ....

:true:
Чертовы чехи, приспичило им нахреначить столько альбомов. А собрать-то все хочеццо :benya:

_________________
1990 AUROPHON BRAINSTORM (Germany) - lossless
1994 MAUSOLEUM CLASSIX (Belgium-Germany) - lossless
1998 VA - GRIM HARVEST - Complete Metal Massacre Volumes I-XII


Top
 Profile  
 
 
PostPosted: 25 May 2013 
парень в очёчкXаX!
User avatar
Joined: 15 Aug 2007
Posts: 2353
Lоcаtion: UK'раина, г. ЛондАн Би-Би-Си
Age: 48
Name: Сергей
Image1999 - Farao - без лога, рип неизвестного происхождения,

хм, этот цыд был на ТАКИ Метале, с ориг. цыда и со всеми потрохами, кудЫ он делся? по поиску не нашел... :shok:

странно :fingal:

с ув. :meloman:


Top
 Profile  
 
 
PostPosted: 25 May 2013 
Хиппей (support team)
User avatar
Joined: 30 Jul 2007
Posts: 109773
Lоcаtion: Киев (Kyiv, UA)
Age: 45
Name: Andrey
Scatterbrain wrote:
... :shok: ....

:true:
Чертовы чехи, приспичило им нахреначить столько альбомов. А собрать-то все хочеццо :benya:

Ну в мп3 то я давно всё собрал. Плюс от Брихты в 08-м году постоянно получал его сольные записи.
А лосиками особо не горю, у них куча проходных альбомов :pardon:

_________________


Top
 Profile E-mail  
 
 
PostPosted: 25 May 2013 
Хиппей (support team)
User avatar
Joined: 30 Jul 2007
Posts: 109773
Lоcаtion: Киев (Kyiv, UA)
Age: 45
Name: Andrey
Image1999 - Farao - без лога, рип неизвестного происхождения,

хм, этот цыд был на ТАКИ Метале, с ориг. цыда и со всеми потрохами, кудЫ он делся? по поиску не нашел... :shok:

странно :fingal:

с ув. :meloman:

Не-не, лосика не было. У Спидика он на диске есть, если что viewtopic.php?f=25&t=4594&start=300
Ой, да и у Серёги Торберна или еще у кого-то явно :vic:

_________________


Top
 Profile E-mail  
 
 
PostPosted: 25 May 2013 
парень в очёчкXаX!
User avatar
Joined: 15 Aug 2007
Posts: 2353
Lоcаtion: UK'раина, г. ЛондАн Би-Би-Си
Age: 48
Name: Сергей
Quote:
Scatterbrain » Сб май 25, 2013 9:55 pm
постоянно получал его сольные записи.

вот, только щас прочитал тебя и вспомнил, шо ты лично хвастался, шо в свое время кучу всяких демок на кассетах тебе слали чуть ли не со всего мира, ....
и есть у тебя совесть это все держать и не отцифрить, ааа?
я даже знаю, где и в какой студии и самое главное, кто это сделает... ;)

ну не может быть, чтобы ничего не осталось.....

давай Одмин - шота делай реально!
пора уже дать диджитал свет всему этому твоему мусору на MC, ...протухли ужо в банановой кислоте :fingal: :esel:


Top
 Profile  
 
 
PostPosted: 26 May 2013 
Хиппей (support team)
User avatar
Joined: 30 Jul 2007
Posts: 109773
Lоcаtion: Киев (Kyiv, UA)
Age: 45
Name: Andrey
А шо давать? Там фуфло всякое под гитарку исполненное :bard:
Да и вываливал я всё по этому персонажу, только тогда это мало кого интересовало :pardon:

А по остальным всяким группам у меня всегда открыт пиринг. Качайте, тяните, утягивайте, я ж только рад буду :thanx:

Щас же я просто переливаю чужие рипы, как прежде, ну и иногда нахожу на винтах у себя чота интересное и сам заливаю. Но процесс очь мучительно длительный.

_________________


Top
 Profile E-mail  
 
 
PostPosted: 26 May 2013 
Генеральный thrasher
User avatar
Joined: 03 Oct 2008
Posts: 3577
Lоcаtion: Ханты-Мансийский АО
Age: 43
Name: Сергей
Есть следующее:

Farao
"Log"
Отчёт EAC об извлечении, выполненном 18. августа 2009, 22:22 для диска:
Arakain / Farao

Дисковод: TEAC CD-W524E Adapter: 0 ID: 1
Режим чтения: Достоверный (C2: нет, Точный поток: да, Отключение кэша: да)
Коррекция смещения при чтении: 686
Способность читать области Lead-in и Lead-out : Нет

Выходной формат: Внутренние WAV-операции
44.100 Гц; 16 бит; стерео

Другие параметры:
Заполнение пропущенных сэмплов тишиной : Да
Удаление блоков с тишиной в начале и конце : Нет
Установленный внешний ASPI-интерфейс


Характеристики диапазона извлечения и сообщения об ошибках
Выбранный диапазон
Имя файла D:\Music\Сегодня+\CoverZ\UPLOADz\Arak\Arakain - Farao.wav

Пиковый уровень 99.4 %
Качество диапазона 100.0 %
CRC D5C49BAB
Копирование... OK

Ошибок не произошло

Конец отчёта


Labyrint
"Log"
Exact Audio Copy V0.99 prebeta 5 from 4. May 2009

Zбznam extrakce EAC z 17. Kvмten 2010, 12:57

Arakain / Labyrint

Pouћitб mechanika : HL-DT-STDVDRAM GSA-H10N Adapter: 0 ID: 1

Reћim иtenн : Bezpeиnэ
Pouћнt accurate stream : Ano
Obejнt zvukovou vyr. pamмќ : Ne
Pouћнt C2 ukazatele : Ano

Korekce vychэlenн иtenн : 667
Инst lead-in a lead-out : Ne
Nahradit chybмjнcн vzorky tichem : Ano
Smazat ticho na zaибtku a na konci stop : Ne
Pшi vэpoиtu CRC pouћity nulovй vzorky : Ano
Pouћitй rozhranн : Integrovanй Win32 rozhranн pro NT/2k/XP

Pouћitэ vэstupnн formбt : Internal WAV Routines
Formбt vzorkovбnн : 44.100 Hz; 16 Bit; Stereo


TOC extrahovanйho CD

Stopa | Poибtek | Dйlka | Poибteиnн sektor | Koncovэ sektor
-----------------------------------------------------------------
1 | 0:00.00 | 4:21.07 | 0 | 19581
2 | 4:21.07 | 3:26.20 | 19582 | 35051
3 | 7:47.27 | 4:26.42 | 35052 | 55043
4 | 12:13.69 | 3:19.43 | 55044 | 70011
5 | 15:33.37 | 4:14.28 | 70012 | 89089
6 | 19:47.65 | 3:59.12 | 89090 | 107026
7 | 23:47.02 | 3:47.52 | 107027 | 124103
8 | 27:34.54 | 3:36.09 | 124104 | 140312
9 | 31:10.63 | 3:15.20 | 140313 | 154957
10 | 34:26.08 | 3:49.56 | 154958 | 172188
11 | 38:15.64 | 4:02.06 | 172189 | 190344
12 | 42:17.70 | 4:02.36 | 190345 | 208530
13 | 46:20.31 | 4:26.28 | 208531 | 228508


Rozsah - stav a chyby

Vybranэ rozsah

nбzev souboru C:\Documents and Settings\tonda\Dokumenty\Arakain - Labyrint.wav

љpiиkovб ъrovмт 98.8 %
kvalita rozsahu 100.0 %
CRC kopie 97D74211
kopie OK

Nedoљlo k ћбdnэm chybбm


AccurateRip

Stopa 1 nebylo moћnй ovмшit jako pшesnй (spolehlivost 2) [A1DCDA45], AccurateRip [3A58F225]
Stopa 2 nebylo moћnй ovмшit jako pшesnй (spolehlivost 2) [78A07660], AccurateRip [1ACD8040]
Stopa 3 nebylo moћnй ovмшit jako pшesnй (spolehlivost 2) [9DB553B9], AccurateRip [AFDB1D41]
Stopa 4 nebylo moћnй ovмшit jako pшesnй (spolehlivost 2) [22E2BFB5], AccurateRip [15EAA6DD]
Stopa 5 nebylo moћnй ovмшit jako pшesnй (spolehlivost 2) [729C19A5], AccurateRip [D53211FD]
Stopa 6 nebylo moћnй ovмшit jako pшesnй (spolehlivost 2) [E29B26BD], AccurateRip [A0547555]
Stopa 7 nebylo moћnй ovмшit jako pшesnй (spolehlivost 2) [54900B8C], AccurateRip [48919EFC]
Stopa 8 nebylo moћnй ovмшit jako pшesnй (spolehlivost 2) [F1CA563B], AccurateRip [093E25F3]
Stopa 9 nebylo moћnй ovмшit jako pшesnй (spolehlivost 2) [E082F2ED], AccurateRip [6148CA85]
Stopa 10 nebylo moћnй ovмшit jako pшesnй (spolehlivost 2) [78F30BAE], AccurateRip [E756233E]
Stopa 11 nebylo moћnй ovмшit jako pшesnй (spolehlivost 2) [2E22C16D], AccurateRip [A60FBF9D]
Stopa 12 nebylo moћnй ovмшit jako pшesnй (spolehlivost 2) [51B0160C], AccurateRip [21E3D054]
Stopa 13 nebylo moћnй ovмшit jako pшesnй (spolehlivost 2) [F7B2CBE2], AccurateRip [454C6C6A]

Ћбdnй stopy nemohly bэt ovмшeny jako pшesnй
Mщћete mнt jinэ vэlisek neћ jsou ty kterй jsou jiћ v databбzi

Konec stavovйho hlбљenн


Apage Satanas
"Log"
Exact Audio Copy V0.99 prebeta 4 from 23. January 2008

EAC extraction logfile from 28. April 2009, 23:08

Arakain / Apage Satanas

Used drive : ASUS DRW-2014L1 Adapter: 3 ID: 0

Read mode : Secure
Utilize accurate stream : Yes
Defeat audio cache : Yes
Make use of C2 pointers : No

Read offset correction : 6
Overread into Lead-In and Lead-Out : No
Fill up missing offset samples with silence : Yes
Delete leading and trailing silent blocks : No
Null samples used in CRC calculations : Yes
Used interface : Installed external ASPI interface

Used output format : Internal WAV Routines
Sample format : 44.100 Hz; 16 Bit; Stereo


TOC of the extracted CD

Track | Start | Length | Start sector | End sector
---------------------------------------------------------
1 | 0:00.00 | 3:50.27 | 0 | 17276
2 | 3:50.27 | 3:37.45 | 17277 | 33596
3 | 7:27.72 | 3:40.30 | 33597 | 50126
4 | 11:08.27 | 4:04.45 | 50127 | 68471
5 | 15:12.72 | 4:14.63 | 68472 | 87584
6 | 19:27.60 | 3:56.00 | 87585 | 105284
7 | 23:23.60 | 4:44.17 | 105285 | 126601
8 | 28:08.02 | 4:41.73 | 126602 | 147749
9 | 32:50.00 | 4:04.55 | 147750 | 166104
10 | 36:54.55 | 4:42.32 | 166105 | 187286
11 | 41:37.12 | 5:00.20 | 187287 | 209806
12 | 46:37.32 | 3:43.25 | 209807 | 226556
13 | 50:20.57 | 4:19.23 | 226557 | 246004


Range status and errors

Selected range

Filename C:\Documents and Settings\Александр\Мои документы\CD RIPs\Arakain - Apage Satanas\Arakain - Apage Satanas.wav

Peak level 98.8 %
Range quality 100.0 %
Copy CRC 34371662
Copy OK

No errors occurred

End of status report


Top
 Profile  
 
 
PostPosted: 26 May 2013 
\m/ 80 см сала \m/
User avatar
Joined: 12 Mar 2012
Posts: 2589
Age: 25
Name: Nick
thorbeorn wrote:
Есть следующее:

Скачаю все, что зальете :oops:
Если можно - первым желательно Labyrint.

_________________
1990 AUROPHON BRAINSTORM (Germany) - lossless
1994 MAUSOLEUM CLASSIX (Belgium-Germany) - lossless
1998 VA - GRIM HARVEST - Complete Metal Massacre Volumes I-XII


Top
 Profile  
 
 
PostPosted: 27 May 2013 
Генеральный thrasher
User avatar
Joined: 03 Oct 2008
Posts: 3577
Lоcаtion: Ханты-Мансийский АО
Age: 43
Name: Сергей
Каждый альбом постить в отдельную тему в бухту или сюда?


Top
 Profile  
 
 
PostPosted: 27 May 2013 
\m/ 80 см сала \m/
User avatar
Joined: 12 Mar 2012
Posts: 2589
Age: 25
Name: Nick
thorbeorn, спасибо, забрал все :thanx:

_________________
1990 AUROPHON BRAINSTORM (Germany) - lossless
1994 MAUSOLEUM CLASSIX (Belgium-Germany) - lossless
1998 VA - GRIM HARVEST - Complete Metal Massacre Volumes I-XII


Top
 Profile  
 
 
PostPosted: 27 May 2013 
парень в очёчкXаX!
User avatar
Joined: 15 Aug 2007
Posts: 2353
Lоcаtion: UK'раина, г. ЛондАн Би-Би-Си
Age: 48
Name: Сергей
Каждый альбом постить в отдельную тему в бухту или сюда?

ну раз создали теММу, то конечно лучше суда, так намного удобнее, красивее, обоятельнее, привлекательнее, обоюднее, любвиобильнее, эстетичнее! :crazy: :blum: :nunu:


Top
 Profile  
 
 
PostPosted: 22 Apr 2014 
Генеральный thrasher
User avatar
Joined: 03 Oct 2008
Posts: 3577
Lоcаtion: Ханты-Мансийский АО
Age: 43
Name: Сергей
S.O.S и Legendy раздаются на рутрэкере...


Top
 Profile  
 
 
PostPosted: 22 Apr 2014 
Хиппей (support team)
User avatar
Joined: 30 Jul 2007
Posts: 109773
Lоcаtion: Киев (Kyiv, UA)
Age: 45
Name: Andrey
:thanx: Полез смотреть :dance:

_________________


Top
 Profile E-mail  
 
 
PostPosted: 23 Apr 2014 
Хиппей (support team)
User avatar
Joined: 30 Jul 2007
Posts: 109773
Lоcаtion: Киев (Kyiv, UA)
Age: 45
Name: Andrey
Arakain - 1995 - Legendy [flac]

Image Image Image

mirror: Narod l M-Cloud

log
Exact Audio Copy V1.0 beta 3 from 29. August 2011

EAC extraction logfile from 23. December 2013, 16:29

Arakain / Legendy

Used drive : Optiarc DVD RW AD-7170A Adapter: 0 ID: 0

Read mode : Secure
Utilize accurate stream : Yes
Defeat audio cache : Yes
Make use of C2 pointers : No

Read offset correction : 48
Overread into Lead-In and Lead-Out : No
Fill up missing offset samples with silence : Yes
Delete leading and trailing silent blocks : No
Null samples used in CRC calculations : Yes
Used interface : Native Win32 interface for Win NT & 2000

Used output format : Internal WAV Routines
Sample format : 44.100 Hz; 16 Bit; Stereo


TOC of the extracted CD

Track | Start | Length | Start sector | End sector
---------------------------------------------------------
1 | 0:00.00 | 3:48.25 | 0 | 17124
2 | 3:48.25 | 2:20.70 | 17125 | 27694
3 | 6:09.20 | 2:10.67 | 27695 | 37511
4 | 8:20.12 | 4:47.08 | 37512 | 59044
5 | 13:07.20 | 4:31.22 | 59045 | 79391
6 | 17:38.42 | 3:17.60 | 79392 | 94226
7 | 20:56.27 | 2:15.63 | 94227 | 104414
8 | 23:12.15 | 4:47.22 | 104415 | 125961


Range status and errors

Selected range

Filename D:\Gosha7766\Arakain 1995 - Legendy\Arakain - Legendy.wav

Peak level 99.6 %
Extraction speed 2.3 X
Range quality 100.0 %
Test CRC 5A747ED5
Copy CRC 5A747ED5
Copy OK

No errors occurred


AccurateRip summary

Track 1 accurately ripped (confidence 2) [776067F6] (AR v1)
Track 2 accurately ripped (confidence 2) [CB4A7DE9] (AR v1)
Track 3 accurately ripped (confidence 2) [A55F14DA] (AR v1)
Track 4 accurately ripped (confidence 2) [B8D8125F] (AR v1)
Track 5 accurately ripped (confidence 2) [183BFEC7] (AR v1)
Track 6 accurately ripped (confidence 2) [AAB0B8B6] (AR v1)
Track 7 accurately ripped (confidence 2) [11576101] (AR v1)
Track 8 cannot be verified as accurate (confidence 1) [884EAD61], AccurateRip returned [B3415BAB] (AR v2)

7 трек(и) скопированы точно
1 трек(и) не удалось проверить на точность

Some tracks could not be verified as accurate

End of status report

---- CUETools DB Plugin V2.1.3

[CTDB TOCID: X_tNi5DcMBG98StNAz6jRlThy1o-] found, Submit result: already submitted
[b2fa1537] (3/4) Accurately ripped
[2127f593] (1/4) No match


==== Log checksum 3AD0B43ABB45CF590AF1A17ED0E3DBDC0104F467330365D95FB0C2A70FE1B4E5 ====

cue
REM GENRE "Power/Thrash Metal"
REM DATE 1995
REM DISCID 59068F08
REM COMMENT "ExactAudioCopy v1.0b3"
PERFORMER "Arakain"
TITLE "Legendy"
FILE "Arakain - Legendy.flac" WAVE
TRACK 01 AUDIO
TITLE "Karambol (Fireball - Deep Purple)"
PERFORMER "Arakain"
INDEX 01 00:00:00
TRACK 02 AUDIO
TITLE "Eleanor Rigby (Eleanor Rigby - The Beatles)"
PERFORMER "Arakain"
INDEX 01 03:48:25
TRACK 03 AUDIO
TITLE "Hymna zoufalcu (Immigrant Song - Led Zeppelin)"
PERFORMER "Arakain"
INDEX 01 06:09:20
TRACK 04 AUDIO
TITLE "Slecna zavist (Lady In Black - Uriah Heep)"
PERFORMER "Arakain"
INDEX 01 08:20:12
TRACK 05 AUDIO
TITLE "Snezna slepota (Snowblind - Black Sabbath)"
PERFORMER "Arakain"
INDEX 01 13:07:20
TRACK 06 AUDIO
TITLE "Dal dal se ptej (Far Far Away - Slade)"
PERFORMER "Arakain"
INDEX 01 17:38:42
TRACK 07 AUDIO
TITLE "Chameleon (Breaking The Law - Judas Priest)"
PERFORMER "Arakain"
INDEX 01 20:56:27
TRACK 08 AUDIO
TITLE "Derniera (Zbyva uz jen mavnout) (Railroad - Grand Funk Railroad)"
PERFORMER "Arakain"
INDEX 01 23:12:15


Arakain - 1996 - S.O.S. [flac]

Image Image Image Image

mirror: Narod l M-Cloud

log
Exact Audio Copy V1.0 beta 3 from 29. August 2011

EAC extraction logfile from 23. December 2013, 17:18

Arakain / S.O.S

Used drive : Optiarc DVD RW AD-7170A Adapter: 0 ID: 0

Read mode : Secure
Utilize accurate stream : Yes
Defeat audio cache : Yes
Make use of C2 pointers : No

Read offset correction : 48
Overread into Lead-In and Lead-Out : No
Fill up missing offset samples with silence : Yes
Delete leading and trailing silent blocks : No
Null samples used in CRC calculations : Yes
Used interface : Native Win32 interface for Win NT & 2000

Used output format : Internal WAV Routines
Sample format : 44.100 Hz; 16 Bit; Stereo


TOC of the extracted CD

Track | Start | Length | Start sector | End sector
---------------------------------------------------------
1 | 0:00.00 | 4:05.45 | 0 | 18419
2 | 4:05.45 | 3:37.55 | 18420 | 34749
3 | 7:43.25 | 3:23.00 | 34750 | 49974
4 | 11:06.25 | 5:02.25 | 49975 | 72649
5 | 16:08.50 | 3:53.00 | 72650 | 90124
6 | 20:01.50 | 4:00.17 | 90125 | 108141
7 | 24:01.67 | 3:37.15 | 108142 | 124431
8 | 27:39.07 | 4:13.05 | 124432 | 143411
9 | 31:52.12 | 3:58.25 | 143412 | 161286
10 | 35:50.37 | 4:09.58 | 161287 | 180019
11 | 40:00.20 | 3:15.12 | 180020 | 194656
12 | 43:15.32 | 3:10.18 | 194657 | 208924


Range status and errors

Selected range

Filename D:\Gosha7766\Arakain 1996 - S.O.S\Arakain - S.O.S.wav

Peak level 99.6 %
Extraction speed 2.3 X
Range quality 100.0 %
Test CRC B777D7A0
Copy CRC B777D7A0
Copy OK

No errors occurred


AccurateRip summary

Track 1 accurately ripped (confidence 1) [7D719DD4] (AR v1)
Track 2 accurately ripped (confidence 1) [2305D485] (AR v1)
Track 3 accurately ripped (confidence 1) [AF5A6B66] (AR v1)
Track 4 accurately ripped (confidence 1) [9D31D827] (AR v1)
Track 5 accurately ripped (confidence 1) [A81F8CE4] (AR v1)
Track 6 accurately ripped (confidence 1) [9922374E] (AR v1)
Track 7 accurately ripped (confidence 1) [B163FAD3] (AR v1)
Track 8 accurately ripped (confidence 1) [089A60EA] (AR v1)
Track 9 accurately ripped (confidence 1) [FE7B7E14] (AR v1)
Track 10 accurately ripped (confidence 1) [C92CBCE6] (AR v1)
Track 11 accurately ripped (confidence 1) [36C555BE] (AR v1)
Track 12 accurately ripped (confidence 1) [8915582F] (AR v1)

All tracks accurately ripped

End of status report

---- CUETools DB Plugin V2.1.3

[CTDB TOCID: 5eBL8qbO2lsDgYGpQZYiiJO6ObE-] found, Submit result: 5eBL8qbO2lsDgYGpQZYiiJO6ObE- has been confirmed
[27410969] (2/2) Accurately ripped


==== Log checksum A19A8EF2520415284FD79F0FC14D1E77A2AD9D4A2245EFFF2AE89AF8940EB4BF ====

cue
REM GENRE "Power/Thrash Metal"
REM DATE 1996
REM DISCID 9A0AE10C
REM COMMENT "ExactAudioCopy v1.0b3"
PERFORMER "Arakain"
TITLE "S.O.S"
FILE "Arakain - S.O.S.flac" WAVE
TRACK 01 AUDIO
TITLE "To jsme my"
PERFORMER "Arakain"
INDEX 01 00:00:00
TRACK 02 AUDIO
TITLE "S.O.S."
PERFORMER "Arakain"
INDEX 01 04:05:45
TRACK 03 AUDIO
TITLE "Patecni flam"
PERFORMER "Arakain"
INDEX 01 07:43:25
TRACK 04 AUDIO
TITLE "Trinacta komnata"
PERFORMER "Arakain"
INDEX 00 11:04:62
INDEX 01 11:06:25
TRACK 05 AUDIO
TITLE "Loutky"
PERFORMER "Arakain"
INDEX 00 16:07:60
INDEX 01 16:08:50
TRACK 06 AUDIO
TITLE "Adrian"
PERFORMER "Arakain"
INDEX 00 20:00:57
INDEX 01 20:01:50
TRACK 07 AUDIO
TITLE "Schody nikam"
PERFORMER "Arakain"
INDEX 01 24:01:67
TRACK 08 AUDIO
TITLE "Hladit vlasy tvy"
PERFORMER "Arakain"
INDEX 01 27:39:07
TRACK 09 AUDIO
TITLE "Hanibal"
PERFORMER "Arakain"
INDEX 01 31:52:12
TRACK 10 AUDIO
TITLE "Hlas krve"
PERFORMER "Arakain"
INDEX 01 35:50:37
TRACK 11 AUDIO
TITLE "Blazni viry"
PERFORMER "Arakain"
INDEX 01 40:00:20
TRACK 12 AUDIO
TITLE "Tusim zradu"
PERFORMER "Arakain"
INDEX 00 43:15:07
INDEX 01 43:15:32


Source: rutracker.org :thanx:

_________________


Top
 Profile E-mail  
 
 
PostPosted: 20 Jun 2014 
\m/ 80 см сала \m/
User avatar
Joined: 12 Mar 2012
Posts: 2589
Age: 25
Name: Nick
Arakain - 1993 - Salto Mortale (MMT?, ape)
Image

download: ya.disk

Arakain - 1998 - 15 Vol.1 & 2 (ape tracks, найдено в сети)
Image

download: ya.disk

Arakain - 2002 - Archeology (bin - надо правильно выковырять)
Image

download: ya.disk

Arakain - 2003 - Metalmorfoza (flac, без лога)
Image

download: ya.disk

Arakain - 2005 - Warning! (flac, без лога)
Image

download: ya.disk

Arakain - 2009 - Restart (wavpack, без лога)
Image

download: ya.disk

_________________
1990 AUROPHON BRAINSTORM (Germany) - lossless
1994 MAUSOLEUM CLASSIX (Belgium-Germany) - lossless
1998 VA - GRIM HARVEST - Complete Metal Massacre Volumes I-XII


Top
 Profile  
 
 
PostPosted: 21 Jun 2014 
Трешер
User avatar
Joined: 25 Feb 2011
Posts: 1062
Lоcаtion: Харьков
Age: 42
Name: Aleksandr
:thanx: Спасибо буду качать :dance:


Top
 Profile E-mail  
 
 
PostPosted: 21 Jun 2014 
Хиппей (support team)
User avatar
Joined: 30 Jul 2007
Posts: 109773
Lоcаtion: Киев (Kyiv, UA)
Age: 45
Name: Andrey
:thanx:

mirrors:

Arakain - 1993 - Salto Mortale (MMT) [ape]

Narod l M-Cloud

Arakain - 1998 - 15 Vol.1 & 2 (ape tracks, найдено в сети)

mirror: Narod l M-Cloud

Arakain - 2003 - MetalMorfoza (without log) [flac]

Narod l M-Cloud

Arakain - 2005 - Warning! (flac, без лога)

Narod l M-Cloud

Arakain - 2009 - Restart (without log) [wv]

Narod l M-Cloud

_________________


Top
 Profile E-mail  
 
 
PostPosted: 26 Jun 2014 
ТрэшЭрос
User avatar
Joined: 18 Jul 2011
Posts: 2300
Lоcаtion: Гулькевичи
Age: 44
Name: Александр
:thanx:

_________________
Thrash no trash!!!


Top
 Profile E-mail  
 
Display posts from previous:  Sort by  
Post new topic Reply to topic  [ 31 posts ]  Go to page 1, 2  Next

All times are UTC + 3 hours


Who is online

Users browsing this forum: No registered users and 7 guests


You cannot post new topics in this forum
You cannot reply to topics in this forum
You cannot edit your posts in this forum
You cannot delete your posts in this forum
You cannot post attachments in this forum

Search for:
Яндекс.Метрика
Powered by phpBB © 2000, 2002, 2005, 2007 phpBB Group